Subcategories

Ornette Coleman and Joachim Kuhn - Colors (1996) {Verve 314 537 789-2}

Posted By: ruskaval
Ornette Coleman and Joachim Kuhn - Colors (1996) {Verve 314 537 789-2}

Ornette Coleman and Joachim Kuhn - Colors (1996) {Verve 314 537 789-2}
EAC rip (secure mode) | FLAC (tracks)+CUE+LOG -> 338 Mb | MP3 @320 -> 157 Mb
Full Artwork @ 300 dpi (jpg) -> 40 Mb | 5% repair rar
© 1996 Harmolodic / Verve | 314 537 789-2
Jazz / Contemporary Jazz / Saxophone / Piano

Ornette Coleman is certainly full of surprises in his 60s, recording a duo album with – believe it or not – a pianist. For this project, he chose the German pianist Joachim Kühn, who gratefully claims that it was Ornette's example that originally led him down the road to free jazz, and they recorded eight Coleman compositions live in the opera house of Kühn's hometown, Leipzig. Yet their collaboration is not really a radical departure from Ornette's sound worlds in his acoustic groups or in the electric Prime Time. The two seem to exist on parallel planes, not interacting or reacting rhythmically or harmonically, but carving out their occasionally entwined melodic lines separately.

Nor does Ornette change his own alto sax manner; at times, he performs in the same rhetorical fashion as he does with Prime Time, while venturing on the outside far more often and scraping away on the violin or burbling on his trumpet when the odd impulse strikes. The music ranges from the relatively funky "Faxing" – no doubt a spinoff from Tone Dialing – to the atonal complexity of "Three Ways to One," and the technically formidable Kühn gets an ovation for his extremely intricate solo passage in the latter. Here is an example of the artist having it both ways, reintroducing an instrument that he became famous for banishing, yet without compromising the artistic conception that led to its banishment in the first place. Thus, Colors is a fascinating addition to the Ornette Coleman catalogue.
Ornette Coleman and Joachim Kuhn - Colors (1996) {Verve 314 537 789-2}


Personnel
Alto Saxophone, Violin, Trumpet, Composed By - Ornette Coleman
Piano - Joachim Kühn

Recorded on 31 August 1996 during the 20th Anniversary Leipziger JazzTage at the Leipzig Opera.

Track Listing
01 - Faxing
02 - House Of Stained Glass
03 - Refills
04 - Story Writing
05 - Three Ways To One
06 - Passion Cultures
07 - Night Plans
08 - Cyber Cyber

EAC extraction logfile from 10. September 2010, 23:56 for CD
Ornette Coleman & Joachim Kuhn / Colors - Live From Leipzig

Used drive : HP DVD Writer 1170d Adapter: 1 ID: 1
Read mode : Secure with NO C2, accurate stream, disable cache
Read offset correction : 6
Overread into Lead-In and Lead-Out : No

Used output format : C:\Eac\Codecs\flac.exe (User Defined Encoder)
320 kBit/s
Additional command line options : -8 -V -T "artist=%a" -T "title=%t" -T "album=%g" -T "date=%y" -T "tracknumber=%n" -T "genre=%m" -T "comment=EAC Flac 1.1.2 -8" %s

Other options :
Fill up missing offset samples with silence : Yes
Delete leading and trailing silent blocks : No
Installed external ASPI interface


Track 1
Filename C:\Documents and Settings\coleman kuhn\01 - Faxing.wav

Pre-gap length 0:00:02.00

Peak level 98.6 %
Track quality 100.0 %
Test CRC 31ABD46C
Copy CRC 31ABD46C
Copy OK

Track 2
Filename C:\Documents and Settings\coleman kuhn\02 - House Of Stained Glass.wav

Peak level 82.8 %
Track quality 99.9 %
Test CRC 4579F59E
Copy CRC 4579F59E
Copy OK

Track 3
Filename C:\Documents and Settings\coleman kuhn\03 - Refills.wav

Peak level 88.5 %
Track quality 100.0 %
Test CRC 7F6AF2AA
Copy CRC 7F6AF2AA
Copy OK

Track 4
Filename C:\Documents and Settings\coleman kuhn\04 - Story Writing.wav

Peak level 94.7 %
Track quality 100.0 %
Test CRC A8D71E8B
Copy CRC A8D71E8B
Copy OK

Track 5
Filename C:\Documents and Settings\coleman kuhn\05 - Three Ways To One.wav

Peak level 85.3 %
Track quality 100.0 %
Test CRC 85FFF7D6
Copy CRC 85FFF7D6
Copy OK

Track 6
Filename C:\Documents and Settings\coleman kuhn\06 - Passion Cultures.wav

Peak level 79.9 %
Track quality 100.0 %
Test CRC 6EB9C162
Copy CRC 6EB9C162
Copy OK

Track 7
Filename C:\Documents and Settings\coleman kuhn\07 - Night Plans.wav

Peak level 73.3 %
Track quality 100.0 %
Test CRC E410763B
Copy CRC E410763B
Copy OK

Track 8
Filename C:\Documents and Settings\coleman kuhn\08 - Cyber Cyber.wav

Pre-gap length 0:04:58.70

Peak level 97.9 %
Track quality 100.0 %
Test CRC 9223C09F
Copy CRC 9223C09F
Copy OK

No errors occured


End of status report


Ornette Coleman and Joachim Kuhn - Colors (1996) {Verve 314 537 789-2}

Ornette Coleman and Joachim Kuhn - Colors (1996) {Verve 314 537 789-2}



===