Subcategories

Krzysztof Komeda Quintet - Astigmatic (Remastered Reissue) (1966/2016)

Posted By: delpotro
Krzysztof Komeda Quintet - Astigmatic (Remastered Reissue) (1966/2016)

Krzysztof Komeda Quintet - Astigmatic (Remastered Reissue) (1966/2016)
EAC Rip | FLAC (tracks+log+.cue) - 304 Mb | MP3 CBR 320 kbps - 107 Mb | 00:46:28
Jazz, Post Bop, Modal Jazz | Label: Warner Music Poland

Astigmatic is a studio album by Polish jazz pianist and composer Krzysztof Komeda. It is often considered to be Komeda's masterpiece as well as one of the greatest albums of both Polish and European jazz.

Astigmatic consists of three long tracks, all written by Komeda. "Kattorna" (meaning "female cats" in Swedish) is based on a motif from Komeda's soundtrack for a movie of the same name directed by Henning Carlsen. "Svantetic" is dedicated to Svante Foerster, a Swedish poet who was a friend of Komeda.

The music combines many disparate elements, including modal playing, free jazz-inspired improvisation, precise forms, tone clusters, aleatoric structures and avant-garde use of timbre and articulation, while imbuing them with individual expression and a sense of dramatic lyricism that's been compared to late Romantic music.

Richard Cook and Brian Morton name it as "one of the finest jazz albums ever made in Europe" and include it among the 1001 best jazz records in their book The Penguin Jazz Guide. Critic Stuart Nicholson wrote that it "has become a bellwether for European jazz, with critics pointing to how this album marked a shift away from the dominant American approach with the emergence of a specific European aesthetic". Similarly, Jazzwise magazine stated that it "is one of the most important contributions to the shaping of a European aesthetic in jazz composition", placing it at number 85 in the list The 100 Jazz Albums That Shook the World. Manfred Eicher, the founder of ECM Records, described Astigmatic as a milestone in the history of jazz. It was voted the best album of all time by readers of the Polish Jazz Forum magazine.

Writing about the 2016 reissue, FACT Magazine author Mikey IQ Jones stated that "Komeda's compositions and arrangements are beautiful and complex, and it's the rare epochal album whose power is still potent from the first listen through to its thousandth".

The compositions from Astigmatic have been repeatedly reinterpreted by Polish jazz musicians, including Urszula Dudziak, Michał Urbaniak and Tomasz Stańko. The title of the album Asthmatic by Polish free jazz band Miłość is an ironic reference to Astigmatic.
Tracklist:
1. Astigmatic (22:50)
2. Kattorna (07:20)
3. Svantetic (15:50)

Exact Audio Copy V1.1 from 23. June 2015

EAC extraction logfile from 29. April 2016, 23:53

Krzysztof Komeda / Astigmatic

Used drive : ATAPI iHAS124 B Adapter: 1 ID: 0

Read mode : Secure
Utilize accurate stream : Yes
Defeat audio cache : Yes
Make use of C2 pointers : No

Read offset correction : 6
Overread into Lead-In and Lead-Out : No
Fill up missing offset samples with silence : Yes
Delete leading and trailing silent blocks : No
Null samples used in CRC calculations : Yes
Used interface : Native Win32 interface for Win NT & 2000
Gap handling : Appended to previous track

Used output format : User Defined Encoder
Selected bitrate : 128 kBit/s
Quality : High
Add ID3 tag : No
Command line compressor : C:\Program Files (x86)\Exact Audio Copy\Flac\flac.exe
Additional command line options : -8 -e -V -T "ARTIST=%artist%" -T "TITLE=%title%" -T "ALBUM=%albumtitle%" -T "DATE=%year%" -T "TRACKNUMBER=%tracknr%" -T "GENRE=%genre%" -T "PERFORMER=%albuminterpret%" -T "COMPOSER=%composer%" %haslyrics%–tag-from-file=LYRICS="%lyricsfile%"%haslyrics% -T "ALBUMARTIST=%albumartist%" -T "DISCNUMBER=%cdnumber%" -T "TOTALDISCS=%totalcds%" -T "TOTALTRACKS=%numtracks%" -T "COMMENT=%comment%" %source% -o %dest%


TOC of the extracted CD

Track | Start | Length | Start sector | End sector
––––––––––––––––––––––––––––-
1 | 0:00.00 | 23:02.32 | 0 | 103681
2 | 23:02.32 | 7:30.16 | 103682 | 137447
3 | 30:32.48 | 15:56.19 | 137448 | 209166


Track 1

Filename D:\WHAT\UPLOAD\Krzysztof Komeda - Astigmatic (1966) [FLAC] {2016 Remaster}\01 - Astigmatic.wav

Pre-gap length 0:00:02.00

Peak level 89.3 %
Extraction speed 2.3 X
Track quality 99.9 %
Test CRC 951B7998
Copy CRC 951B7998
Track not present in AccurateRip database
Copy OK

Track 2

Filename D:\WHAT\UPLOAD\Krzysztof Komeda - Astigmatic (1966) [FLAC] {2016 Remaster}\02 - Kattorna.wav

Peak level 98.3 %
Extraction speed 2.5 X
Track quality 99.9 %
Test CRC DEFE73A8
Copy CRC DEFE73A8
Track not present in AccurateRip database
Copy OK

Track 3

Filename D:\WHAT\UPLOAD\Krzysztof Komeda - Astigmatic (1966) [FLAC] {2016 Remaster}\03 - Svantetic.wav

Peak level 97.3 %
Extraction speed 3.5 X
Track quality 100.0 %
Test CRC F0A7F4CC
Copy CRC F0A7F4CC
Track not present in AccurateRip database
Copy OK


None of the tracks are present in the AccurateRip database

No errors occurred

End of status report

–– CUETools DB Plugin V2.1.6

[CTDB TOCID: vi.ZKT5Tk_mLVKMw9ZRj9Wx0sXI-] found
Submit result: vi.ZKT5Tk_mLVKMw9ZRj9Wx0sXI- has been confirmed
Track | CTDB Status
1 | (4/4) Accurately ripped
2 | (4/4) Accurately ripped
3 | (4/4) Accurately ripped


==== Log checksum 82A25DE99639498B10BA594F81D111F8D4A174B21E2FB7D90522A4196DF14DEC ====

Thanks to the Original ripper !