Tags
Language
Tags

Johnny Griffin - Chicago, New York, Paris (1995) {Verve 527 367-2}

Posted By: ruskaval
Johnny Griffin - Chicago, New York, Paris (1995) {Verve 527 367-2}

Johnny Griffin - Chicago, New York, Paris (1995) {Verve 527 367-2}
EAC rip (secure mode) | FLAC (tracks)+CUE+LOG -> 342 Mb | MP3 @320 -> 150 Mb
Full Artwork @ 300 dpi (png) -> 43 Mb | 5% repair rar
© 1995 Verve / PolyGram | 527 367-2
Jazz / Bop / Mainstream Jazz / Saxophone

Like Joe Henderson who released one beautiful CD after another in the past 10 years or so, Griffin plays here with gorgeous tone and overflowing musicality only getting better with age. I love the newer sax lions like James Carter, Joshua Redman, and Joe Lovano but Griffin, again like Joe Henderson, seems to be bringing out the qualities only possessed by those who came from 50s.

To me, this album is up there with the very best works by Dexter Gordon and Hank Mobley. If you think that's a stretch, just listen to My Romance, one of the most poignant ballad renditions I've ever heard on saxophone. Add Roy Hargrove (trumpet) and Kenny Baron (piano) to that and you have a formula for utmost beauty.
Johnny Griffin - Chicago, New York, Paris (1995) {Verve 527 367-2}


Personnel:
Johnny Griffin - tenor sax
Roy Hargrove - trumpet, flugelhorn
Kenny Barron - piano
Peter Martin - piano
Christian McBride - bass
Rodney Whitaker - bass
Victor Lewis - drums
Gregory Hutchinson - drums

Recorded: RPM Studios, NYC, NY, December 4 & 5, 1994

Tracks
01 - The Jamfs Are Coming
02 - Do It
03 - To Love
04 - Hush-A-Bye
05 - You Must Believe In Spring
06 - Without A Song
07 - Leave Me Alone
08 - My Romance
09 - Not Yet

Exact Audio Copy V1.2 from 12. August 2016

EAC extraction logfile from 19. September 2018, 12:59

Johnny Griffin / Chicago, New York, Paris

Used drive : HL-DT-STDVD+-RW GU90N Adapter: 1 ID: 1

Read mode : Secure
Utilize accurate stream : Yes
Defeat audio cache : Yes
Make use of C2 pointers : No

Read offset correction : 102
Overread into Lead-In and Lead-Out : No
Fill up missing offset samples with silence : Yes
Delete leading and trailing silent blocks : No
Null samples used in CRC calculations : Yes
Used interface : Native Win32 interface for Win NT & 2000
Gap handling : Appended to previous track

Used output format : User Defined Encoder
Selected bitrate : 1024 kBit/s
Quality : High
Add ID3 tag : No
Command line compressor : C:\Program Files (x86)\Exact Audio Copy\Flac\flac.exe
Additional command line options : -8 -V -T "ARTIST=%artist%" -T "TITLE=%title%" -T "ALBUM=%albumtitle%" -T "DATE=%year%" -T "TRACKNUMBER=%tracknr%" -T "GENRE=%genre%" -T "PERFORMER=%albuminterpret%" -T "COMPOSER=%composer%" %haslyrics%–tag-from-file=LYRICS="%lyricsfile%"%haslyrics% -T "ALBUMARTIST=%albumartist%" -T "DISCNUMBER=%cdnumber%" -T "TOTALDISCS=%totalcds%" -T "TOTALTRACKS=%numtracks%" -T "COMMENT=%comment%" %source% -o %dest%


TOC of the extracted CD

Track | Start | Length | Start sector | End sector
––––––––––––––––––––––––––––-
1 | 0:00.00 | 7:53.65 | 0 | 35539
2 | 7:53.65 | 5:51.00 | 35540 | 61864
3 | 13:44.65 | 4:40.60 | 61865 | 82924
4 | 18:25.50 | 7:30.25 | 82925 | 116699
5 | 25:56.00 | 7:02.02 | 116700 | 148351
6 | 32:58.02 | 8:23.60 | 148352 | 186136
7 | 41:21.62 | 6:01.10 | 186137 | 213221
8 | 47:22.72 | 8:42.43 | 213222 | 252414
9 | 56:05.40 | 7:12.15 | 252415 | 284829


Track 1

Filename C:\Users\ian\Desktop\Johnny Griffin - Chicago New York Paris (1995) [FLAC]\01 - The Jamfs Are Coming.wav

Pre-gap length 0:00:02.00

Peak level 100.0 %
Extraction speed 1.3 X
Track quality 100.0 %
Test CRC CB5C5471
Copy CRC CB5C5471
Copy OK

Track 2

Filename C:\Users\ian\Desktop\Johnny Griffin - Chicago New York Paris (1995) [FLAC]\02 - Do It.wav

Pre-gap length 0:00:03.64

Peak level 100.0 %
Extraction speed 1.5 X
Track quality 100.0 %
Test CRC 1FE2F5BF
Copy CRC 1FE2F5BF
Copy OK

Track 3

Filename C:\Users\ian\Desktop\Johnny Griffin - Chicago New York Paris (1995) [FLAC]\03 - To Love.wav

Pre-gap length 0:00:04.04

Peak level 66.4 %
Extraction speed 1.6 X
Track quality 100.0 %
Test CRC 97580AE5
Copy CRC 97580AE5
Copy OK

Track 4

Filename C:\Users\ian\Desktop\Johnny Griffin - Chicago New York Paris (1995) [FLAC]\04 - Hush-A-Bye.wav

Pre-gap length 0:00:03.20

Peak level 98.1 %
Extraction speed 1.9 X
Track quality 100.0 %
Test CRC 860DEB6E
Copy CRC 860DEB6E
Copy OK

Track 5

Filename C:\Users\ian\Desktop\Johnny Griffin - Chicago New York Paris (1995) [FLAC]\05 - You Must Believe In Spring.wav

Pre-gap length 0:00:03.97

Peak level 62.3 %
Extraction speed 2.0 X
Track quality 100.0 %
Test CRC 39CD24CF
Copy CRC 39CD24CF
Copy OK

Track 6

Filename C:\Users\ian\Desktop\Johnny Griffin - Chicago New York Paris (1995) [FLAC]\06 - Without A Song.wav

Pre-gap length 0:00:03.00

Peak level 100.0 %
Extraction speed 2.2 X
Track quality 100.0 %
Test CRC C3BB7EE3
Copy CRC C3BB7EE3
Copy OK

Track 7

Filename C:\Users\ian\Desktop\Johnny Griffin - Chicago New York Paris (1995) [FLAC]\07 - Leave Me Alone.wav

Pre-gap length 0:00:04.00

Peak level 99.1 %
Extraction speed 2.3 X
Track quality 100.0 %
Test CRC F76745A8
Copy CRC F76745A8
Copy OK

Track 8

Filename C:\Users\ian\Desktop\Johnny Griffin - Chicago New York Paris (1995) [FLAC]\08 - My Romance.wav

Pre-gap length 0:00:03.86

Peak level 92.7 %
Extraction speed 2.3 X
Track quality 99.9 %
Test CRC 6C48B952
Copy CRC 6C48B952
Copy OK

Track 9

Filename C:\Users\ian\Desktop\Johnny Griffin - Chicago New York Paris (1995) [FLAC]\09 - Not Yet.wav

Pre-gap length 0:00:04.00

Peak level 99.7 %
Extraction speed 2.6 X
Track quality 100.0 %
Test CRC 6D9ADA85
Copy CRC 6D9ADA85
Copy OK

No errors occurred

End of status report

–– CUETools DB Plugin V2.1.6

[CTDB TOCID: _DD9rrZaVHH0zQti4In9pUqi60s-] found
Submit result: _DD9rrZaVHH0zQti4In9pUqi60s- has been confirmed
Track | CTDB Status
1 | (7/7) Accurately ripped
2 | (7/7) Accurately ripped
3 | (7/7) Accurately ripped
4 | (7/7) Accurately ripped
5 | (7/7) Accurately ripped
6 | (7/7) Accurately ripped
7 | (7/7) Accurately ripped
8 | (7/7) Accurately ripped
9 | (6/7) Accurately ripped


==== Log checksum 8181A29B37AB92D06B04D6484CADB96471A734CA7A353029DC467F85FD0F47AD ====


Johnny Griffin - Chicago, New York, Paris (1995) {Verve 527 367-2}

Johnny Griffin - Chicago, New York, Paris (1995) {Verve 527 367-2}



===