Tags
Language
Tags

Robert Fripp & Brian Eno - No Pussyfooting (1973) {2CD Set, Discipline Global Mobile DGM5007 rel 2008}

Posted By: ruskaval
Robert Fripp & Brian Eno - No Pussyfooting (1973) {2CD Set, Discipline Global Mobile DGM5007 rel 2008}

Robert Fripp & Brian Eno - No Pussyfooting (1973) {2CD Set, Discipline Global Mobile DGM5007 rel 2008}
EAC rip (secure mode) | FLAC (tracks)+CUE+LOG -> 650 Mb | MP3 @320 -> 290 Mb
Full Artwork @ 300 dpi (jpg) -> 31 Mb | 5% repair rar | 24-bit remaster
© 1973, 2008 Opal / Discipline Global Mobile / RF | DGM5007
Rock / Electronic / Ambient / Experimental Ambient / Art Rock

At the same time Brian Eno was working on Here Come the Warm Jets, he was flexing his experimental muscle with this album of tape delay manipulation recorded with Robert Fripp. In a system later to be dubbed Frippertronics, Eno and Fripp set up two reel-to-reel tape decks that would allow audio elements to be added to a continuing tape loop, building up a dense layer of sound that slowly decayed as it turned around and around the deck's playback head. Fripp later soloed on top of this. No Pussyfooting represents the duo's initial experiments with this system, a side each.

"Heavenly Music Corporation" demonstrates the beauty of the setup, with several guitar and synth elements building on top of each other, the music slowly evolving, and Fripp ending the piece with low dive-bombing feedback that swoops over the soundscape, bringing the piece to its conclusion. "Swastika Girls," on the other hand, shows how the system can be abused. With too many disconnected sounds sharing the space, some discordant, some melodic, the resulting work lacks form and structure. Eno and Fripp later refined the system on Evening Star and Eno's solo album Discreet Music. Fripp would take the system and base whole albums and live appearances around it (particularly Let the Power Fall). But it was here on No Pussyfooting where it all started. [Discipline's 2008 reissue included a bonus disc featuring half-speed and reversed versions of both compositions.]

Personnel
Robert Fripp / Gibson Les Paul electric guitar, pedal Fx, composer & producer
Brian Eno / VCS3 synthesizer, sequencer, tapes, composer & producer

Track Listing:

CD1

01 - The Heavenly Music Corporation
02 - The Heavenly Music Corporation
03 - The Heavenly Music Corporation
04 - The Heavenly Music Corporation
05 - The Heavenly Music Corporation
06 - Swastika Girls
07 - Swastika Girls
08 - The Heavenly Music Corporation (reversed)
09 - The Heavenly Music Corporation (reversed)
10 - The Heavenly Music Corporation (reversed)
11 - The Heavenly Music Corporation (reversed)
12 - The Heavenly Music Corporation (reversed)

CD2
01 - The Heavenly Music Corporation (half speed)
02 - The Heavenly Music Corporation (half speed)
03 - The Heavenly Music Corporation (half speed)
04 - The Heavenly Music Corporation (half speed)
05 - The Heavenly Music Corporation (half speed)
06 - Swastika Girls (reversed)
07 - Swastika Girls (reversed)

Exact Audio Copy V0.99 prebeta 4 from 23. January 2008

EAC extraction logfile from 7. October 2008, 15:25

Fripp & Eno / No Pussyfooting (Disc 1)

Used drive : Optiarc DVD RW AD-7173A Adapter: 0 ID: 1

Read mode : Secure
Utilize accurate stream : Yes
Defeat audio cache : No
Make use of C2 pointers : Yes

Read offset correction : 48
Overread into Lead-In and Lead-Out : No
Fill up missing offset samples with silence : Yes
Delete leading and trailing silent blocks : No
Null samples used in CRC calculations : Yes
Used interface : Installed external ASPI interface
Gap handling : Appended to previous track

Used output format : User Defined Encoder
Selected bitrate : 768 kBit/s
Quality : High
Add ID3 tag : No
Command line compressor : C:\Program Files\FLAC\flac.exe
Additional command line options : -8 -V -T "artist=%a" -T "title=%t" -T "album=%g" -T "date=%y" -T "tracknumber=%n" -T "genre=%m" %s


TOC of the extracted CD

Track | Start | Length | Start sector | End sector
––––––––––––––––––––––––––––-
1 | 0:00.00 | 6:17.68 | 0 | 28342
2 | 6:17.68 | 3:08.40 | 28343 | 42482
3 | 9:26.33 | 2:21.71 | 42483 | 53128
4 | 11:48.29 | 4:53.48 | 53129 | 75151
5 | 16:42.02 | 4:15.16 | 75152 | 94292
6 | 20:57.18 | 7:32.60 | 94293 | 128252
7 | 28:30.03 | 11:27.12 | 128253 | 179789
8 | 39:57.15 | 4:35.29 | 179790 | 200443
9 | 44:32.44 | 4:21.59 | 200444 | 220077
10 | 48:54.28 | 2:30.08 | 220078 | 231335
11 | 51:24.36 | 3:05.63 | 231336 | 245273
12 | 54:30.24 | 6:22.08 | 245274 | 273931


Track 1

Filename C:\Downloads\Fripp & Eno - No Pussyfooting\Fripp & Eno - No Pussyfooting (Disc 1)\01 - The Heavenly Music Corporation.wav

Pre-gap length 0:00:02.00

Peak level 60.3 %
Track quality 100.0 %
Test CRC C751E74C
Copy CRC C751E74C
Track not present in AccurateRip database
Copy OK

Track 2

Filename C:\Downloads\Fripp & Eno - No Pussyfooting\Fripp & Eno - No Pussyfooting (Disc 1)\02 - The Heavenly Music Corporation.wav

Peak level 76.0 %
Track quality 100.0 %
Test CRC 3CD8FF12
Copy CRC 3CD8FF12
Track not present in AccurateRip database
Copy OK

Track 3

Filename C:\Downloads\Fripp & Eno - No Pussyfooting\Fripp & Eno - No Pussyfooting (Disc 1)\03 - The Heavenly Music Corporation.wav

Peak level 87.3 %
Track quality 100.0 %
Test CRC A16B15BD
Copy CRC A16B15BD
Track not present in AccurateRip database
Copy OK

Track 4

Filename C:\Downloads\Fripp & Eno - No Pussyfooting\Fripp & Eno - No Pussyfooting (Disc 1)\04 - The Heavenly Music Corporation.wav

Peak level 88.4 %
Track quality 100.0 %
Test CRC 41093629
Copy CRC 41093629
Track not present in AccurateRip database
Copy OK

Track 5

Filename C:\Downloads\Fripp & Eno - No Pussyfooting\Fripp & Eno - No Pussyfooting (Disc 1)\05 - The Heavenly Music Corporation.wav

Peak level 84.1 %
Track quality 100.0 %
Test CRC 449260FA
Copy CRC 449260FA
Track not present in AccurateRip database
Copy OK

Track 6

Filename C:\Downloads\Fripp & Eno - No Pussyfooting\Fripp & Eno - No Pussyfooting (Disc 1)\06 - Swastika Girls.wav

Pre-gap length 0:00:04.58

Peak level 66.5 %
Track quality 100.0 %
Test CRC 1EA3EE42
Copy CRC 1EA3EE42
Track not present in AccurateRip database
Copy OK

Track 7

Filename C:\Downloads\Fripp & Eno - No Pussyfooting\Fripp & Eno - No Pussyfooting (Disc 1)\07 - Swastika Girls.wav

Peak level 94.6 %
Track quality 100.0 %
Test CRC 41EF0B17
Copy CRC 41EF0B17
Track not present in AccurateRip database
Copy OK

Track 8

Filename C:\Downloads\Fripp & Eno - No Pussyfooting\Fripp & Eno - No Pussyfooting (Disc 1)\08 - The Heavenly Music Corporation (reversed).wav

Pre-gap length 0:00:01.55

Peak level 86.9 %
Track quality 99.9 %
Test CRC AFA14604
Copy CRC AFA14604
Track not present in AccurateRip database
Copy OK

Track 9

Filename C:\Downloads\Fripp & Eno - No Pussyfooting\Fripp & Eno - No Pussyfooting (Disc 1)\09 - The Heavenly Music Corporation (reversed).wav

Peak level 87.1 %
Track quality 100.0 %
Test CRC 4EE51382
Copy CRC 4EE51382
Track not present in AccurateRip database
Copy OK

Track 10

Filename C:\Downloads\Fripp & Eno - No Pussyfooting\Fripp & Eno - No Pussyfooting (Disc 1)\10 - The Heavenly Music Corporation (reversed).wav

Peak level 87.3 %
Track quality 99.8 %
Test CRC C5292224
Copy CRC C5292224
Track not present in AccurateRip database
Copy OK

Track 11

Filename C:\Downloads\Fripp & Eno - No Pussyfooting\Fripp & Eno - No Pussyfooting (Disc 1)\11 - The Heavenly Music Corporation (reversed).wav

Peak level 77.3 %
Track quality 99.8 %
Test CRC 9B315063
Copy CRC 9B315063
Track not present in AccurateRip database
Copy OK

Track 12

Filename C:\Downloads\Fripp & Eno - No Pussyfooting\Fripp & Eno - No Pussyfooting (Disc 1)\12 - The Heavenly Music Corporation (reversed).wav

Peak level 64.3 %
Track quality 100.0 %
Test CRC 22479C1C
Copy CRC 22479C1C
Track not present in AccurateRip database
Copy OK


None of the tracks are present in the AccurateRip database

No errors occurred

End of status report

Exact Audio Copy V0.99 prebeta 4 from 23. January 2008

EAC extraction logfile from 7. October 2008, 15:36

Fripp & Eno / No Pussyfooting (Disc 2)

Used drive : Optiarc DVD RW AD-7173A Adapter: 0 ID: 1

Read mode : Secure
Utilize accurate stream : Yes
Defeat audio cache : No
Make use of C2 pointers : Yes

Read offset correction : 48
Overread into Lead-In and Lead-Out : No
Fill up missing offset samples with silence : Yes
Delete leading and trailing silent blocks : No
Null samples used in CRC calculations : Yes
Used interface : Installed external ASPI interface
Gap handling : Appended to previous track

Used output format : User Defined Encoder
Selected bitrate : 768 kBit/s
Quality : High
Add ID3 tag : No
Command line compressor : C:\Program Files\FLAC\flac.exe
Additional command line options : -8 -V -T "artist=%a" -T "title=%t" -T "album=%g" -T "date=%y" -T "tracknumber=%n" -T "genre=%m" %s


TOC of the extracted CD

Track | Start | Length | Start sector | End sector
––––––––––––––––––––––––––––-
1 | 0:00.00 | 12:45.04 | 0 | 57378
2 | 12:45.04 | 5:54.19 | 57379 | 83947
3 | 18:39.23 | 5:04.52 | 83948 | 106799
4 | 23:44.00 | 9:44.01 | 106800 | 150600
5 | 33:28.01 | 8:22.46 | 150601 | 188296
6 | 41:50.47 | 10:10.11 | 188297 | 234057
7 | 52:00.58 | 8:46.20 | 234058 | 273527


Track 1

Filename C:\Downloads\Fripp & Eno - No Pussyfooting\Fripp & Eno - No Pussyfooting (Disc 2)\01 - The Heavenly Music Corporation (half speed).wav

Pre-gap length 0:00:02.00

Peak level 57.0 %
Track quality 100.0 %
Test CRC 09697F14
Copy CRC 09697F14
Track not present in AccurateRip database
Copy OK

Track 2

Filename C:\Downloads\Fripp & Eno - No Pussyfooting\Fripp & Eno - No Pussyfooting (Disc 2)\02 - The Heavenly Music Corporation (half speed).wav

Peak level 70.6 %
Track quality 100.0 %
Test CRC 0E645A96
Copy CRC 0E645A96
Track not present in AccurateRip database
Copy OK

Track 3

Filename C:\Downloads\Fripp & Eno - No Pussyfooting\Fripp & Eno - No Pussyfooting (Disc 2)\03 - The Heavenly Music Corporation (half speed).wav

Peak level 80.4 %
Track quality 99.9 %
Test CRC 2B3E08FC
Copy CRC 2B3E08FC
Track not present in AccurateRip database
Copy OK

Track 4

Filename C:\Downloads\Fripp & Eno - No Pussyfooting\Fripp & Eno - No Pussyfooting (Disc 2)\04 - The Heavenly Music Corporation (half speed).wav

Peak level 79.5 %
Track quality 100.0 %
Test CRC 28CFA0EB
Copy CRC 28CFA0EB
Track not present in AccurateRip database
Copy OK

Track 5

Filename C:\Downloads\Fripp & Eno - No Pussyfooting\Fripp & Eno - No Pussyfooting (Disc 2)\05 - The Heavenly Music Corporation (half speed).wav

Peak level 83.3 %
Track quality 99.9 %
Test CRC 4B94BB8B
Copy CRC 4B94BB8B
Track not present in AccurateRip database
Copy OK

Track 6

Filename C:\Downloads\Fripp & Eno - No Pussyfooting\Fripp & Eno - No Pussyfooting (Disc 2)\06 - Swastika Girls (reversed).wav

Pre-gap length 0:00:01.18

Peak level 81.6 %
Track quality 100.0 %
Test CRC 5F08C8C7
Copy CRC 5F08C8C7
Track not present in AccurateRip database
Copy OK

Track 7

Filename C:\Downloads\Fripp & Eno - No Pussyfooting\Fripp & Eno - No Pussyfooting (Disc 2)\07 - Swastika Girls (reversed).wav

Peak level 87.7 %
Track quality 100.0 %
Test CRC 0B153D15
Copy CRC 0B153D15
Track not present in AccurateRip database
Copy OK


None of the tracks are present in the AccurateRip database

No errors occurred

End of status report


Robert Fripp & Brian Eno - No Pussyfooting (1973) {2CD Set, Discipline Global Mobile DGM5007 rel 2008}

Robert Fripp & Brian Eno - No Pussyfooting (1973) {2CD Set, Discipline Global Mobile DGM5007 rel 2008}

Robert Fripp & Brian Eno - No Pussyfooting (1973) {2CD Set, Discipline Global Mobile DGM5007 rel 2008}



===