Subcategories
Tags
Language
Tags

Franco Battiato & Royal Philharmonic Orchestra - Torneremo Ancora (2019)

Posted By: delpotro
Franco Battiato & Royal Philharmonic Orchestra - Torneremo Ancora (2019)

Franco Battiato & Royal Philharmonic Orchestra - Torneremo Ancora (2019)
EAC Rip | FLAC (tracks+log+.cue) | Scans included | 00:51:30 | 310 Mb
Pop, Easy Listening, Classical | Label: RCA Records, Legacy Recordings

"Torneremo Ancora" is the new album by Franco Battiato (Sony Music Legacy), available from Friday, October 18 (on CD and double LP) in stores and on digital stores.

The health reasons that, as is known, have forced Maestro Battiato to retire from the scene for a couple of years, have not prevented him from participating in the making of the album and the unpublished - written and composed by Battiato with Juri Camisasca - which gives the title to the entire project. Inside, also 14 of the most representative pieces of his work, recorded during the rehearsals of some concerts in 2017 with the Royal Philharmonic Concert Orchestra, conducted by Maestro Carlo Guaitoli.

"In the versions with the Royal Philharmonic Concert Orchestra I found in the sound, in the almost metaphysical color that was generated, further stimuli to dig deeper" says Master Battiato "For years I have worked on the knowledge of the unfathomable mystery of the passage" continues, commenting on the unpublished 'Torneremo ancora' "From 'La porta dello spavento supremo' to 'Le nostre anime' up to the documentary 'Attraversando il bardo'. 'Torneremo Ancora' is a further testimony."

"Having seen Franco himself being moved during the final listening of the entire album was the confirmation that an important job had been done, giving life to a document that honors his extraordinary career", so the Master Guaitoli.
Tracklist:
1. Torneremo ancora (03:37)
2. Come un cammello in una grondaia (03:26)
3. Le sacre sinfonie del tempo (03:41)
4. Lode all'inviolato (03:07)
5. L'animale (03:05)
6. Tiepido aprile (03:14)
7. Povera patria (03:53)
8. Te lo leggo negli occhi (03:05)
9. Perduto amor (02:28)
10. Prospettiva Nevsky (03:22)
11. La cura (04:04)
12. I treni di Tozeur (02:59)
13. E ti vengo a cercare (03:48)
14. Le nostre anime (04:06)
15. L'era del cinghiale bianco (Live) (03:26)

Exact Audio Copy V1.3 from 2. September 2016

EAC extraction logfile from 19. October 2019, 19:02

Franco Battiato & Royal Philharmonic Concert Orchestra / Torneremo ancora

Used drive : ASUS BC-12D2HT Adapter: 0 ID: 0

Read mode : Secure
Utilize accurate stream : Yes
Defeat audio cache : Yes
Make use of C2 pointers : No

Read offset correction : 6
Overread into Lead-In and Lead-Out : No
Fill up missing offset samples with silence : Yes
Delete leading and trailing silent blocks : No
Null samples used in CRC calculations : Yes
Used interface : Installed external ASPI interface
Gap handling : Appended to previous track

Used output format : User Defined Encoder
Selected bitrate : 1024 kBit/s
Quality : High
Add ID3 tag : No
Command line compressor : C:\Program Files (x86)\Exact Audio Copy\FLAC\FLAC.EXE
Additional command line options : -8 -V -T "Artist=%artist%" -T "Title=%title%" -T "Album=%albumtitle%" -T "DATE=%year%" -T "TRACKNUMBER=%tracknr%" -T "Genre=%genre%" -T "ALBUMARTIST=%albumartist%" -T "ALBUM ARTIST=%albumartist%" -T "COMMENT=EAC Secure Mode, Test & Copy, AccurateRip, FLAC -8" %source%


TOC of the extracted CD

Track | Start | Length | Start sector | End sector
––––––––––––––––––––––––––––-
1 | 0:00.00 | 3:38.58 | 0 | 16407
2 | 3:38.58 | 3:26.45 | 16408 | 31902
3 | 7:05.28 | 3:41.26 | 31903 | 48503
4 | 10:46.54 | 3:07.44 | 48504 | 62572
5 | 13:54.23 | 3:05.70 | 62573 | 76517
6 | 17:00.18 | 3:14.56 | 76518 | 91123
7 | 20:14.74 | 3:53.71 | 91124 | 108669
8 | 24:08.70 | 3:05.26 | 108670 | 122570
9 | 27:14.21 | 2:28.18 | 122571 | 133688
10 | 29:42.39 | 3:22.14 | 133689 | 148852
11 | 33:04.53 | 4:04.12 | 148853 | 167164
12 | 37:08.65 | 2:59.16 | 167165 | 180605
13 | 40:08.06 | 3:48.07 | 180606 | 197712
14 | 43:56.13 | 4:06.17 | 197713 | 216179
15 | 48:02.30 | 3:28.28 | 216180 | 231807


Track 1

Filename C:\EAC\01. Franco Battiato & Royal Philharmonic Concert Orchestra - Torneremo ancora.wav

Pre-gap length 0:00:02.00

Peak level 96.6 %
Extraction speed 3.7 X
Track quality 99.9 %
Test CRC A532BDF4
Copy CRC A532BDF4
Track not present in AccurateRip database
Copy OK

Track 2

Filename C:\EAC\02. Franco Battiato & Royal Philharmonic Concert Orchestra - Come un cammello in una grondaia.wav

Pre-gap length 0:00:01.50

Peak level 96.6 %
Extraction speed 4.6 X
Track quality 100.0 %
Test CRC C92ECDCE
Copy CRC C92ECDCE
Track not present in AccurateRip database
Copy OK

Track 3

Filename C:\EAC\03. Franco Battiato & Royal Philharmonic Concert Orchestra - Le sacre sinfonie del tempo.wav

Peak level 96.6 %
Extraction speed 5.1 X
Track quality 100.0 %
Test CRC 08108435
Copy CRC 08108435
Track not present in AccurateRip database
Copy OK

Track 4

Filename C:\EAC\04. Franco Battiato & Royal Philharmonic Concert Orchestra - Lode all'inviolato.wav

Peak level 96.6 %
Extraction speed 4.3 X
Track quality 99.9 %
Test CRC 5D23857B
Copy CRC 5D23857B
Track not present in AccurateRip database
Copy OK

Track 5

Filename C:\EAC\05. Franco Battiato & Royal Philharmonic Concert Orchestra - L'animale.wav

Peak level 96.6 %
Extraction speed 4.5 X
Track quality 99.9 %
Test CRC 0585A2B6
Copy CRC 0585A2B6
Track not present in AccurateRip database
Copy OK

Track 6

Filename C:\EAC\06. Franco Battiato & Royal Philharmonic Concert Orchestra - Tiepido aprile.wav

Peak level 96.6 %
Extraction speed 5.8 X
Track quality 100.0 %
Test CRC DDE071C6
Copy CRC DDE071C6
Track not present in AccurateRip database
Copy OK

Track 7

Filename C:\EAC\07. Franco Battiato & Royal Philharmonic Concert Orchestra - Povera patria.wav

Peak level 96.6 %
Extraction speed 6.3 X
Track quality 100.0 %
Test CRC 0FE5B00D
Copy CRC 0FE5B00D
Track not present in AccurateRip database
Copy OK

Track 8

Filename C:\EAC\08. Franco Battiato & Royal Philharmonic Concert Orchestra - Te lo leggo negli occhi.wav

Peak level 96.6 %
Extraction speed 6.4 X
Track quality 100.0 %
Test CRC 90ACFF90
Copy CRC 90ACFF90
Track not present in AccurateRip database
Copy OK

Track 9

Filename C:\EAC\09. Franco Battiato & Royal Philharmonic Concert Orchestra - Perduto amor.wav

Peak level 96.6 %
Extraction speed 6.1 X
Track quality 100.0 %
Test CRC 8ECA85B4
Copy CRC 8ECA85B4
Track not present in AccurateRip database
Copy OK

Track 10

Filename C:\EAC\10. Franco Battiato & Royal Philharmonic Concert Orchestra - Prospettiva Nevsky.wav

Peak level 96.6 %
Extraction speed 5.6 X
Track quality 99.9 %
Test CRC 8C3FC8CD
Copy CRC 8C3FC8CD
Track not present in AccurateRip database
Copy OK

Track 11

Filename C:\EAC\11. Franco Battiato & Royal Philharmonic Concert Orchestra - La cura.wav

Peak level 96.6 %
Extraction speed 7.2 X
Track quality 100.0 %
Test CRC 0871A78C
Copy CRC 0871A78C
Track not present in AccurateRip database
Copy OK

Track 12

Filename C:\EAC\12. Franco Battiato & Royal Philharmonic Concert Orchestra - I treni di Tozeur.wav

Peak level 96.6 %
Extraction speed 7.1 X
Track quality 100.0 %
Test CRC 0E6B7C6E
Copy CRC 0E6B7C6E
Track not present in AccurateRip database
Copy OK

Track 13

Filename C:\EAC\13. Franco Battiato & Royal Philharmonic Concert Orchestra - E ti vengo a cercare.wav

Peak level 96.6 %
Extraction speed 6.3 X
Track quality 99.9 %
Test CRC BD3E7433
Copy CRC BD3E7433
Track not present in AccurateRip database
Copy OK

Track 14

Filename C:\EAC\14. Franco Battiato & Royal Philharmonic Concert Orchestra - Le nostre anime.wav

Peak level 96.6 %
Extraction speed 7.9 X
Track quality 100.0 %
Test CRC D8BAF5CF
Copy CRC D8BAF5CF
Track not present in AccurateRip database
Copy OK

Track 15

Filename C:\EAC\15. Franco Battiato & Royal Philharmonic Concert Orchestra - L'era del cinghiale bianco (Live).wav

Peak level 96.6 %
Extraction speed 7.9 X
Track quality 100.0 %
Test CRC 4AE19E10
Copy CRC 4AE19E10
Track not present in AccurateRip database
Copy OK


None of the tracks are present in the AccurateRip database

No errors occurred

End of status report

–– CUETools DB Plugin V2.1.6

[CTDB TOCID: Gn3ihlrMOrMjaVhuowhDsZ9j.O8-] found
Submit result: Gn3ihlrMOrMjaVhuowhDsZ9j.O8- has been confirmed
Track | CTDB Status
1 | (1/1) Accurately ripped
2 | (1/1) Accurately ripped
3 | (1/1) Accurately ripped
4 | (1/1) Accurately ripped
5 | (1/1) Accurately ripped
6 | (1/1) Accurately ripped
7 | (1/1) Accurately ripped
8 | (1/1) Accurately ripped
9 | (1/1) Accurately ripped
10 | (1/1) Accurately ripped
11 | (1/1) Accurately ripped
12 | (1/1) Accurately ripped
13 | (1/1) Accurately ripped
14 | (1/1) Accurately ripped
15 | (1/1) Accurately ripped


==== Log checksum A200E426B1707DCD672E432E9637D60C691207D13E2175C2334DE877A522FD3E ====

Thanks to the Original ripper !