Subcategories

Ensemble L'Amorosa Caccia & Fabio Antonio Falcone - Valente: Intavolatura de cimbalo (2018)

Posted By: delpotro
Ensemble L'Amorosa Caccia & Fabio Antonio Falcone - Valente: Intavolatura de cimbalo (2018)

Ensemble L'Amorosa Caccia & Fabio Antonio Falcone - Valente: Intavolatura de cimbalo (2018)
EAC Rip | FLAC (tracks+log+.cue) - 459 Mb | MP3 CBR 320 kbps - 178 Mb | Digital booklet | 01:13:41
Classical | Label: Brilliant Classics

The Naples of Antonio Valente (c1520-1600) was the principal city of the Spanish Empire of the day, second only to Istanbul of Mediterranean cities in population, a cultural and intellectual hub where ideas were traded as readily as goods at the port. This is the context for ready wit and vivid characters dancing before us in the harpsichord manuscript left to us as the principal work of an instrumental virtuoso who was blind from birth.

Little else is known of Valente, though he became an organist in one of the city’s private chapel between 1565 and 1580, and we know that this Intavolatura was published in 1576, by which time the composer’s reputation had spread

far beyond the kingdom of Naples. It seems certain that the collection was the first of its kind to be written in southern Italy. These are popular dances rather than original melodies, and Valente transcribes and elaborates them in various genres of song and dance: there are hymns (a Salve Regina), galliards, ricercars, ballads, even a flamboyant ‘Bascia Flammignia’, placed in exuberant juxtaposition, hardly designed to be heard in strict order but a collection to delight and entertain.

The Intavolatura does so here, thanks to the imaginative re-instrumentation and sparkling performances of an Italian early-music ensemble, L’Amorosa Caccia. The songs are reattributed to a pair of singers (Giulia Valentini and Marcos Garcia Gutierrez), accompanied by two violas da gamba and a recorder, with the overall artistic direction undertaken from the keyboard by Fabio Antonio Falcone.

Antonio Valente lived and worked in 16th century Napoli, then under Spanish rule and the cultural hotspot of Europe. Valente’s Intavolatura de Cimbalo is the first Neapolitan publication for keyboard instrument and the first that shows the word harpsichord in the title. This is very important because it shows that Valente (who just one year before published «Versi Spirituali per sonar negli organi») clearly wanted to differentiate the composition style between harpsichord and organ (until that time, but also later, this difference is not clear yet). Intavolatura can be considered as an opera omnia collecta as far as it contains all the musical forms of that time: instrumental music (6 ricercari and 1 fantasia), elaboration on a cantus firmus (a Salve Regina), 4 chansons with diminutions, dances on tenori italiani (Zefiro, Passo e mezzo, Romanesca, Gagliarda Napolitana, Intorcia etc) and balli (Ballo Lombardo etc.).

Sung and played by the Ensemble L’Amorosa Caccia, two singers, violas da gamba and recorders, directed from the harpsichord and virginal by Fabio Antonio Falcone, a specialist in this repertoire (he recorded already works by Cavazzoni, Antico and De Macque for Brilliant).
Tracklist:
1. Fantasia del primo tono (05:27)
2. Qui la dira (01:48)
3. Chi la dirra, disminuita (03:32)
4. Recercata del ottavo tono (02:31)
5. Bascia flammignia (02:16)
6. Gagliarda napolitana (02:00)
7. Recercata del primo tono (04:06)
8. Lo ballo dell'intorcia (01:11)
9. Gagliarda lombarda (00:53)
10. Ballo Lombardo (01:53)
11. Recercata del sesto tono a quattro voce con lo Basso in canone a l'ottava del contralto (04:20)
12. Tenore grande alla napolitana (02:19)
13. Recercata del terzo tono (03:50)
14. Salve Regina (03:16)
15. Tenore del passo e mezzo (02:41)
16. La romanesca (01:47)
17. Pis ne me peut venir (01:43)
18. Pisne disminuita (06:11)
19. Recercata del septimo tono (02:59)
20. Tenore de zefiro con dodeci mutanze (03:56)
21. Recercata del primo tono a cinque con la quinta parte in canone al unisono del tenore (06:09)
22. Sortemeplus con alcuni fioretti (02:47)
23. Sortemeplus disminuita (03:16)
24. Sortez mes pleurs (02:36)

Exact Audio Copy V1.3 from 2. September 2016

EAC extraction logfile from 12. September 2020, 17:45

Ensemble L'Amorosa Caccia, Fabio Antonio Falcone / Intavolatura de cimbalo

Used drive : HL-DT-STDVDRAM GH24NSD1 Adapter: 1 ID: 1

Read mode : Secure
Utilize accurate stream : Yes
Defeat audio cache : Yes
Make use of C2 pointers : No

Read offset correction : 6
Overread into Lead-In and Lead-Out : No
Fill up missing offset samples with silence : Yes
Delete leading and trailing silent blocks : No
Null samples used in CRC calculations : Yes
Used interface : Native Win32 interface for Win NT & 2000
Gap handling : Appended to previous track

Used output format : User Defined Encoder
Selected bitrate : 1024 kBit/s
Quality : High
Add ID3 tag : No
Command line compressor : C:\Program Files (x86)\Exact Audio Copy\Flac\flac.exe
Additional command line options : -8 -V -T "ARTIST=%artist%" -T "TITLE=%title%" -T "ALBUM=%albumtitle%" -T "DATE=%year%" -T "TRACKNUMBER=%tracknr%" -T "GENRE=%genre%" -T "PERFORMER=%albuminterpret%" -T "COMPOSER=%composer%" %haslyrics%–tag-from-file=LYRICS="%lyricsfile%"%haslyrics% -T "ALBUMARTIST=%albumartist%" -T "DISCNUMBER=%cdnumber%" -T "TOTALDISCS=%totalcds%" -T "TOTALTRACKS=%numtracks%" -T "COMMENT=%comment%" %source% -o %dest%


TOC of the extracted CD

Track | Start | Length | Start sector | End sector
––––––––––––––––––––––––––––-
1 | 0:00.00 | 5:27.43 | 0 | 24567
2 | 5:27.43 | 1:48.74 | 24568 | 32741
3 | 7:16.42 | 3:32.00 | 32742 | 48641
4 | 10:48.42 | 2:31.41 | 48642 | 60007
5 | 13:20.08 | 2:16.55 | 60008 | 70262
6 | 15:36.63 | 2:00.70 | 70263 | 79332
7 | 17:37.58 | 4:06.37 | 79333 | 97819
8 | 21:44.20 | 1:11.29 | 97820 | 103173
9 | 22:55.49 | 0:53.41 | 103174 | 107189
10 | 23:49.15 | 1:53.53 | 107190 | 115717
11 | 25:42.68 | 4:20.74 | 115718 | 135291
12 | 30:03.67 | 2:19.11 | 135292 | 145727
13 | 32:23.03 | 3:50.70 | 145728 | 163047
14 | 36:13.73 | 3:16.64 | 163048 | 177811
15 | 39:30.62 | 2:41.35 | 177812 | 189921
16 | 42:12.22 | 1:47.70 | 189922 | 198016
17 | 44:00.17 | 1:43.22 | 198017 | 205763
18 | 45:43.39 | 6:11.22 | 205764 | 233610
19 | 51:54.61 | 2:59.45 | 233611 | 247080
20 | 54:54.31 | 3:56.61 | 247081 | 264841
21 | 58:51.17 | 6:09.73 | 264842 | 292589
22 | 65:01.15 | 2:47.17 | 292590 | 305131
23 | 67:48.32 | 3:16.58 | 305132 | 319889
24 | 71:05.15 | 2:36.20 | 319890 | 331609


Track 1

Filename E:\WHAT.CD\000TEMP\Valente - Intavolatura De Cimbalo (2018) [FLAC]\01 - Fantasia del primo tono.wav

Pre-gap length 0:00:02.00

Peak level 59.5 %
Extraction speed 4.5 X
Track quality 100.0 %
Test CRC 602FB35A
Copy CRC 602FB35A
Track not present in AccurateRip database
Copy OK

Track 2

Filename E:\WHAT.CD\000TEMP\Valente - Intavolatura De Cimbalo (2018) [FLAC]\02 - Qui la dira.wav

Pre-gap length 0:00:06.05

Peak level 98.0 %
Extraction speed 4.3 X
Track quality 100.0 %
Test CRC 96C43EB1
Copy CRC 96C43EB1
Track not present in AccurateRip database
Copy OK

Track 3

Filename E:\WHAT.CD\000TEMP\Valente - Intavolatura De Cimbalo (2018) [FLAC]\03 - Chi la dirra, disminuita.wav

Peak level 37.2 %
Extraction speed 5.2 X
Track quality 100.0 %
Test CRC 46E4E831
Copy CRC 46E4E831
Track not present in AccurateRip database
Copy OK

Track 4

Filename E:\WHAT.CD\000TEMP\Valente - Intavolatura De Cimbalo (2018) [FLAC]\04 - Recercata del ottavo tono.wav

Pre-gap length 0:00:03.86

Peak level 63.9 %
Extraction speed 5.2 X
Track quality 100.0 %
Test CRC F3AB9F93
Copy CRC F3AB9F93
Track not present in AccurateRip database
Copy OK

Track 5

Filename E:\WHAT.CD\000TEMP\Valente - Intavolatura De Cimbalo (2018) [FLAC]\05 - Bascia flammigmia.wav

Pre-gap length 0:00:06.94

Peak level 83.2 %
Extraction speed 5.3 X
Track quality 100.0 %
Test CRC 427A7F0A
Copy CRC 427A7F0A
Track not present in AccurateRip database
Copy OK

Track 6

Filename E:\WHAT.CD\000TEMP\Valente - Intavolatura De Cimbalo (2018) [FLAC]\06 - Gagliarda napolitana.wav

Pre-gap length 0:00:03.25

Peak level 67.5 %
Extraction speed 5.3 X
Track quality 100.0 %
Test CRC AB35F977
Copy CRC AB35F977
Track not present in AccurateRip database
Copy OK

Track 7

Filename E:\WHAT.CD\000TEMP\Valente - Intavolatura De Cimbalo (2018) [FLAC]\07 - Recercata del primo tono.wav

Pre-gap length 0:00:05.70

Peak level 57.9 %
Extraction speed 6.2 X
Track quality 100.0 %
Test CRC 08850925
Copy CRC 08850925
Track not present in AccurateRip database
Copy OK

Track 8

Filename E:\WHAT.CD\000TEMP\Valente - Intavolatura De Cimbalo (2018) [FLAC]\08 - Lo ballo dell'intorcia.wav

Pre-gap length 0:00:05.17

Peak level 79.8 %
Extraction speed 3.5 X
Track quality 99.8 %
Test CRC 46C0721B
Copy CRC 46C0721B
Track not present in AccurateRip database
Copy OK

Track 9

Filename E:\WHAT.CD\000TEMP\Valente - Intavolatura De Cimbalo (2018) [FLAC]\09 - Gagliarda lombarda.wav

Pre-gap length 0:00:03.18

Peak level 78.5 %
Extraction speed 4.4 X
Track quality 100.0 %
Test CRC D93E5A76
Copy CRC D93E5A76
Track not present in AccurateRip database
Copy OK

Track 10

Filename E:\WHAT.CD\000TEMP\Valente - Intavolatura De Cimbalo (2018) [FLAC]\10 - Ballo lombardo.wav

Peak level 94.2 %
Extraction speed 5.7 X
Track quality 100.0 %
Test CRC CCDE4991
Copy CRC CCDE4991
Track not present in AccurateRip database
Copy OK

Track 11

Filename E:\WHAT.CD\000TEMP\Valente - Intavolatura De Cimbalo (2018) [FLAC]\11 - Recercata del sesto tono a quattro voce.wav

Pre-gap length 0:00:03.61

Peak level 56.0 %
Extraction speed 6.9 X
Track quality 100.0 %
Test CRC D42999E5
Copy CRC D42999E5
Track not present in AccurateRip database
Copy OK

Track 12

Filename E:\WHAT.CD\000TEMP\Valente - Intavolatura De Cimbalo (2018) [FLAC]\12 - Tenore grande alla napolitana.wav

Pre-gap length 0:00:06.10

Peak level 52.6 %
Extraction speed 6.4 X
Track quality 100.0 %
Test CRC B897757A
Copy CRC B897757A
Track not present in AccurateRip database
Copy OK

Track 13

Filename E:\WHAT.CD\000TEMP\Valente - Intavolatura De Cimbalo (2018) [FLAC]\13 - Recercata del terzo tono.wav

Pre-gap length 0:00:05.40

Peak level 68.5 %
Extraction speed 7.2 X
Track quality 100.0 %
Test CRC EF01770F
Copy CRC EF01770F
Track not present in AccurateRip database
Copy OK

Track 14

Filename E:\WHAT.CD\000TEMP\Valente - Intavolatura De Cimbalo (2018) [FLAC]\14 - Salve Regina.wav

Pre-gap length 0:00:04.72

Peak level 50.0 %
Extraction speed 6.2 X
Track quality 99.9 %
Test CRC BFF8E812
Copy CRC BFF8E812
Track not present in AccurateRip database
Copy OK

Track 15

Filename E:\WHAT.CD\000TEMP\Valente - Intavolatura De Cimbalo (2018) [FLAC]\15 - Tenore del passo e mezo.wav

Pre-gap length 0:00:07.25

Peak level 67.7 %
Extraction speed 7.2 X
Track quality 100.0 %
Test CRC 61A4A347
Copy CRC 61A4A347
Track not present in AccurateRip database
Copy OK

Track 16

Filename E:\WHAT.CD\000TEMP\Valente - Intavolatura De Cimbalo (2018) [FLAC]\16 - La romanesca.wav

Peak level 91.0 %
Extraction speed 6.6 X
Track quality 100.0 %
Test CRC 70065231
Copy CRC 70065231
Track not present in AccurateRip database
Copy OK

Track 17

Filename E:\WHAT.CD\000TEMP\Valente - Intavolatura De Cimbalo (2018) [FLAC]\17 - Pis ne me peut venir.wav

Pre-gap length 0:00:04.26

Peak level 84.2 %
Extraction speed 6.7 X
Track quality 100.0 %
Test CRC 516590FC
Copy CRC 516590FC
Track not present in AccurateRip database
Copy OK

Track 18

Filename E:\WHAT.CD\000TEMP\Valente - Intavolatura De Cimbalo (2018) [FLAC]\18 - Pisne disminuita.wav

Pre-gap length 0:00:03.38

Peak level 47.5 %
Extraction speed 8.5 X
Track quality 100.0 %
Test CRC 5D701985
Copy CRC 5D701985
Track not present in AccurateRip database
Copy OK

Track 19

Filename E:\WHAT.CD\000TEMP\Valente - Intavolatura De Cimbalo (2018) [FLAC]\19 - Recercata del septimo tono.wav

Pre-gap length 0:00:02.98

Peak level 55.6 %
Extraction speed 6.7 X
Track quality 99.9 %
Test CRC BD1B1F37
Copy CRC BD1B1F37
Track not present in AccurateRip database
Copy OK

Track 20

Filename E:\WHAT.CD\000TEMP\Valente - Intavolatura De Cimbalo (2018) [FLAC]\20 - Tenore de zefiro con dodeci mutanze.wav

Pre-gap length 0:00:03.88

Peak level 65.1 %
Extraction speed 8.5 X
Track quality 100.0 %
Test CRC E2C6857A
Copy CRC E2C6857A
Track not present in AccurateRip database
Copy OK

Track 21

Filename E:\WHAT.CD\000TEMP\Valente - Intavolatura De Cimbalo (2018) [FLAC]\21 - Recercata del primo tono a cinque.wav

Pre-gap length 0:00:06.52

Peak level 64.2 %
Extraction speed 9.3 X
Track quality 100.0 %
Test CRC FB0CC624
Copy CRC FB0CC624
Track not present in AccurateRip database
Copy OK

Track 22

Filename E:\WHAT.CD\000TEMP\Valente - Intavolatura De Cimbalo (2018) [FLAC]\22 - Sortemeplus con alcuni fioretti.wav

Pre-gap length 0:00:03.34

Peak level 74.0 %
Extraction speed 8.5 X
Track quality 100.0 %
Test CRC 31D0A620
Copy CRC 31D0A620
Track not present in AccurateRip database
Copy OK

Track 23

Filename E:\WHAT.CD\000TEMP\Valente - Intavolatura De Cimbalo (2018) [FLAC]\23 - Sortemeplus disminuita.wav

Peak level 42.1 %
Extraction speed 8.9 X
Track quality 100.0 %
Test CRC 3CA64C9C
Copy CRC 3CA64C9C
Track not present in AccurateRip database
Copy OK

Track 24

Filename E:\WHAT.CD\000TEMP\Valente - Intavolatura De Cimbalo (2018) [FLAC]\24 - Sortez mes pleurs.wav

Peak level 89.5 %
Extraction speed 8.6 X
Track quality 100.0 %
Test CRC E17329B5
Copy CRC E17329B5
Track not present in AccurateRip database
Copy OK


None of the tracks are present in the AccurateRip database

No errors occurred

End of status report

–– CUETools DB Plugin V2.1.6

[CTDB TOCID: ttlzdpoFCBLDrz_QQvT.x7SaZus-] found
Submit result: ttlzdpoFCBLDrz_QQvT.x7SaZus- has been confirmed
Track | CTDB Status
1 | (2/2) Accurately ripped
2 | (2/2) Accurately ripped
3 | (2/2) Accurately ripped
4 | (2/2) Accurately ripped
5 | (2/2) Accurately ripped
6 | (2/2) Accurately ripped
7 | (2/2) Accurately ripped
8 | (2/2) Accurately ripped
9 | (2/2) Accurately ripped
10 | (2/2) Accurately ripped
11 | (2/2) Accurately ripped
12 | (2/2) Accurately ripped
13 | (2/2) Accurately ripped
14 | (2/2) Accurately ripped
15 | (2/2) Accurately ripped
16 | (2/2) Accurately ripped
17 | (2/2) Accurately ripped
18 | (2/2) Accurately ripped
19 | (2/2) Accurately ripped
20 | (2/2) Accurately ripped
21 | (2/2) Accurately ripped
22 | (2/2) Accurately ripped
23 | (2/2) Accurately ripped
24 | (2/2) Accurately ripped


==== Log checksum 1500964D0610757E1A8241055DF6C2CC8B0A060E34C6743AE28848A6514AA383 ====

Thanks to the Original ripper !