Subcategories

Duke Ellington & His Orchestra - Rotterdam 1969 (2016) {Storyville Records 101 8440}

Posted By: ruskaval
Duke Ellington & His Orchestra - Rotterdam 1969 (2016) {Storyville Records 101 8440}

Duke Ellington & His Orchestra - Rotterdam 1969 (2016) {Storyville Records 101 8440}
EAC rip (secure mode) | FLAC (tracks)+CUE+LOG -> 489 Mb | MP3 @320 -> 187 Mb
Full Artwork @ 300 dpi (png) -> 8 Mb | 5% repair rar
© 1969, 2016 Storyville Records | 101 8440
Jazz / Big Band / Modern Big Band / Progressive Jazz

Duke Ellington’s status as a legend is well-merited. This new release presents the star and his whole orchestra in full vigor at a 1969 Rotterdam concert.

Duke Ellington & His Orchestra toured Europe in November 1969, a time when Duke was still at the top of his powers. It is a pleasure to be able to issue the whole of an excellent concert recorded in De Doelen Concert Hall in Rotterdam—a venue famous for its splendid acoustics. The ambience is remarkable on this live recording: The audience is audibly enthusiastic and these high spirits influence the band: Duke Ellington and the orchestra gave two concerts on November 7th, and even though this is the second one, the musicians sound nothing but lively and fresh.

Duke Ellington & His Orchestra - Rotterdam 1969 (2016) {Storyville Records 101 8440}


The repertoire includes classics such as “Take the A Train” and “Don’t Get Around Much More” rarely heard as swinging as on this day, vigorous and fresh versions of “Kinda Dukish” and “Rockin’ In Rhythm” and the newer 1966 composition “La Plus Belle Africaine”, the centerpiece of the concert.

Among the soloists we find Johnny Hodges playing as beautifully as ever on “Black Butterfly”, only half a year before his death. Other prominent band members such as Cootie Williams, Lawrence Brown, Harry Carney and Paul Gonsalves are also featured.

The never before released 1969 Rotterdam concert exhibits Duke Ellington & His Orchestra on one of their most intense and enthusiastic nights. Still in a brilliant mood after two concerts, Duke Ellington even played an after-party concert with a quartet—Storyville Records hopes to issue these recordings in the future.
Duke Ellington & His Orchestra - Rotterdam 1969 (2016) {Storyville Records 101 8440}


AAJ INFO

Personnel: Duke Ellington (p), Cat Anderson (tp), Cootie Williams (tp), Ambrose Jackson (tp), Mercer Ellington (tp), Nelson Williams (tp), Benny Bailey (tp), Lawrence Brown (tb), Chuck Connors (tb), Russel Procope (as,cl), Johnny Hodges (as), Norris Turney (as,ts,cl,fl), Harold Ashby (ts, cl), Paul Gonsalves (ts), Harry Carney (bar,cl,b-cl), Victor Gaskin (b), Rufus Jones (d), Tony Watkins (vcl).

tracklist:
01 - Take The A Train (theme) - C Jam Blues
02 - Kinda Dukish - Rockin' In Rhythm
03 - Take The A Train
04 - Up Jump
05 - La Plus Belle Africaine
06 - Come Off The Veldt
07 - El Gato
08 - Black Butterfly
09 - Things Ain't What They Used To Be
10 - Don't Get Around Much Anymore
11 - Medley no. 1
12 - Medley no. 2
13 - Satin Doll
14 - R.T.M
15 - In Triplicate Into Satin Doll

Exact Audio Copy V1.1 from 23. June 2015

EAC extraction logfile from 24. April 2016, 8:18

Duke Ellington and his Orchestra / Rotterdam 1969

Used drive : ASUS BW-16D1HT Adapter: 1 ID: 0

Read mode : Secure
Utilize accurate stream : Yes
Defeat audio cache : Yes
Make use of C2 pointers : No

Read offset correction : 6
Overread into Lead-In and Lead-Out : No
Fill up missing offset samples with silence : Yes
Delete leading and trailing silent blocks : No
Null samples used in CRC calculations : Yes
Used interface : Native Win32 interface for Win NT & 2000
Gap handling : Appended to previous track

Used output format : User Defined Encoder
Selected bitrate : 896 kBit/s
Quality : High
Add ID3 tag : No
Command line compressor : C:\Exact Audio Copy\FLAC\FLAC.EXE
Additional command line options : -8 -V -T "ARTIST=%artist%" -T "TITLE=%title%" -T "ALBUM=%albumtitle%" -T "DATE=%year%" -T "TRACKNUMBER=%tracknr%" -T "TOTALTRACKS=%numtracks%" -T "GENRE=%genre%" -T "ALBUMARTIST=%albumartist%" -T "ALBUM ARTIST=%albumartist%" -T "COMMENT=EAC Secure Mode, Test & Copy, AccurateRip, FLAC -8" %source%


TOC of the extracted CD

Track | Start | Length | Start sector | End sector
––––––––––––––––––––––––––––-
1 | 0:00.00 | 4:20.69 | 0 | 19568
2 | 4:20.69 | 5:34.03 | 19569 | 44621
3 | 9:54.72 | 5:30.70 | 44622 | 69441
4 | 15:25.67 | 3:25.18 | 69442 | 84834
5 | 18:51.10 | 8:50.19 | 84835 | 124603
6 | 27:41.29 | 2:09.36 | 124604 | 134314
7 | 29:50.65 | 4:04.21 | 134315 | 152635
8 | 33:55.11 | 4:36.35 | 152636 | 173370
9 | 38:31.46 | 3:10.11 | 173371 | 187631
10 | 41:41.57 | 2:50.07 | 187632 | 200388
11 | 44:31.64 | 7:23.27 | 200389 | 233640
12 | 51:55.16 | 5:51.63 | 233641 | 260028
13 | 57:47.04 | 6:47.61 | 260029 | 290614
14 | 64:34.65 | 6:19.26 | 290615 | 319065
15 | 70:54.16 | 8:14.14 | 319066 | 356129


Track 1

Filename E:\01 - Take The A Train (theme) - C Jam Blues.wav

Pre-gap length 0:00:02.00

Peak level 96.7 %
Extraction speed 2.6 X
Track quality 99.9 %
Test CRC 15544409
Copy CRC 15544409
Track not present in AccurateRip database
Copy OK

Track 2

Filename E:\02 - Kinda Dukish - Rockin' In Rhythm.wav

Peak level 87.3 %
Extraction speed 2.4 X
Track quality 100.0 %
Test CRC 53D4C091
Copy CRC 53D4C091
Track not present in AccurateRip database
Copy OK

Track 3

Filename E:\03 - Take The A Train.wav

Peak level 83.2 %
Extraction speed 1.5 X
Track quality 100.0 %
Test CRC 1E42BB77
Copy CRC 1E42BB77
Track not present in AccurateRip database
Copy OK

Track 4

Filename E:\04 - Up Jump.wav

Peak level 82.5 %
Extraction speed 1.5 X
Track quality 100.0 %
Test CRC 983CF192
Copy CRC 983CF192
Track not present in AccurateRip database
Copy OK

Track 5

Filename E:\05 - La Plus Belle Africaine.wav

Peak level 96.6 %
Extraction speed 1.8 X
Track quality 100.0 %
Test CRC AF66788E
Copy CRC AF66788E
Track not present in AccurateRip database
Copy OK

Track 6

Filename E:\06 - Come Off The Veldt.wav

Peak level 88.7 %
Extraction speed 1.3 X
Track quality 99.9 %
Test CRC 1AC466D5
Copy CRC 1AC466D5
Track not present in AccurateRip database
Copy OK

Track 7

Filename E:\07 - El Gato.wav

Peak level 97.1 %
Extraction speed 1.9 X
Track quality 100.0 %
Test CRC DAE4BDD7
Copy CRC DAE4BDD7
Track not present in AccurateRip database
Copy OK

Track 8

Filename E:\08 - Black Butterfly.wav

Peak level 74.5 %
Extraction speed 2.0 X
Track quality 100.0 %
Test CRC FDE572D6
Copy CRC FDE572D6
Track not present in AccurateRip database
Copy OK

Track 9

Filename E:\09 - Things Ain't What They Used To Be.wav

Peak level 75.4 %
Extraction speed 1.9 X
Track quality 100.0 %
Test CRC 63968D9A
Copy CRC 63968D9A
Track not present in AccurateRip database
Copy OK

Track 10

Filename E:\10 - Don't Get Around Much Anymore.wav

Peak level 81.3 %
Extraction speed 1.9 X
Track quality 100.0 %
Test CRC BDB9269F
Copy CRC BDB9269F
Track not present in AccurateRip database
Copy OK

Track 11

Filename E:\11 - Medley no. 1.wav

Peak level 60.8 %
Extraction speed 2.3 X
Track quality 100.0 %
Test CRC F658DEF4
Copy CRC F658DEF4
Track not present in AccurateRip database
Copy OK

Track 12

Filename E:\12 - Medley no. 2.wav

Peak level 77.6 %
Extraction speed 2.3 X
Track quality 100.0 %
Test CRC D43FC19E
Copy CRC D43FC19E
Track not present in AccurateRip database
Copy OK

Track 13

Filename E:\13 - Satin Doll.wav

Peak level 81.5 %
Extraction speed 2.4 X
Track quality 100.0 %
Test CRC 722BC1AF
Copy CRC 722BC1AF
Track not present in AccurateRip database
Copy OK

Track 14

Filename E:\14 - R.T.M.wav

Peak level 69.3 %
Extraction speed 2.5 X
Track quality 100.0 %
Test CRC A372B28C
Copy CRC A372B28C
Track not present in AccurateRip database
Copy OK

Track 15

Filename E:\15 - In Triplicate Into Satin Doll.wav

Peak level 71.7 %
Extraction speed 2.7 X
Track quality 100.0 %
Test CRC DCA4F0B9
Copy CRC DCA4F0B9
Track not present in AccurateRip database
Copy OK


None of the tracks are present in the AccurateRip database

No errors occurred

End of status report

==== Log checksum C1820A72979764C4C1A82C5C4B26B7632718CC09119C219570AA07E4F29247C1 ====


Duke Ellington & His Orchestra - Rotterdam 1969 (2016) {Storyville Records 101 8440}

Duke Ellington & His Orchestra - Rotterdam 1969 (2016) {Storyville Records 101 8440}



===