Subcategories
Tags
Language
Tags

Dominique Lawalree - Preludes A La Priere (2001) {Ateliers Du Fresne 301 058.2}

Posted By: ruskaval
Dominique Lawalree - Preludes A La Priere (2001) {Ateliers Du Fresne 301 058.2}

Dominique Lawalrée - Préludes À la Prière (2001) {Ateliers Du Fresne 301 058.2}
EAC rip (secure mode) | FLAC (tracks)+CUE+LOG -> 225 Mb | MP3 @320 -> 131 Mb
Full Artwork @ 600 dpi (jpg) -> 10 Mb | 5% repair rar
© 2001 Ateliers Du Fresne | 301 058.2
Classical / Modern Classical / Avant-Garde / Minimal

20 preludes to individual or community prayer that can also punctuate celebrations or illustrate images. Using a wide variety of instrumental timbres such as the harp, piano, vibraphone, guitar … Dominique Lawalrée, composer and performer of these 20 preludes, has successfully married various melodies with intimate characters that invite the listener to stop and keep quiet.

Tracklist
1. Prélude 1 (01:55)
2. Prélude 2 (03:03)
3. Prélude 3 (03:15)
4. Prélude 4 (02:25)
5. Prélude 5 (02:55)
6. Prélude 6 (02:25)
7. Prélude 7 (02:23)
8. Prélude 8 (02:33)
9. Prélude 9 (02:45)
10. Prélude 10 (03:20)
11. Prélude 11 (03:18)
12. Prélude 12 (02:34)
13. Prélude 13 (02:15)
14. Prélude 14 (04:15)
15. Prélude 15 (02:03)
16. Prélude 16 (02:30)
17. Prélude 17 (03:09)
18. Prélude 18 (02:28)
19. Prélude 19 (01:58)
20. Prélude 20 (01:50)

Exact Audio Copy V1.3 from 2. September 2016

EAC extraction logfile from 9. November 2018, 18:20

Dominique Lawalrée / Préludes À La Prière

Used drive : PLEXTOR DVDR PX-880SA Adapter: 1 ID: 0

Read mode : Secure
Utilize accurate stream : Yes
Defeat audio cache : Yes
Make use of C2 pointers : No

Read offset correction : 6
Overread into Lead-In and Lead-Out : No
Fill up missing offset samples with silence : Yes
Delete leading and trailing silent blocks : No
Null samples used in CRC calculations : Yes
Used interface : Native Win32 interface for Win NT & 2000
Gap handling : Appended to previous track

Used output format : User Defined Encoder
Selected bitrate : 768 kBit/s
Quality : High
Add ID3 tag : No
Command line compressor : I:\Software\Exact Audio Copy\FLAC\FLAC.EXE
Additional command line options : -8 -V -T "ARTIST=%artist%" -T "TITLE=%title%" -T "ALBUM=%albumtitle%" -T "DATE=%year%" -T "TRACKNUMBER=%tracknr%" -T "GENRE=%genre%" -T "PERFORMER=%albuminterpret%" -T "COMPOSER=%composer%" %haslyrics%–tag-from-file=LYRICS="%lyricsfile%"%haslyrics% -T "ALBUMARTIST=%albumartist%" -T "DISCNUMBER=%cdnumber%" -T "TOTALDISCS=%totalcds%" -T "TOTALTRACKS=%numtracks%" -T "COMMENT=%comment%" %source% -o %dest%


TOC of the extracted CD

Track | Start | Length | Start sector | End sector
––––––––––––––––––––––––––––-
1 | 0:00.00 | 2:00.29 | 0 | 9028
2 | 2:00.29 | 3:05.34 | 9029 | 22937
3 | 5:05.63 | 3:19.43 | 22938 | 37905
4 | 8:25.31 | 2:27.31 | 37906 | 48961
5 | 10:52.62 | 2:53.62 | 48962 | 61998
6 | 13:46.49 | 2:30.12 | 61999 | 73260
7 | 16:16.61 | 2:26.53 | 73261 | 84263
8 | 18:43.39 | 2:39.03 | 84264 | 96191
9 | 21:22.42 | 2:47.57 | 96192 | 108773
10 | 24:10.24 | 3:20.47 | 108774 | 123820
11 | 27:30.71 | 3:23.08 | 123821 | 139053
12 | 30:54.04 | 2:38.01 | 139054 | 150904
13 | 33:32.05 | 2:20.57 | 150905 | 161461
14 | 35:52.62 | 4:17.67 | 161462 | 180803
15 | 40:10.54 | 2:08.15 | 180804 | 190418
16 | 42:18.69 | 2:43.04 | 190419 | 202647
17 | 45:01.73 | 3:12.23 | 202648 | 217070
18 | 48:14.21 | 2:31.49 | 217071 | 228444
19 | 50:45.70 | 2:02.72 | 228445 | 237666
20 | 52:48.67 | 1:55.04 | 237667 | 246295


Track 1

Filename I:\Tempalbum11\01 Prélude 1.wav

Pre-gap length 0:00:02.00

Peak level 99.9 %
Extraction speed 1.5 X
Track quality 100.0 %
Test CRC 010B6CE4
Copy CRC 010B6CE4
Track not present in AccurateRip database
Copy OK

Track 2

Filename I:\Tempalbum11\02 Prélude 2.wav

Pre-gap length 0:00:01.74

Peak level 99.9 %
Extraction speed 1.8 X
Track quality 100.0 %
Test CRC 88B21F70
Copy CRC 88B21F70
Track not present in AccurateRip database
Copy OK

Track 3

Filename I:\Tempalbum11\03 Prélude 3.wav

Pre-gap length 0:00:01.74

Peak level 99.9 %
Extraction speed 2.0 X
Track quality 100.0 %
Test CRC 7FFEF5CD
Copy CRC 7FFEF5CD
Track not present in AccurateRip database
Copy OK

Track 4

Filename I:\Tempalbum11\04 Prélude 4.wav

Pre-gap length 0:00:01.74

Peak level 99.9 %
Extraction speed 1.3 X
Track quality 99.9 %
Test CRC 6484C462
Copy CRC 6484C462
Track not present in AccurateRip database
Copy OK

Track 5

Filename I:\Tempalbum11\05 Prélude 5.wav

Pre-gap length 0:00:01.74

Peak level 87.8 %
Extraction speed 2.2 X
Track quality 100.0 %
Test CRC 82DB6074
Copy CRC 82DB6074
Track not present in AccurateRip database
Copy OK

Track 6

Filename I:\Tempalbum11\06 Prélude 6.wav

Pre-gap length 0:00:01.74

Peak level 99.9 %
Extraction speed 2.2 X
Track quality 100.0 %
Test CRC 21CCEE3B
Copy CRC 21CCEE3B
Track not present in AccurateRip database
Copy OK

Track 7

Filename I:\Tempalbum11\07 Prélude 7.wav

Pre-gap length 0:00:01.74

Peak level 99.9 %
Extraction speed 1.5 X
Track quality 99.9 %
Test CRC CCB256DC
Copy CRC CCB256DC
Track not present in AccurateRip database
Copy OK

Track 8

Filename I:\Tempalbum11\08 Prélude 8.wav

Pre-gap length 0:00:01.74

Peak level 83.4 %
Extraction speed 1.6 X
Track quality 99.9 %
Test CRC CD9719D3
Copy CRC CD9719D3
Track not present in AccurateRip database
Copy OK

Track 9

Filename I:\Tempalbum11\09 Prélude 9.wav

Pre-gap length 0:00:01.74

Peak level 99.9 %
Extraction speed 2.5 X
Track quality 100.0 %
Test CRC E12D0F24
Copy CRC E12D0F24
Track not present in AccurateRip database
Copy OK

Track 10

Filename I:\Tempalbum11\10 Prélude 10.wav

Pre-gap length 0:00:01.74

Peak level 99.9 %
Extraction speed 2.7 X
Track quality 100.0 %
Test CRC C10DEEBD
Copy CRC C10DEEBD
Track not present in AccurateRip database
Copy OK

Track 11

Filename I:\Tempalbum11\11 Prélude 11.wav

Pre-gap length 0:00:01.74

Peak level 81.5 %
Extraction speed 2.8 X
Track quality 100.0 %
Test CRC AA62476A
Copy CRC AA62476A
Track not present in AccurateRip database
Copy OK

Track 12

Filename I:\Tempalbum11\12 Prélude 12.wav

Pre-gap length 0:00:01.74

Peak level 55.9 %
Extraction speed 1.8 X
Track quality 99.9 %
Test CRC CC8ACB0A
Copy CRC CC8ACB0A
Track not present in AccurateRip database
Copy OK

Track 13

Filename I:\Tempalbum11\13 Prélude 13.wav

Pre-gap length 0:00:01.74

Peak level 99.9 %
Extraction speed 1.7 X
Track quality 99.9 %
Test CRC AA8D67D7
Copy CRC AA8D67D7
Track not present in AccurateRip database
Copy OK

Track 14

Filename I:\Tempalbum11\14 Prélude 14.wav

Pre-gap length 0:00:01.74

Peak level 66.6 %
Extraction speed 3.2 X
Track quality 100.0 %
Test CRC BE191A15
Copy CRC BE191A15
Track not present in AccurateRip database
Copy OK

Track 15

Filename I:\Tempalbum11\15 Prélude 15.wav

Pre-gap length 0:00:01.74

Peak level 99.9 %
Extraction speed 2.9 X
Track quality 100.0 %
Test CRC C4C4952C
Copy CRC C4C4952C
Track not present in AccurateRip database
Copy OK

Track 16

Filename I:\Tempalbum11\16 Prélude 16.wav

Pre-gap length 0:00:01.74

Peak level 99.9 %
Extraction speed 3.2 X
Track quality 100.0 %
Test CRC 396B91E0
Copy CRC 396B91E0
Track not present in AccurateRip database
Copy OK

Track 17

Filename I:\Tempalbum11\17 Prélude 17.wav

Pre-gap length 0:00:01.74

Peak level 99.9 %
Extraction speed 3.3 X
Track quality 100.0 %
Test CRC 5279387A
Copy CRC 5279387A
Track not present in AccurateRip database
Copy OK

Track 18

Filename I:\Tempalbum11\18 Prélude 18.wav

Pre-gap length 0:00:01.74

Peak level 99.9 %
Extraction speed 3.2 X
Track quality 100.0 %
Test CRC 19BCD9ED
Copy CRC 19BCD9ED
Track not present in AccurateRip database
Copy OK

Track 19

Filename I:\Tempalbum11\19 Prélude 19.wav

Pre-gap length 0:00:01.74

Peak level 99.9 %
Extraction speed 3.1 X
Track quality 100.0 %
Test CRC 75CCCDA2
Copy CRC 75CCCDA2
Track not present in AccurateRip database
Copy OK

Track 20

Filename I:\Tempalbum11\20 Prélude 20.wav

Pre-gap length 0:00:01.74

Peak level 56.2 %
Extraction speed 3.1 X
Track quality 100.0 %
Test CRC DEA8EE2A
Copy CRC DEA8EE2A
Track not present in AccurateRip database
Copy OK


None of the tracks are present in the AccurateRip database

No errors occurred

End of status report

–– CUETools DB Plugin V2.1.6

[CTDB TOCID: MsCohdxp9JtyjjEpA5h8qWyuv.Y-] disk not present in database
Submit result: MsCohdxp9JtyjjEpA5h8qWyuv.Y- has been uploaded


==== Log checksum 2DF6AE08EA54BF5F1EF688702B96E7EAE217CDF04CC7F44F7F8A7A1B73098E7A ====


Dominique Lawalree - Preludes A La Priere (2001) {Ateliers Du Fresne 301 058.2}

Dominique Lawalree - Preludes A La Priere (2001) {Ateliers Du Fresne 301 058.2}


see more Dominique Lawalrée…


===