Subcategories
Please register here if you want to download anything!

If domain in your address bar is different from the list below
PLEASE LEAVE THAT SITE IMMEDIATELY
❗IT'S A DANGEROUS FAKE❗



Spicy Magazines for Men! ;-)

Deborah Brown - Jazz 4 Jazz (1988) {2015 Japan Timeless Jazz Master Collection Complete Series CDSOL-6327}

Posted By: ruskaval
Deborah Brown - Jazz 4 Jazz (1988) {2015 Japan Timeless Jazz Master Collection Complete Series CDSOL-6327}

Deborah Brown - Jazz 4 Jazz (1988) {2015 Japan Timeless Jazz Master Collection Complete Series CDSOL-6327}
EAC rip (secure mode) | FLAC (tracks)+CUE+LOG -> 379 Mb | MP3 @320 -> 159 Mb
Full Artwork @ 600 dpi (png) -> 263 Mb | 5% repair rar
© 1988, 2015 Timeless Records / Solid Records Japan / Ultra-Vibe | CDSOL-6327
Jazz / Vocal Jazz / Classic Jazz

Reissue with the latest remastering. Features original cover artwork. Comes with a descripton in Japanese. A pleasing and swinging singer who has not become famous in the United States despite her talents, Deborah Brown is in top form on this 2015 reissue of a set recorded in 1988 for the tiny Reaction label. Accompanied by a top-notch trio of American expatriates (pianist Horace Parlan, bassist Red Mitchell, and drummer Ed Thigpen), Brown swings her way through such songs as "It Don't Mean a Thing," "I Thought About You," "My Romance," and Dizzy Gillespie's "Bebop."

This CD starts out a little unusual with one song apiece by Parlan, Thigpen, and Mitchell, tunes that give Deborah Brown an opportunity to show how creative a singer she is, before she tackles the well-known standards. Happily, Brown has remained active in Europe into the 21st century. Recommended.
Deborah Brown - Jazz 4 Jazz (1988) {2015 Japan Timeless Jazz Master Collection Complete Series CDSOL-6327}



Ultra-Vibe INFO

Personnel:
Deborah Brown - vocals
Horace Parlan - piano
Red Mitchell - bass
Ed Thigpen - drums

tracklist:
01 - Little Esther
02 - Denise
03 - Finally
04 - It Don't Mean A Thing (If It Ain't Got That Swing)
05 - Emraceable You
06 - Since I Fell For You
07 - I Thought About You
08 - My Romance
09 - What Is This Thing Called Love
10 - When We Were One
11 - Bebop
12 - When I Fall In Love

Exact Audio Copy V1.1 from 23. June 2015

EAC extraction logfile from 29. January 2016, 18:42

Deborah Brown / Jazz 4 Jazz

Used drive : TSSTcorpCDDVDW SE-208DB Adapter: 1 ID: 0

Read mode : Secure
Utilize accurate stream : Yes
Defeat audio cache : Yes
Make use of C2 pointers : No

Read offset correction : 6
Overread into Lead-In and Lead-Out : No
Fill up missing offset samples with silence : Yes
Delete leading and trailing silent blocks : No
Null samples used in CRC calculations : Yes
Used interface : Native Win32 interface for Win NT & 2000
Gap handling : Appended to previous track

Used output format : User Defined Encoder
Selected bitrate : 1024 kBit/s
Quality : High
Add ID3 tag : No
Command line compressor : C:\Program Files (x86)\FLAC Frontend\tools\flac.exe
Additional command line options : -8 -V -T "ARTIST=%artist%" -T "TITLE=%title%" -T "ALBUM=%albumtitle%" -T "DATE=%year%" -T "TRACKNUMBER=%tracknr%" -T "TOTALTRACKS=%numtracks%" -T "GENRE=%genre%" -T "ALBUMARTIST=%albumartist%" -T "ALBUM ARTIST=%albumartist%" -T "COMMENT=EAC Secure Mode, Test & Copy, AccurateRip, FLAC -8" %source%


TOC of the extracted CD

Track | Start | Length | Start sector | End sector
––––––––––––––––––––––––––––-
1 | 0:00.00 | 5:08.67 | 0 | 23166
2 | 5:08.67 | 4:26.32 | 23167 | 43148
3 | 9:35.24 | 6:34.11 | 43149 | 72709
4 | 16:09.35 | 4:58.72 | 72710 | 95131
5 | 21:08.32 | 8:09.47 | 95132 | 131853
6 | 29:18.04 | 7:45.18 | 131854 | 166746
7 | 37:03.22 | 7:33.73 | 166747 | 200794
8 | 44:37.20 | 3:08.39 | 200795 | 214933
9 | 47:45.59 | 3:30.25 | 214934 | 230708
10 | 51:16.09 | 5:11.74 | 230709 | 254107
11 | 56:28.08 | 2:59.34 | 254108 | 267566
12 | 59:27.42 | 7:06.29 | 267567 | 299545


Track 1

Filename D:\_EAC\Deborah Brown - Jazz 4 Jazz (1988) [FLAC] {2015 Japan Timeless Jazz Master Collection}\01 - Little Esther.wav

Pre-gap length 0:00:02.00

Peak level 97.3 %
Extraction speed 2.9 X
Track quality 100.0 %
Test CRC 68F8DF11
Copy CRC 68F8DF11
Track not present in AccurateRip database
Copy OK

Track 2

Filename D:\_EAC\Deborah Brown - Jazz 4 Jazz (1988) [FLAC] {2015 Japan Timeless Jazz Master Collection}\02 - Denise.wav

Peak level 97.3 %
Extraction speed 3.2 X
Track quality 100.0 %
Test CRC B2FF09BC
Copy CRC B2FF09BC
Track not present in AccurateRip database
Copy OK

Track 3

Filename D:\_EAC\Deborah Brown - Jazz 4 Jazz (1988) [FLAC] {2015 Japan Timeless Jazz Master Collection}\03 - Finally.wav

Peak level 93.7 %
Extraction speed 3.7 X
Track quality 100.0 %
Test CRC 901FE0A8
Copy CRC 901FE0A8
Track not present in AccurateRip database
Copy OK

Track 4

Filename D:\_EAC\Deborah Brown - Jazz 4 Jazz (1988) [FLAC] {2015 Japan Timeless Jazz Master Collection}\04 - It Don't Mean A Thing (If It Ain't Got That Swing).wav

Peak level 97.3 %
Extraction speed 3.9 X
Track quality 100.0 %
Test CRC 3356E7E5
Copy CRC 3356E7E5
Track not present in AccurateRip database
Copy OK

Track 5

Filename D:\_EAC\Deborah Brown - Jazz 4 Jazz (1988) [FLAC] {2015 Japan Timeless Jazz Master Collection}\05 - Emraceable You.wav

Peak level 97.3 %
Extraction speed 4.4 X
Track quality 100.0 %
Test CRC 35A06354
Copy CRC 35A06354
Track not present in AccurateRip database
Copy OK

Track 6

Filename D:\_EAC\Deborah Brown - Jazz 4 Jazz (1988) [FLAC] {2015 Japan Timeless Jazz Master Collection}\06 - Since I Fell For You.wav

Peak level 97.3 %
Extraction speed 4.8 X
Track quality 100.0 %
Test CRC 0CD1D13A
Copy CRC 0CD1D13A
Track not present in AccurateRip database
Copy OK

Track 7

Filename D:\_EAC\Deborah Brown - Jazz 4 Jazz (1988) [FLAC] {2015 Japan Timeless Jazz Master Collection}\07 - I Thought About You.wav

Peak level 90.4 %
Extraction speed 5.1 X
Track quality 100.0 %
Test CRC 9D33C263
Copy CRC 9D33C263
Track not present in AccurateRip database
Copy OK

Track 8

Filename D:\_EAC\Deborah Brown - Jazz 4 Jazz (1988) [FLAC] {2015 Japan Timeless Jazz Master Collection}\08 - My Romance.wav

Peak level 89.8 %
Extraction speed 4.7 X
Track quality 100.0 %
Test CRC B916C862
Copy CRC B916C862
Track not present in AccurateRip database
Copy OK

Track 9

Filename D:\_EAC\Deborah Brown - Jazz 4 Jazz (1988) [FLAC] {2015 Japan Timeless Jazz Master Collection}\09 - What Is This Thing Called Love.wav

Peak level 97.3 %
Extraction speed 5.0 X
Track quality 100.0 %
Test CRC 695963B7
Copy CRC 695963B7
Track not present in AccurateRip database
Copy OK

Track 10

Filename D:\_EAC\Deborah Brown - Jazz 4 Jazz (1988) [FLAC] {2015 Japan Timeless Jazz Master Collection}\10 - When We Were One.wav

Peak level 97.3 %
Extraction speed 5.4 X
Track quality 100.0 %
Test CRC 2BA18F1D
Copy CRC 2BA18F1D
Track not present in AccurateRip database
Copy OK

Track 11

Filename D:\_EAC\Deborah Brown - Jazz 4 Jazz (1988) [FLAC] {2015 Japan Timeless Jazz Master Collection}\11 - Bebop.wav

Peak level 97.3 %
Extraction speed 5.1 X
Track quality 100.0 %
Test CRC 72BC08D1
Copy CRC 72BC08D1
Track not present in AccurateRip database
Copy OK

Track 12

Filename D:\_EAC\Deborah Brown - Jazz 4 Jazz (1988) [FLAC] {2015 Japan Timeless Jazz Master Collection}\12 - When I Fall In Love.wav

Peak level 91.3 %
Extraction speed 5.9 X
Track quality 100.0 %
Test CRC 6074749A
Copy CRC 6074749A
Track not present in AccurateRip database
Copy OK


None of the tracks are present in the AccurateRip database

No errors occurred

End of status report

==== Log checksum 7C91DC08D42010C16D3366227E1C78C2D3489E84EBC2BBEA31559E686735FF49 ====


Deborah Brown - Jazz 4 Jazz (1988) {2015 Japan Timeless Jazz Master Collection Complete Series CDSOL-6327}

Deborah Brown - Jazz 4 Jazz (1988) {2015 Japan Timeless Jazz Master Collection Complete Series CDSOL-6327}


see more Japan Timeless Jazz Master Collection…


===