Subcategories
Tags
Language
Tags

Dave Brubeck & Paul Desmond - 1975: The Duets (1975) {Verve Originals 0602527068633 rel 2009}

Posted By: ruskaval
Dave Brubeck & Paul Desmond - 1975: The Duets (1975) {Verve Originals 0602527068633 rel 2009}

Dave Brubeck & Paul Desmond - 1975: The Duets (1975) {Verve Originals 0602527068633 rel 2009}
EAC rip (secure mode) | FLAC (tracks)+CUE+LOG -> 211 Mb | MP3 @320 -> 90 Mb
Full Artwork @ 300 dpi (jpg) -> 13 Mb | 5% repair rar
© 1975, 2009 Verve / UMG | 0602527068633 | Verve Originals Series
Jazz / Cool / West Coast Jazz / Piano / Saxophone

Although Dave Brubeck and Paul Desmond made many rewarding recordings together, this was their only duo album; it was inspired by several duo performances on board a cruise ship. Their magical ESP is evident from start to finish. Brubeck's lyricism throughout these sessions will surprise critics who label him as "bombastic," while Desmond, known for his pure dry-toned alto sax, throws a few curves to his longtime fans. The loping waltz treatment of "Alice in Wonderland" and a delicate interpretation of the Mexican folk song "The Blue Dove" contrast with their abstract approach to "Stardust."

The especially adventurous introduction to Brubeck's oriental blues "Koto Song" opens with Desmond providing percussion by tapping on his instrument's keys without blowing; the piece then slowly evolves from random-sounding fragments into its haunting theme. Their return visit to "Balcony Rock," a collaborative effort from the 1950s, is an absolutely buoyant miniature. Brubeck performs his "Summer Song" alone in a mood of celebration, unlike the wistful flavor of his first recording of it with Louis Armstrong. The audio source for "You Go to My Head" is a BBC videotape made during the concert which inspired the making of this album, but the memorable interaction between the two musicians during this performance should be considered one of the high points of their respective careers. This is an essential acquisition for fans of Dave Brubeck and Paul Desmond.
Dave Brubeck & Paul Desmond - 1975: The Duets (1975) {Verve Originals 0602527068633 rel 2009}


Personnel
Dave Brubeck - piano
Paul Desmond - alto saxophone

Recorded: 10 June - 16 September 1975.

Tracklisting:
01 - Alice In Wonderland
02 - These Foolish Things
03 - Blue Dove
04 - Stardust
05 - Koto Song
06 - Balcony Rock
07 - Summer Song
08 - You Go To My Head

Exact Audio Copy V0.99 prebeta 4 from 23. January 2008

EAC extraction logfile from 19. October 2009, 20:04

Dave Brubeck & Paul Desmond / 1975 The Duets

Used drive : PLEXTOR CD-R PREMIUM2 Adapter: 1 ID: 1

Read mode : Secure
Utilize accurate stream : Yes
Defeat audio cache : Yes
Make use of C2 pointers : No

Read offset correction : 30
Overread into Lead-In and Lead-Out : No
Fill up missing offset samples with silence : Yes
Delete leading and trailing silent blocks : No
Null samples used in CRC calculations : Yes
Used interface : Installed external ASPI interface
Gap handling : Appended to previous track

Used output format : User Defined Encoder
Selected bitrate : 32 kBit/s
Quality : High
Add ID3 tag : No
Command line compressor : C:\Programmi\FLAC\flac.exe
Additional command line options : -8 -V -T "ARTIST=%a" -T "TITLE=%t" -T "ALBUM=%g" -T "DATE=%y" -T "TRACKNUMBER=%n" -T "GENRE=%m" -T "COMMENT=EAC FLAC -8" %s


TOC of the extracted CD

Track | Start | Length | Start sector | End sector
––––––––––––––––––––––––––––-
1 | 0:00.00 | 4:04.09 | 0 | 18308
2 | 4:04.09 | 5:09.60 | 18309 | 41543
3 | 9:13.69 | 4:34.48 | 41544 | 62141
4 | 13:48.42 | 4:45.02 | 62142 | 83518
5 | 18:33.44 | 5:56.73 | 83519 | 110291
6 | 24:30.42 | 2:16.57 | 110292 | 120548
7 | 26:47.24 | 3:18.11 | 120549 | 135409
8 | 30:05.35 | 7:32.23 | 135410 | 169332


Track 1

Filename D:\My Rip\01 - Alice In Wonderland.wav

Pre-gap length 0:00:02.00

Peak level 96.0 %
Track quality 100.0 %
Test CRC 09D288BB
Copy CRC 09D288BB
Track not present in AccurateRip database
Copy OK

Track 2

Filename D:\My Rip\02 - These Foolish Things.wav

Peak level 92.7 %
Track quality 99.9 %
Test CRC 798F5040
Copy CRC 798F5040
Track not present in AccurateRip database
Copy OK

Track 3

Filename D:\My Rip\03 - Blue Dove.wav

Peak level 62.2 %
Track quality 100.0 %
Test CRC AA59E2B0
Copy CRC AA59E2B0
Track not present in AccurateRip database
Copy OK

Track 4

Filename D:\My Rip\04 - Stardust.wav

Peak level 83.5 %
Track quality 100.0 %
Test CRC 9F2D5126
Copy CRC 9F2D5126
Track not present in AccurateRip database
Copy OK

Track 5

Filename D:\My Rip\05 - Koto Song.wav

Peak level 96.0 %
Track quality 99.9 %
Test CRC 8C15D525
Copy CRC 8C15D525
Track not present in AccurateRip database
Copy OK

Track 6

Filename D:\My Rip\06 - Balcony Rock.wav

Peak level 76.9 %
Track quality 100.0 %
Test CRC 4715FA11
Copy CRC 4715FA11
Track not present in AccurateRip database
Copy OK

Track 7

Filename D:\My Rip\07 - Summer Song.wav

Peak level 89.0 %
Track quality 100.0 %
Test CRC 1BE85A07
Copy CRC 1BE85A07
Track not present in AccurateRip database
Copy OK

Track 8

Filename D:\My Rip\08 - You Go To My Head.wav

Peak level 94.8 %
Track quality 99.9 %
Test CRC BBFA0B26
Copy CRC BBFA0B26
Track not present in AccurateRip database
Copy OK


None of the tracks are present in the AccurateRip database

No errors occurred

End of status report


Dave Brubeck & Paul Desmond - 1975: The Duets (1975) {Verve Originals 0602527068633 rel 2009}

Dave Brubeck & Paul Desmond - 1975: The Duets (1975) {Verve Originals 0602527068633 rel 2009}



===