Subcategories

Claire Chevallier & Jos van Immerseel - Dvořák, Grieg & Brahms: Music for Piano Four Hands (2017)

Posted By: delpotro
Claire Chevallier & Jos van Immerseel - Dvořák, Grieg & Brahms: Music for Piano Four Hands (2017)

Claire Chevallier & Jos van Immerseel - Dvořák, Grieg & Brahms: Music for Piano Four Hands (2017)
EAC Rip | FLAC (tracks+log+.cue) - 217 Mb | MP3 CBR 320 kbps - 173 Mb | Digital booklet | 01:11:24
Classical | Label: Alpha Classics, Outhere Music

Jos van Immerseel and Claire Chevallier have enjoyed a close collaboration for many years now. Like Jos van Immerseel, Claire Chevallier loves period pianos; like him, she is a researcher and possesses her own collection of keyboard instruments.

After its recordings of works by Saint-Saëns for two pianos and works by Rachmaninoff for four hands, the duo devotes a programme to the dance with the famous Hungarian Dances of Johannes Brahms and the no less celebrated Slavonic Dances of Antonín Dvořák. The much more rarely played Norwegian Dances of Edvard Grieg and the five Spanish Dances of Moritz Moszkowski complete this trip around Europe.

A recording made on an authentic Carl Bechstein piano built in Berlin in 1870, from the personal collection of Jos van Immerseel.
Tracklist:
1. Claire Chevallier & Jos van Immerseel – Hungarian Dances, WoO 1: XI. Poco andante in D Minor (03:02)
2. Claire Chevallier & Jos van Immerseel – Hungarian Dances, WoO 1: XII. Presto in D Minor (02:44)
3. Claire Chevallier & Jos van Immerseel – Hungarian Dances, WoO 1: XIII. Andantino grazioso in D Major (01:46)
4. Claire Chevallier & Jos van Immerseel – Hungarian Dances, WoO 1: XIV. Un poco andante in D Minor (01:42)
5. Claire Chevallier & Jos van Immerseel – Hungarian Dances, WoO 1: XV. Allegretto grazioso in B-Flat Major (02:53)
6. Claire Chevallier & Jos van Immerseel – Hungarian Dances, WoO 1: XVI. Con moto in F Minor (02:47)
7. Claire Chevallier & Jos van Immerseel – Hungarian Dances, WoO 1: XVII. Andantino in F-Sharp Minor (03:42)
8. Claire Chevallier & Jos van Immerseel – Hungarian Dances, WoO 1: XVIII. Molto vivace in D Major (01:38)
9. Claire Chevallier & Jos van Immerseel – Hungarian Dances, WoO 1: XIX. Allegretto in B Minor (02:25)
10. Claire Chevallier & Jos van Immerseel – Hungarian Dances, WoO 1: XX. Poco allegretto in E Minor (02:39)
11. Claire Chevallier & Jos van Immerseel – Hungarian Dances, WoO 1: XXI. Vivace in E Minor (01:58)
12. Claire Chevallier & Jos van Immerseel – Norwegian Dances, Op. 35: I. Allegro moderato in D Minor (05:08)
13. Claire Chevallier & Jos van Immerseel – Norwegian Dances, Op. 35: II. Allegretto tranquillo e grazioso in A Major (02:19)
14. Claire Chevallier & Jos van Immerseel – Norwegian Dances, Op. 35: III. Allegro moderato alla marcia in G Major (02:02)
15. Claire Chevallier & Jos van Immerseel – Slavonic Dances, Op. 46, B. 78: I. Furiant in C Major (Presto) (04:07)
16. Claire Chevallier & Jos van Immerseel – Slavonic Dances, Op. 46, B. 78: II. Dumka in E Minor (Allegretto scherzando - Allegro vivo) (05:05)
17. Claire Chevallier & Jos van Immerseel – Slavonic Dances, Op. 46, B. 78: III. Polka in A-Flat Major (Poco allegro) (03:50)
18. Claire Chevallier & Jos van Immerseel – Slavonic Dances, Op. 46, B. 78: IV. Sousedská in F Major (Tempo di menuetto) (06:14)
19. Claire Chevallier & Jos van Immerseel – Slavonic Dances, Op. 46, B. 78: V. Skocná in A Major (Allegro vivace) (03:40)
20. Claire Chevallier & Jos van Immerseel – Slavonic Dances, Op. 46, B. 78: VI. Sousedská in D Major (Allegretto scherzando) (04:47)
21. Claire Chevallier & Jos van Immerseel – Slavonic Dances, Op. 46, B. 78: VII. Skocná in C Minor (Allegro assai) (03:09)
22. Claire Chevallier & Jos van Immerseel – Slavonic Dances, Op. 46, B. 78: VIII. Furiant in G Minor (Presto) (03:47)

Exact Audio Copy V1.3 from 2. September 2016

EAC extraction logfile from 7. July 2019, 10:05

Jos van Immerseel, Claire Chevallier / Dvorák, Grieg, Brahms: Music for Piano Four Hands

Used drive : HL-DT-STDVDRAM GH24NSD1 Adapter: 1 ID: 0

Read mode : Secure
Utilize accurate stream : Yes
Defeat audio cache : Yes
Make use of C2 pointers : No

Read offset correction : 6
Overread into Lead-In and Lead-Out : No
Fill up missing offset samples with silence : Yes
Delete leading and trailing silent blocks : No
Null samples used in CRC calculations : Yes
Used interface : Native Win32 interface for Win NT & 2000
Gap handling : Appended to previous track

Used output format : User Defined Encoder
Selected bitrate : 1024 kBit/s
Quality : High
Add ID3 tag : No
Command line compressor : C:\Program Files (x86)\Exact Audio Copy\Flac\flac.exe
Additional command line options : -8 -V -T "ARTIST=%artist%" -T "TITLE=%title%" -T "ALBUM=%albumtitle%" -T "DATE=%year%" -T "TRACKNUMBER=%tracknr%" -T "GENRE=%genre%" -T "PERFORMER=%albuminterpret%" -T "COMPOSER=%composer%" %haslyrics%–tag-from-file=LYRICS="%lyricsfile%"%haslyrics% -T "ALBUMARTIST=%albumartist%" -T "DISCNUMBER=%cdnumber%" -T "TOTALDISCS=%totalcds%" -T "TOTALTRACKS=%numtracks%" -T "COMMENT=%comment%" %source% -o %dest%


TOC of the extracted CD

Track | Start | Length | Start sector | End sector
––––––––––––––––––––––––––––-
1 | 0:00.00 | 3:02.00 | 0 | 13649
2 | 3:02.00 | 2:44.00 | 13650 | 25949
3 | 5:46.00 | 1:46.00 | 25950 | 33899
4 | 7:32.00 | 1:42.00 | 33900 | 41549
5 | 9:14.00 | 2:53.00 | 41550 | 54524
6 | 12:07.00 | 2:47.00 | 54525 | 67049
7 | 14:54.00 | 3:42.00 | 67050 | 83699
8 | 18:36.00 | 1:38.00 | 83700 | 91049
9 | 20:14.00 | 2:25.00 | 91050 | 101924
10 | 22:39.00 | 2:39.00 | 101925 | 113849
11 | 25:18.00 | 1:58.00 | 113850 | 122699
12 | 27:16.00 | 5:08.00 | 122700 | 145799
13 | 32:24.00 | 2:19.00 | 145800 | 156224
14 | 34:43.00 | 2:02.00 | 156225 | 165374
15 | 36:45.00 | 4:07.00 | 165375 | 183899
16 | 40:52.00 | 5:05.00 | 183900 | 206774
17 | 45:57.00 | 3:50.00 | 206775 | 224024
18 | 49:47.00 | 6:14.00 | 224025 | 252074
19 | 56:01.00 | 3:40.00 | 252075 | 268574
20 | 59:41.00 | 4:47.00 | 268575 | 290099
21 | 64:28.00 | 3:09.00 | 290100 | 304274
22 | 67:37.00 | 3:47.02 | 304275 | 321301


Track 1

Filename E:\WHAT.CD\000TEMP\Dvořák, Grieg & Brahms - Music for Piano Four Hands - Chevallier & van Immerseel (2017) [FLAC]\01 - Hungarian Dances for piano, 4 hands, WoO 1- 11. Poco Andante (D Minor).wav

Pre-gap length 0:00:02.00

Peak level 45.9 %
Extraction speed 4.0 X
Track quality 100.0 %
Test CRC F4B76FFB
Copy CRC F4B76FFB
Accurately ripped (confidence 2) [5740917B] (AR v2)
Copy OK

Track 2

Filename E:\WHAT.CD\000TEMP\Dvořák, Grieg & Brahms - Music for Piano Four Hands - Chevallier & van Immerseel (2017) [FLAC]\02 - Hungarian Dances for piano, 4 hands, WoO 1- 12. Presto (D Minor).wav

Peak level 68.9 %
Extraction speed 4.0 X
Track quality 99.9 %
Test CRC A6D84A86
Copy CRC A6D84A86
Accurately ripped (confidence 2) [E33CDB0B] (AR v2)
Copy OK

Track 3

Filename E:\WHAT.CD\000TEMP\Dvořák, Grieg & Brahms - Music for Piano Four Hands - Chevallier & van Immerseel (2017) [FLAC]\03 - Hungarian Dances for piano, 4 hands, WoO 1- 13. Andantino Grazioso (D Major).wav

Peak level 68.0 %
Extraction speed 4.6 X
Track quality 100.0 %
Test CRC 45E27899
Copy CRC 45E27899
Accurately ripped (confidence 2) [D999DB6A] (AR v2)
Copy OK

Track 4

Filename E:\WHAT.CD\000TEMP\Dvořák, Grieg & Brahms - Music for Piano Four Hands - Chevallier & van Immerseel (2017) [FLAC]\04 - Hungarian Dances for piano, 4 hands, WoO 1- 14. Un Poco Andante (D Minor).wav

Peak level 62.4 %
Extraction speed 4.6 X
Track quality 100.0 %
Test CRC A7F226D0
Copy CRC A7F226D0
Accurately ripped (confidence 2) [6718C881] (AR v2)
Copy OK

Track 5

Filename E:\WHAT.CD\000TEMP\Dvořák, Grieg & Brahms - Music for Piano Four Hands - Chevallier & van Immerseel (2017) [FLAC]\05 - Hungarian Dances for piano, 4 hands, WoO 1- 15. Allegretto Grazioso (B Flat Major).wav

Peak level 73.9 %
Extraction speed 4.6 X
Track quality 99.9 %
Test CRC 434EE5B2
Copy CRC 434EE5B2
Accurately ripped (confidence 2) [62BB9661] (AR v2)
Copy OK

Track 6

Filename E:\WHAT.CD\000TEMP\Dvořák, Grieg & Brahms - Music for Piano Four Hands - Chevallier & van Immerseel (2017) [FLAC]\06 - Hungarian Dances for piano, 4 hands, WoO 1- 16. Con Moto (F Minor).wav

Peak level 78.6 %
Extraction speed 4.7 X
Track quality 99.9 %
Test CRC 12530ABF
Copy CRC 12530ABF
Accurately ripped (confidence 2) [D71772CE] (AR v2)
Copy OK

Track 7

Filename E:\WHAT.CD\000TEMP\Dvořák, Grieg & Brahms - Music for Piano Four Hands - Chevallier & van Immerseel (2017) [FLAC]\07 - Hungarian Dances for piano, 4 hands, WoO 1- 17. Andantino (F Sharp Minor).wav

Peak level 78.9 %
Extraction speed 6.2 X
Track quality 100.0 %
Test CRC 6CF77F9E
Copy CRC 6CF77F9E
Accurately ripped (confidence 2) [374DFF16] (AR v2)
Copy OK

Track 8

Filename E:\WHAT.CD\000TEMP\Dvořák, Grieg & Brahms - Music for Piano Four Hands - Chevallier & van Immerseel (2017) [FLAC]\08 - Hungarian Dances for piano, 4 hands, WoO 1- 18. Molto Vivace (D Major).wav

Peak level 74.3 %
Extraction speed 5.5 X
Track quality 100.0 %
Test CRC 75212744
Copy CRC 75212744
Accurately ripped (confidence 2) [9D2A8E8F] (AR v2)
Copy OK

Track 9

Filename E:\WHAT.CD\000TEMP\Dvořák, Grieg & Brahms - Music for Piano Four Hands - Chevallier & van Immerseel (2017) [FLAC]\09 - Hungarian Dances for piano, 4 hands, WoO 1- 19. Allegretto (B Minor).wav

Peak level 78.6 %
Extraction speed 6.2 X
Track quality 100.0 %
Test CRC 48FA0596
Copy CRC 48FA0596
Accurately ripped (confidence 2) [354A7C72] (AR v2)
Copy OK

Track 10

Filename E:\WHAT.CD\000TEMP\Dvořák, Grieg & Brahms - Music for Piano Four Hands - Chevallier & van Immerseel (2017) [FLAC]\10 - Hungarian Dances for piano, 4 hands, WoO 1- 20. Poco Allegretto (E Minor).wav

Peak level 58.7 %
Extraction speed 5.4 X
Track quality 99.9 %
Test CRC 4BEA25A4
Copy CRC 4BEA25A4
Accurately ripped (confidence 2) [749934B7] (AR v2)
Copy OK

Track 11

Filename E:\WHAT.CD\000TEMP\Dvořák, Grieg & Brahms - Music for Piano Four Hands - Chevallier & van Immerseel (2017) [FLAC]\11 - Hungarian Dances for piano, 4 hands, WoO 1- 21. Vivace (E Minor).wav

Peak level 82.5 %
Extraction speed 6.2 X
Track quality 100.0 %
Test CRC A8F79E9B
Copy CRC A8F79E9B
Accurately ripped (confidence 2) [3279D84F] (AR v2)
Copy OK

Track 12

Filename E:\WHAT.CD\000TEMP\Dvořák, Grieg & Brahms - Music for Piano Four Hands - Chevallier & van Immerseel (2017) [FLAC]\12 - Norwegian Dances for piano, 4 hands, Op. 35- I. Allegro Moderato (D Minor).wav

Peak level 85.5 %
Extraction speed 7.6 X
Track quality 100.0 %
Test CRC 921F26B4
Copy CRC 921F26B4
Accurately ripped (confidence 2) [3E1818B1] (AR v2)
Copy OK

Track 13

Filename E:\WHAT.CD\000TEMP\Dvořák, Grieg & Brahms - Music for Piano Four Hands - Chevallier & van Immerseel (2017) [FLAC]\13 - Norwegian Dances for piano, 4 hands, Op. 35- II. Allegretto Tranquillo E Grazioso (A Major).wav

Peak level 77.3 %
Extraction speed 7.0 X
Track quality 100.0 %
Test CRC 15F0CA11
Copy CRC 15F0CA11
Accurately ripped (confidence 2) [4B9147B8] (AR v2)
Copy OK

Track 14

Filename E:\WHAT.CD\000TEMP\Dvořák, Grieg & Brahms - Music for Piano Four Hands - Chevallier & van Immerseel (2017) [FLAC]\14 - Norwegian Dances for piano, 4 hands, Op. 35- III. Allegro Moderato Alla Marcia (G Major).wav

Peak level 90.1 %
Extraction speed 6.7 X
Track quality 100.0 %
Test CRC DC8EC080
Copy CRC DC8EC080
Accurately ripped (confidence 2) [C998F482] (AR v2)
Copy OK

Track 15

Filename E:\WHAT.CD\000TEMP\Dvořák, Grieg & Brahms - Music for Piano Four Hands - Chevallier & van Immerseel (2017) [FLAC]\15 - Slavonic Dances for orchestra, B. 83 (Op. 46)- 1. Furiant. Presto (C Major).wav

Peak level 92.3 %
Extraction speed 6.9 X
Track quality 99.9 %
Test CRC 50560140
Copy CRC 50560140
Accurately ripped (confidence 2) [30C35F0F] (AR v2)
Copy OK

Track 16

Filename E:\WHAT.CD\000TEMP\Dvořák, Grieg & Brahms - Music for Piano Four Hands - Chevallier & van Immerseel (2017) [FLAC]\16 - Slavonic Dances for orchestra, B. 83 (Op. 46)- 2. Dumka. Allegretto Scherzando - Allegro Vivo (E Minor).wav

Peak level 67.7 %
Extraction speed 8.5 X
Track quality 100.0 %
Test CRC 19FB1C4D
Copy CRC 19FB1C4D
Accurately ripped (confidence 2) [FF6612B6] (AR v2)
Copy OK

Track 17

Filename E:\WHAT.CD\000TEMP\Dvořák, Grieg & Brahms - Music for Piano Four Hands - Chevallier & van Immerseel (2017) [FLAC]\17 - Slavonic Dances for orchestra, B. 83 (Op. 46)- 3. Polka. Poco Allegro (A Flat Major).wav

Peak level 83.4 %
Extraction speed 8.5 X
Track quality 100.0 %
Test CRC 0234678E
Copy CRC 0234678E
Accurately ripped (confidence 2) [303D05C4] (AR v2)
Copy OK

Track 18

Filename E:\WHAT.CD\000TEMP\Dvořák, Grieg & Brahms - Music for Piano Four Hands - Chevallier & van Immerseel (2017) [FLAC]\18 - Slavonic Dances for orchestra, B. 83 (Op. 46)- 4. Sousedská. Tempo Di Menuetto (F Major).wav

Peak level 79.5 %
Extraction speed 9.2 X
Track quality 100.0 %
Test CRC 4EC1EB4C
Copy CRC 4EC1EB4C
Accurately ripped (confidence 2) [6945C1F4] (AR v2)
Copy OK

Track 19

Filename E:\WHAT.CD\000TEMP\Dvořák, Grieg & Brahms - Music for Piano Four Hands - Chevallier & van Immerseel (2017) [FLAC]\19 - Slavonic Dances for orchestra, B. 83 (Op. 46)- 5. Skocná. Allegro Vivace (A Major).wav

Peak level 85.9 %
Extraction speed 9.0 X
Track quality 100.0 %
Test CRC F1BC1074
Copy CRC F1BC1074
Accurately ripped (confidence 2) [AE31E2A7] (AR v2)
Copy OK

Track 20

Filename E:\WHAT.CD\000TEMP\Dvořák, Grieg & Brahms - Music for Piano Four Hands - Chevallier & van Immerseel (2017) [FLAC]\20 - Slavonic Dances for orchestra, B. 83 (Op. 46)- 6. Sousedská. Allegretto Scherzando (D Major).wav

Peak level 78.7 %
Extraction speed 9.5 X
Track quality 100.0 %
Test CRC F601F257
Copy CRC F601F257
Accurately ripped (confidence 2) [C197BD7C] (AR v2)
Copy OK

Track 21

Filename E:\WHAT.CD\000TEMP\Dvořák, Grieg & Brahms - Music for Piano Four Hands - Chevallier & van Immerseel (2017) [FLAC]\21 - Slavonic Dances for orchestra, B. 83 (Op. 46)- 7. Skocná. Allegro Assai (C Minor).wav

Peak level 70.5 %
Extraction speed 9.1 X
Track quality 100.0 %
Test CRC 2E552AA1
Copy CRC 2E552AA1
Accurately ripped (confidence 2) [B076EB84] (AR v2)
Copy OK

Track 22

Filename E:\WHAT.CD\000TEMP\Dvořák, Grieg & Brahms - Music for Piano Four Hands - Chevallier & van Immerseel (2017) [FLAC]\22 - Slavonic Dances for orchestra, B. 83 (Op. 46)- 8. Furiant. Presto (G Minor).wav

Peak level 84.5 %
Extraction speed 9.6 X
Track quality 100.0 %
Test CRC 2BA296B8
Copy CRC 2BA296B8
Accurately ripped (confidence 2) [3B60D405] (AR v2)
Copy OK


All tracks accurately ripped

No errors occurred

End of status report

–– CUETools DB Plugin V2.1.6

[CTDB TOCID: 9r3y8EfILn2k67nUbyK9kvkwbSg-] found
Submit result: 9r3y8EfILn2k67nUbyK9kvkwbSg- has been confirmed
Track | CTDB Status
1 | (9/9) Accurately ripped
2 | (9/9) Accurately ripped
3 | (9/9) Accurately ripped
4 | (9/9) Accurately ripped
5 | (9/9) Accurately ripped
6 | (9/9) Accurately ripped
7 | (9/9) Accurately ripped
8 | (9/9) Accurately ripped
9 | (9/9) Accurately ripped
10 | (9/9) Accurately ripped
11 | (9/9) Accurately ripped
12 | (9/9) Accurately ripped
13 | (9/9) Accurately ripped
14 | (9/9) Accurately ripped
15 | (9/9) Accurately ripped
16 | (9/9) Accurately ripped
17 | (9/9) Accurately ripped
18 | (9/9) Accurately ripped
19 | (9/9) Accurately ripped
20 | (9/9) Accurately ripped
21 | (9/9) Accurately ripped
22 | (8/9) Accurately ripped


==== Log checksum D3EC86197DD9E1E130E961ABE7FA428EA093AF49404F4F28B74B1EB2CA77A1D0 ====

Thanks to the Original ripper !