Subcategories
Tags
Language
Tags

Chet Baker - The Complete Barclay Recordings Of Chet Baker, Chet In Paris, Vol. 1-4 (1955-56) {4CD Set, EmArcy Remaster 1988}

Posted By: ruskaval
Chet Baker - The Complete Barclay Recordings Of Chet Baker, Chet In Paris, Vol. 1-4 (1955-56) {4CD Set, EmArcy Remaster 1988}

Chet Baker - The Complete Barclay Recordings Of Chet Baker, Chet In Paris, Vol. 1-4 (1955-56) {4CD Set, EmArcy Remaster 1988}
EAC rip (secure mode) | FLAC (tracks)+CUE+LOG -> 1.02 Gb | MP3 @320 -> 560 Mb
Full Artwork @ 300 dpi (jpg) -> 143 Mb | 5% repair rar
© 1955-56, 1988 EmArcy / PolyGram / Barclay | 837 474/5/6/7
Jazz / Cool / West Coast Jazz / Mainstream Jazz / Trumpet

Emarcy released these 4 CD's of the complete 1955 - 1956 Paris Barclay recordings on CD in 1988. Volume 1 contains lot's of unusual Bob Zieff tunes introduced to Chet by pianist Dick Twardzik. The band is top-rate, the material is interesting, but with the exception of Sad Walk, not very memorable. Things start to pick up on the last tracks, when Chet is joined by a swinging septet (credited as "Chet Baker and his Orchestra"!?). The last tune, In Memory of Dick, is a tribute to Twardzik who died at age 24 during these sessions. Volume 2 contains no Bob Zieff tunes here, just standards. Unlike the cool bop Chet was playing with Russ Freeman around this time, these are mostly ballads. He's backed by a fine band and they swing pretty. Volume 3 is more of the same, but a little more upbeat. Volume 4 contains alternate, unreleased takes from the famous 1955/56 recordings. The CD is filled with a lot of unnecessary tracks (do we really need 4 alternate takes of Tasty Pudding?). Die-hard fans with enjoy this CD to round out their collection. Casual listeners will do just fine with the first 3 CD's.

Personnel:

Chet Baker - Trumpet, Vocals
Richard "Dick" Twardzik - Piano
Gerard Gustin - Piano
Raymond Fol - Piano
René Urtreger - Piano
Francy Boland - Piano
Jimmy Bond - Bass
Benny Vasseur - Trombone
Jean Aldegon - Alto Sax
Bobby Jaspar - Tenor Sax
Jean-Louis Chautemps - Tenor Sax
Benoit Quersin - Bass
Eddie de Haas - Bass
Jean-Louis Viale - Drums
Nils-Bertil Dahlander - Drums
Peter Littman - Drums
Charles Saudrais - Drums

Chet Baker - The Complete Barclay Recordings Of Chet Baker, Chet In Paris, Vol. 1-4 (1955-56) {4CD Set, EmArcy Remaster 1988}

Chet Baker - The Complete Barclay Recordings Of Chet Baker. Chet In Paris, Vol. 1 (1955) {1988 EmArcy Remaster}
EAC rip (secure mode) | FLAC (tracks)+CUE+LOG -> 246 Mb | MP3 @320 -> 124 Mb
Full Artwork @ 300 dpi (jpg) -> 33 Mb
© 1988 EmArcy / PolyGram / Barclay | 837 474-2

The first of four CDs documenting Baker's first visit to Europe has nine selections on which the trumpeter is heard in a quartet with the ill-fated pianist Dick Twardzik and four other numbers with a fine French sextet. Baker shows that his "cool" style actually had plenty of fire. All of the sets in this valuable series contain rewarding music.

Track Listing:

01. Rondette
02. Mid-Forte
03. Sad Walk
04. Re-Search
05. Just Duo
06. Piece Caprice
07. Pomp
08. The Girl from Greenland
09. Brash
10. Chet
11. Dinah
12. V-Line [First Version]
13. In Memory of Dick

Chet Baker - The Complete Barclay Recordings Of Chet Baker, Chet In Paris, Vol. 1-4 (1955-56) {4CD Set, EmArcy Remaster 1988}

EAC extraction logfile from 1. March 2011, 20:17 for CD
Chet Baker / Chet in Paris, Vol. 1

Used drive : HP DVD Writer 1170d Adapter: 1 ID: 1
Read mode : Secure with NO C2, accurate stream, disable cache
Read offset correction : 6
Overread into Lead-In and Lead-Out : No

Used output format : C:\Program Files\FLAC\flac.exe (User Defined Encoder)
128 kBit/s
Additional command line options : -8 -V -T "ARTIST=%a" -T "TITLE=%t" -T "ALBUM=%g" -T "DATE=%y" -T "TRACKNUMBER=%n" -T "TOTALTRACKS=%x" -T "GENRE=%m" -T "ALBUM ARTIST=%v" -T "ALBUMARTIST=%v" -T "COMMENT=EAC V0.99 prebeta 4, Secure Mode,

Other options :
Fill up missing offset samples with silence : Yes
Delete leading and trailing silent blocks : No
Installed external ASPI interface


Track 1
Filename C:\Documents and Settings\chet1\01 - Rondette.wav

Pre-gap length 0:00:02.44

Peak level 93.5 %
Track quality 100.0 %
Test CRC 569B2496
Copy CRC 569B2496
Copy OK

Track 2
Filename C:\Documents and Settings\chet1\02 - Mid-Forte.wav

Pre-gap length 0:00:01.84

Peak level 89.1 %
Track quality 100.0 %
Test CRC D7673595
Copy CRC D7673595
Copy OK

Track 3
Filename C:\Documents and Settings\chet1\03 - Sad Walk.wav

Pre-gap length 0:00:03.00

Peak level 79.5 %
Track quality 99.9 %
Test CRC BF482B3C
Copy CRC BF482B3C
Copy OK

Track 4
Filename C:\Documents and Settings\chet1\04 - Re-Search.wav

Pre-gap length 0:00:01.50

Peak level 98.0 %
Track quality 100.0 %
Test CRC B445622A
Copy CRC B445622A
Copy OK

Track 5
Filename C:\Documents and Settings\chet1\05 - Just Duo.wav

Pre-gap length 0:00:03.33

Peak level 94.1 %
Track quality 99.9 %
Test CRC F1D79FB1
Copy CRC F1D79FB1
Copy OK

Track 6
Filename C:\Documents and Settings\chet1\06 - Piece Caprice.wav

Pre-gap length 0:00:02.50

Peak level 97.7 %
Track quality 100.0 %
Test CRC CB3F5BAF
Copy CRC CB3F5BAF
Copy OK

Track 7
Filename C:\Documents and Settings\chet1\07 - Pomp.wav

Pre-gap length 0:00:03.33

Peak level 97.8 %
Track quality 100.0 %
Test CRC AA9FC698
Copy CRC AA9FC698
Copy OK

Track 8
Filename C:\Documents and Settings\chet1\08 - The Girl From Greenland.wav

Pre-gap length 0:00:02.66

Peak level 98.0 %
Track quality 100.0 %
Test CRC A4D2FBAF
Copy CRC A4D2FBAF
Copy OK

Track 9
Filename C:\Documents and Settings\chet1\09 - Brash.wav

Pre-gap length 0:00:03.17

Peak level 86.7 %
Track quality 100.0 %
Test CRC 6CDB45C6
Copy CRC 6CDB45C6
Copy OK

Track 10
Filename C:\Documents and Settings\chet1\10 - Chet.wav

Pre-gap length 0:00:02.50

Peak level 88.2 %
Track quality 100.0 %
Test CRC C4B38619
Copy CRC C4B38619
Copy OK

Track 11
Filename C:\Documents and Settings\chet1\11 - Dinah.wav

Pre-gap length 0:00:02.00

Peak level 82.7 %
Track quality 100.0 %
Test CRC 407F4DE0
Copy CRC 407F4DE0
Copy OK

Track 12
Filename C:\Documents and Settings\chet1\12 - Vline - 1st version.wav

Pre-gap length 0:00:03.50

Peak level 98.6 %
Track quality 100.0 %
Test CRC E2221A7E
Copy CRC E2221A7E
Copy OK

Track 13
Filename C:\Documents and Settings\chet1\13 - In Memory of Disk.wav

Pre-gap length 0:00:03.00

Peak level 83.2 %
Track quality 100.0 %
Test CRC E04F576A
Copy CRC E04F576A
Copy OK

No errors occured


End of status report


[CUETools log; Date: 19.12.2012 1:32:39; Version: 2.1.2a]
Pregap length 00:00:33.
[CTDB TOCID: qWPa9XG0eVyH00Bo60xj3lDqtLU-] found.
[ CTDBID ] Status
[15cb75c2] (16/16) Differs in 0 samples @
[AccurateRip ID: 001944cb-010154ad-b90c3b0d] found.
Track [ CRC ] Status
01 [491bd376] (15/17) Accurately ripped
02 [c910a7c0] (16/18) Accurately ripped
03 [8e8f34a1] (16/18) Accurately ripped
04 [651ec4a5] (15/17) Accurately ripped
05 [4b10ed6d] (15/17) Accurately ripped
06 [b471a561] (14/16) Accurately ripped
07 [7b0e814a] (15/17) Accurately ripped
08 [7413ca23] (15/17) Accurately ripped
09 [dbfb1900] (15/17) Accurately ripped
10 [52dacda4] (15/17) Accurately ripped
11 [a8555b01] (15/17) Accurately ripped
12 [1fecef64] (15/17) Accurately ripped
13 [81bb3bd6] (14/16) Accurately ripped
AccurateRip v2:
01 [a85fcec8] (02/17) Accurately ripped
02 [2ad99522] (02/18) Accurately ripped
03 [20067fc7] (02/18) Accurately ripped
04 [b462c49a] (02/17) Accurately ripped
05 [cdf27124] (02/17) Accurately ripped
06 [7ece0204] (02/16) Accurately ripped
07 [92a9d7a1] (02/17) Accurately ripped
08 [ab9f8b86] (02/17) Accurately ripped
09 [8ebfa325] (02/17) Accurately ripped
10 [b157f311] (02/17) Accurately ripped
11 [d6b62b49] (02/17) Accurately ripped
12 [cec5cf84] (02/17) Accurately ripped
13 [b265cfec] (02/16) Accurately ripped

Track Peak [ CRC32 ] [W/O NULL] [ LOG ]
– 98,6 [37772E9C] [80FCEF21]
01 93,5 [569B2496] [510D54E1] CRC32
02 89,1 [D7673595] [EE3C5916] CRC32
03 79,5 [BF482B3C] [67C9C4AB] CRC32
04 98,0 [B445622A] [07689971] CRC32
05 94,1 [F1D79FB1] [92805106] CRC32
06 97,7 [CB3F5BAF] [B5A55923] CRC32
07 97,8 [AA9FC698] [41F379CA] CRC32
08 98,0 [A4D2FBAF] [DFC80CC1] CRC32
09 86,7 [6CDB45C6] [E3C7ABAB] CRC32
10 88,2 [C4B38619] [0F8C736A] CRC32
11 82,7 [407F4DE0] [77A61FA1] CRC32
12 98,6 [E2221A7E] [FF46CAD4] CRC32
13 83,2 [E04F576A] [3ADA1F29] CRC32


Chet Baker - The Complete Barclay Recordings Of Chet Baker, Chet In Paris, Vol. 1-4 (1955-56) {4CD Set, EmArcy Remaster 1988}

Chet Baker - The Complete Barclay Recordings Of Chet Baker. Chet In Paris, Vol. 2 (1955) {1988 EmArcy Remaster}
EAC rip (secure mode) | FLAC (tracks)+CUE+LOG -> 300 Mb | MP3 @320 -> 168 Mb
Full Artwork @ 300 dpi (jpg) -> 36 Mb
© 1988 EmArcy / PolyGram / Barclay | 837 4745-2

The second in a four-CD series that documents his first trip to Europe has the studio sides from two separate sessions in which the trumpeter was teamed with French rhythm sections. The music (all but one are standards) finds Baker in top early form, making this cool-toned bop music well worth hearing.

Track Listing:

01. Summertime
02. You Go to My Head
03. Tenderly
04. Lover Man
05. There's a Small Hotel
06. Autumn in New York
07. These Foolish Things
08. I'll Remember April
09. Alone Together
10. Exitus
11. Once in a While
12. All the Things You Are
13. Everything Happens to Me

Chet Baker - The Complete Barclay Recordings Of Chet Baker, Chet In Paris, Vol. 1-4 (1955-56) {4CD Set, EmArcy Remaster 1988}

Chet Baker - The Complete Barclay Recordings Of Chet Baker, Chet In Paris, Vol. 1-4 (1955-56) {4CD Set, EmArcy Remaster 1988}

EAC extraction logfile from 12. March 2011, 16:41 for CD
Chet Baker / Chet Baker In Paris - Volume 2

Used drive : HP DVD Writer 1170d Adapter: 1 ID: 2
Read mode : Secure with NO C2, accurate stream, disable cache
Read offset correction : 6
Overread into Lead-In and Lead-Out : No

Used output format : C:\Program Files\FLAC\flac.exe (User Defined Encoder)
128 kBit/s
Additional command line options : -8 -V -T "ARTIST=%a" -T "TITLE=%t" -T "ALBUM=%g" -T "DATE=%y" -T "TRACKNUMBER=%n" -T "TOTALTRACKS=%x" -T "GENRE=%m" -T "ALBUM ARTIST=%v" -T "ALBUMARTIST=%v" -T "COMMENT=EAC V0.99 prebeta 4, Secure Mode,

Other options :
Fill up missing offset samples with silence : Yes
Delete leading and trailing silent blocks : No
Installed external ASPI interface


Track 1
Filename C:\Documents and Settings\bakerparis2\01 - Summertime.wav

Pre-gap length 0:00:02.44

Peak level 88.3 %
Track quality 99.9 %
Test CRC 2D1225CA
Copy CRC 2D1225CA
Copy OK

Track 2
Filename C:\Documents and Settings\bakerparis2\02 - You Go To My Head.wav

Pre-gap length 0:00:02.84

Peak level 91.3 %
Track quality 100.0 %
Test CRC 01EF01C9
Copy CRC 01EF01C9
Copy OK

Track 3
Filename C:\Documents and Settings\bakerparis2\03 - Tenderly.wav

Pre-gap length 0:00:02.33

Peak level 92.9 %
Track quality 100.0 %
Test CRC 478882F5
Copy CRC 478882F5
Copy OK

Track 4
Filename C:\Documents and Settings\bakerparis2\04 - Lover Man.wav

Pre-gap length 0:00:02.33

Peak level 89.7 %
Track quality 100.0 %
Test CRC 05C04DA5
Copy CRC 05C04DA5
Copy OK

Track 5
Filename C:\Documents and Settings\bakerparis2\05 - There's A Small Hotel.wav

Pre-gap length 0:00:01.82

Peak level 97.8 %
Track quality 100.0 %
Test CRC 26D7E721
Copy CRC 26D7E721
Copy OK

Track 6
Filename C:\Documents and Settings\bakerparis2\06 - Autumn In New York.wav

Pre-gap length 0:00:02.66

Peak level 88.2 %
Track quality 99.9 %
Test CRC 029791F7
Copy CRC 029791F7
Copy OK

Track 7
Filename C:\Documents and Settings\bakerparis2\07 - These Foolish Things.wav

Pre-gap length 0:00:02.50

Peak level 71.4 %
Track quality 100.0 %
Test CRC 9DC032C4
Copy CRC 9DC032C4
Copy OK

Track 8
Filename C:\Documents and Settings\bakerparis2\08 - I'll Remember April.wav

Pre-gap length 0:00:01.49

Peak level 95.6 %
Track quality 100.0 %
Test CRC 9A443EE4
Copy CRC 9A443EE4
Copy OK

Track 9
Filename C:\Documents and Settings\bakerparis2\09 - Alone Together.wav

Pre-gap length 0:00:02.33

Peak level 84.3 %
Track quality 100.0 %
Test CRC 41B5A6F8
Copy CRC 41B5A6F8
Copy OK

Track 10
Filename C:\Documents and Settings\bakerparis2\10 - Exitus.wav

Pre-gap length 0:00:02.33

Peak level 97.8 %
Track quality 99.9 %
Test CRC 64EBAD8B
Copy CRC 64EBAD8B
Copy OK

Track 11
Filename C:\Documents and Settings\bakerparis2\11 - Once In A While.wav

Pre-gap length 0:00:02.50

Peak level 99.8 %
Track quality 99.9 %
Test CRC 8D2991A5
Copy CRC 8D2991A5
Copy OK

Track 12
Filename C:\Documents and Settings\bakerparis2\12 - All The Things You Are.wav

Pre-gap length 0:00:03.17

Peak level 93.8 %
Track quality 99.9 %
Test CRC 6F688998
Copy CRC 6F688998
Copy OK

Track 13
Filename C:\Documents and Settings\bakerparis2\13 - Everything Happens To Me.wav

Pre-gap length 0:00:02.50

Peak level 77.5 %
Track quality 100.0 %
Test CRC 80736830
Copy CRC 80736830
Copy OK

No errors occured


End of status report


[CUETools log; Date: 19.12.2012 1:38:59; Version: 2.1.2a]
Pregap length 00:00:33.
[CTDB TOCID: uGQ_9mwY67coTv5u4EzSJpZ5M00-] found.
[ CTDBID ] Status
[306c1ce9] (1/1) Differs in 1520 samples @69:36:01,69:36:22,69:37:56,69:42:26-69:42:27,69:48:09-69:48:10,69:48:31,69:53:46,69:54:57-69:54:58,69:57:48-69:57:49,69:59:50-69:59:51,70:00:62,70:01:30-70:01:31,70:02:20,70:02:64,70:03:11,70:04:65,70:07:14,70:10:06,70:10:71,70:11:60-70:11:61,70:13:62-70:13:63,70:14:31,70:14:53,70:15:00,70:17:67,70:18:13-70:18:14,70:19:47,70:20:15,70:21:48-70:21:49,70:21:70,70:23:28-70:23:29,70:23:50-70:23:51,70:24:19,70:24:41,70:25:31,70:26:21-70:26:22,70:27:33,70:30:03-70:30:04,70:30:26,70:30:69,70:32:06,70:34:07-70:34:08,70:34:51-70:34:52,70:36:53-70:36:54,70:37:21-70:37:22,70:38:12,70:38:56,70:40:58
[AccurateRip ID: 0021e7e1-015505c2-a110910d] found.
Track [ CRC ] Status
01 [9bb8dd9a] (17/17) Accurately ripped
02 [85082a1b] (19/19) Accurately ripped
03 [3ec25d6f] (18/18) Accurately ripped
04 [62077032] (18/18) Accurately ripped
05 [8bf6bfe6] (19/19) Accurately ripped
06 [25a89b22] (18/18) Accurately ripped
07 [bb172208] (19/19) Accurately ripped
08 [8c244f07] (18/18) Accurately ripped
09 [ecddd376] (18/18) Accurately ripped
10 [0067d5bc] (18/18) Accurately ripped
11 [e69916c2] (17/17) Accurately ripped
12 [d6381d12] (18/18) Accurately ripped
13 [aa3060ac] (16/16) Accurately ripped

Track Peak [ CRC32 ] [W/O NULL] [ LOG ]
– 99,8 [32152EB2] [F3FB101E]
01 88,3 [2D1225CA] [2BCE5C44] CRC32
02 91,3 [01EF01C9] [C158195B] CRC32
03 92,9 [478882F5] [BD5A6D20] CRC32
04 89,7 [05C04DA5] [14EB297E] CRC32
05 97,8 [26D7E721] [F755EB31] CRC32
06 88,2 [029791F7] [4461E311] CRC32
07 71,4 [9DC032C4] [7862268E] CRC32
08 95,6 [9A443EE4] [C3670514] CRC32
09 84,3 [41B5A6F8] [5B717A4F] CRC32
10 97,8 [64EBAD8B] [2163DDB0] CRC32
11 99,8 [8D2991A5] [5F3564B9] CRC32
12 93,8 [6F688998] [BA53C742] CRC32
13 77,5 [80736830] [F9A3EB50] CRC32



Chet Baker - The Complete Barclay Recordings Of Chet Baker, Chet In Paris, Vol. 1-4 (1955-56) {4CD Set, EmArcy Remaster 1988}

Chet Baker - The Complete Barclay Recordings Of Chet Baker. Chet In Paris, Vol. 3 (1956) {1988 EmArcy Remaster}
EAC rip (secure mode) | FLAC (tracks)+CUE+LOG -> 218 Mb | MP3 @320 -> 118 Mb
Full Artwork @ 300 dpi (jpg) -> 37 Mb
© 1988 EmArcy / PolyGram / Barclay | 837 476-2

The third of four CDs in this valuable series continues the documentation of Baker's first trip to Europe with three interesting sessions. Baker is teamed with tenor-saxophonist Bobby Jaspar and pianist Rene Urtreger for four selections, interacts with the tenor of Jean-Louis Chautemps and pianist Francy Boland on the next four songs and is finally heard with a fine French octet. Throughout this entire series, the trumpeter is in fine form.

Track Listing:

01. Chekeethah
02. How About You
03. Exitus [Quintet version]
04. Dear Old Stockholm
05. Speak Low
06. Anticipated Blues
07. Cheryl
08. Tasty Pudding
09. Mythe
10. Not Too Slow
11. Vline [2nd Version]
12. In A Little Provincial Town

Chet Baker - The Complete Barclay Recordings Of Chet Baker, Chet In Paris, Vol. 1-4 (1955-56) {4CD Set, EmArcy Remaster 1988}

Chet Baker - The Complete Barclay Recordings Of Chet Baker, Chet In Paris, Vol. 1-4 (1955-56) {4CD Set, EmArcy Remaster 1988}

EAC extraction logfile from 13. March 2011, 16:54 for CD
Chet Baker / Chet In Paris Vol 3

Used drive : HP DVD Writer 1170d Adapter: 1 ID: 1
Read mode : Secure with NO C2, accurate stream, disable cache
Read offset correction : 6
Overread into Lead-In and Lead-Out : No

Used output format : C:\Program Files\FLAC\flac.exe (User Defined Encoder)
128 kBit/s
Additional command line options : -8 -V -T "ARTIST=%a" -T "TITLE=%t" -T "ALBUM=%g" -T "DATE=%y" -T "TRACKNUMBER=%n" -T "TOTALTRACKS=%x" -T "GENRE=%m" -T "ALBUM ARTIST=%v" -T "ALBUMARTIST=%v" -T "COMMENT=EAC V0.99 prebeta 4, Secure Mode,

Other options :
Fill up missing offset samples with silence : Yes
Delete leading and trailing silent blocks : No
Installed external ASPI interface


Track 1
Filename C:\Documents and Settings\chetparis3\01 - Chekeetah.wav

Pre-gap length 0:00:02.44

Peak level 92.6 %
Track quality 100.0 %
Test CRC FF43BED8
Copy CRC FF43BED8
Copy OK

Track 2
Filename C:\Documents and Settings\chetparis3\02 - How About You.wav

Pre-gap length 0:00:02.66

Peak level 91.1 %
Track quality 100.0 %
Test CRC BC4A82C9
Copy CRC BC4A82C9
Copy OK

Track 3
Filename C:\Documents and Settings\chetparis3\03 - Exitus - Quintet Version.wav

Pre-gap length 0:00:02.33

Peak level 84.1 %
Track quality 99.9 %
Test CRC F9EE19B5
Copy CRC F9EE19B5
Copy OK

Track 4
Filename C:\Documents and Settings\chetparis3\04 - Dear Old Stockholm.wav

Pre-gap length 0:00:02.50

Peak level 84.2 %
Track quality 100.0 %
Test CRC 1E60C895
Copy CRC 1E60C895
Copy OK

Track 5
Filename C:\Documents and Settings\chetparis3\05 - Speak Low.wav

Pre-gap length 0:00:02.17

Peak level 99.0 %
Track quality 100.0 %
Test CRC BF6BF057
Copy CRC BF6BF057
Copy OK

Track 6
Filename C:\Documents and Settings\chetparis3\06 - Anticipated Blues.wav

Pre-gap length 0:00:01.50

Peak level 89.3 %
Track quality 100.0 %
Test CRC 3CFF2428
Copy CRC 3CFF2428
Copy OK

Track 7
Filename C:\Documents and Settings\chetparis3\07 - Cheryl.wav

Pre-gap length 0:00:02.00

Peak level 96.7 %
Track quality 99.8 %
Test CRC 2676D66D
Copy CRC 2676D66D
Copy OK

Track 8
Filename C:\Documents and Settings\chetparis3\08 - Tasty Pudding.wav

Pre-gap length 0:00:02.66

Peak level 91.0 %
Track quality 100.0 %
Test CRC 0B0D2598
Copy CRC 0B0D2598
Copy OK

Track 9
Filename C:\Documents and Settings\chetparis3\09 - Mythe.wav

Pre-gap length 0:00:01.66

Peak level 86.8 %
Track quality 100.0 %
Test CRC F493F9C6
Copy CRC F493F9C6
Copy OK

Track 10
Filename C:\Documents and Settings\chetparis3\10 - Not Too Slow.wav

Pre-gap length 0:00:02.50

Peak level 91.9 %
Track quality 100.0 %
Test CRC D15C4A16
Copy CRC D15C4A16
Copy OK

Track 11
Filename C:\Documents and Settings\chetparis3\11 - Vline 2nd Version.wav

Pre-gap length 0:00:02.50

Peak level 95.4 %
Track quality 100.0 %
Test CRC 37290C80
Copy CRC 37290C80
Copy OK

Track 12
Filename C:\Documents and Settings\chetparis3\12 - In A Little Provincial Town.wav

Pre-gap length 0:00:02.82

Peak level 76.7 %
Track quality 100.0 %
Test CRC 66B8BAEE
Copy CRC 66B8BAEE
Copy OK

No errors occured


End of status report


[CUETools log; Date: 19.12.2012 1:40:34; Version: 2.1.2a]
Pregap length 00:00:33.
[CTDB TOCID: X6HGCnzfzCnMrPYG16zZAfUPXjw-] disk not present in database.
[AccurateRip ID: 0018d24f-00e0e294-bb0b9b0c] found.
Track [ CRC ] Status
01 [5eccee3e] (8/8) Accurately ripped
02 [ac32a2d4] (8/8) Accurately ripped
03 [a7cfb64d] (8/8) Accurately ripped
04 [3d5e566f] (8/8) Accurately ripped
05 [69b33e1c] (8/8) Accurately ripped
06 [24c0ce70] (8/8) Accurately ripped
07 [4d92ec36] (8/8) Accurately ripped
08 [d41be897] (8/8) Accurately ripped
09 [4ca0aa7a] (8/8) Accurately ripped
10 [b701d274] (8/8) Accurately ripped
11 [c0fb906d] (8/8) Accurately ripped
12 [e1b21e83] (7/7) Accurately ripped

Track Peak [ CRC32 ] [W/O NULL] [ LOG ]
– 99,0 [13FA2567] [1C232B72]
01 92,6 [FF43BED8] [45EE912D] CRC32
02 91,1 [BC4A82C9] [2E153909] CRC32
03 84,1 [F9EE19B5] [9D1DA91D] CRC32
04 84,2 [1E60C895] [10054C97] CRC32
05 99,0 [BF6BF057] [80C25356] CRC32
06 89,3 [3CFF2428] [EA890173] CRC32
07 96,7 [2676D66D] [0E4B73AC] CRC32
08 91,0 [0B0D2598] [DEDAA958] CRC32
09 86,8 [F493F9C6] [B09E3BED] CRC32
10 91,9 [D15C4A16] [F04228E9] CRC32
11 95,4 [37290C80] [A37EC058] CRC32
12 76,7 [66B8BAEE] [FA220293] CRC32


Chet Baker - The Complete Barclay Recordings Of Chet Baker, Chet In Paris, Vol. 1-4 (1955-56) {4CD Set, EmArcy Remaster 1988}

Chet Baker - The Complete Barclay Recordings Of Chet Baker. Chet In Paris, Vol. 4 (1956) {1988 EmArcy Remaster}
EAC rip (secure mode) | FLAC (tracks)+CUE+LOG -> 285 Mb | MP3 @320 -> 149 Mb
Full Artwork @ 300 dpi (jpg) -> 38 Mb
© 1988 EmArcy / PolyGram / Barclay | 837 477-2

The final CD in this four-volume series features alternate versions of the many selections recorded by Chet Baker while in Europe for his first visit. Taken from four different sessions, he is heard with a quartet, a sextet and two different quintets (including one with the fine tenor-saxophonist Bobby Jaspar). Each of these sets are essential for true Chet Baker fans.

Track Listing:

01. Chet
02. Dinah
03. In Memory of Dick
04. Alone Together [1]
05. Alone Together [2]
06. Exitus [Quartet version]
07. All the Things You Are
08. Chekeetah
09. How About You
10. Exitus [Quintet version I]
11. Exitus [Quintet version II]
12. Anticipated Blues
13. Tasty Pudding [Take 1]
14. Tasty Pudding [Take 2]
15. Tasty Pudding [Take 3]
16. Tasty Pudding [Take 4]

Chet Baker - The Complete Barclay Recordings Of Chet Baker, Chet In Paris, Vol. 1-4 (1955-56) {4CD Set, EmArcy Remaster 1988}

Chet Baker - The Complete Barclay Recordings Of Chet Baker, Chet In Paris, Vol. 1-4 (1955-56) {4CD Set, EmArcy Remaster 1988}

EAC extraction logfile from 30. March 2011, 22:19 for CD
Chet Baker Quartet / Chet In Paris [Alternate Takes]

Used drive : HP DVD Writer 1170d Adapter: 1 ID: 0
Read mode : Secure with NO C2, accurate stream, disable cache
Read offset correction : 6
Overread into Lead-In and Lead-Out : No

Used output format : C:\Program Files\FLAC\flac.exe (User Defined Encoder)
128 kBit/s
Additional command line options : -8 -V -T "ARTIST=%a" -T "TITLE=%t" -T "ALBUM=%g" -T "DATE=%y" -T "TRACKNUMBER=%n" -T "TOTALTRACKS=%x" -T "GENRE=%m" -T "ALBUM ARTIST=%v" -T "ALBUMARTIST=%v" -T "COMMENT=EAC V0.99 prebeta 4, Secure Mode,

Other options :
Fill up missing offset samples with silence : Yes
Delete leading and trailing silent blocks : No
Installed external ASPI interface


Track 1
Filename C:\Documents and Settings\chet4\01 - Chet.wav

Pre-gap length 0:00:02.44

Peak level 80.0 %
Track quality 100.0 %
Test CRC 9D77BF00
Copy CRC 9D77BF00
Copy OK

Track 2
Filename C:\Documents and Settings\chet4\02 - Dinah.wav

Pre-gap length 0:00:02.00

Peak level 89.8 %
Track quality 100.0 %
Test CRC 39F4D3BB
Copy CRC 39F4D3BB
Copy OK

Track 3
Filename C:\Documents and Settings\chet4\03 - In Memory Of Dick.wav

Pre-gap length 0:00:02.66

Peak level 88.4 %
Track quality 100.0 %
Test CRC E288FB92
Copy CRC E288FB92
Copy OK

Track 4
Filename C:\Documents and Settings\chet4\04 - Alone Together (1).wav

Pre-gap length 0:00:03.66

Peak level 68.1 %
Track quality 100.0 %
Test CRC 1FB7F681
Copy CRC 1FB7F681
Copy OK

Track 5
Filename C:\Documents and Settings\chet4\05 - Alone Together (2).wav

Pre-gap length 0:00:02.84

Peak level 80.9 %
Track quality 100.0 %
Test CRC 8503D9FA
Copy CRC 8503D9FA
Copy OK

Track 6
Filename C:\Documents and Settings\chet4\06 - Exitus (Quartet Version).wav

Pre-gap length 0:00:03.50

Peak level 93.2 %
Track quality 99.9 %
Test CRC 47E227E4
Copy CRC 47E227E4
Copy OK

Track 7
Filename C:\Documents and Settings\chet4\07 - All The Things You Are.wav

Pre-gap length 0:00:02.84

Peak level 95.6 %
Track quality 99.9 %
Test CRC 17FCE0E8
Copy CRC 17FCE0E8
Copy OK

Track 8
Filename C:\Documents and Settings\chet4\08 - Chekeetah.wav

Pre-gap length 0:00:03.50

Peak level 95.6 %
Track quality 100.0 %
Test CRC 8B9D65DC
Copy CRC 8B9D65DC
Copy OK

Track 9
Filename C:\Documents and Settings\chet4\09 - How About You.wav

Pre-gap length 0:00:02.66

Peak level 89.3 %
Track quality 99.9 %
Test CRC 312F75C7
Copy CRC 312F75C7
Copy OK

Track 10
Filename C:\Documents and Settings\chet4\10 - Exitus - Quintet Version I.wav

Pre-gap length 0:00:03.00

Peak level 87.6 %
Track quality 100.0 %
Test CRC 756AB0D8
Copy CRC 756AB0D8
Copy OK

Track 11
Filename C:\Documents and Settings\chet4\11 - Exitus - Quintet Version II.wav

Pre-gap length 0:00:03.00

Peak level 91.7 %
Track quality 100.0 %
Test CRC 2CA94417
Copy CRC 2CA94417
Copy OK

Track 12
Filename C:\Documents and Settings\chet4\12 - Anticipated Blues.wav

Pre-gap length 0:00:02.50

Peak level 93.4 %
Track quality 100.0 %
Test CRC 04473B46
Copy CRC 04473B46
Copy OK

Track 13
Filename C:\Documents and Settings\chet4\13 - Tasty Pudding - Take 1.wav

Pre-gap length 0:00:02.84

Peak level 72.8 %
Track quality 100.0 %
Test CRC 5D640C9C
Copy CRC 5D640C9C
Copy OK

Track 14
Filename C:\Documents and Settings\chet4\14 - Tasty Pudding - Take 2.wav

Pre-gap length 0:00:02.50

Peak level 84.7 %
Track quality 100.0 %
Test CRC EE90172A
Copy CRC EE90172A
Copy OK

Track 15
Filename C:\Documents and Settings\chet4\15 - Tasty Pudding - Take 3.wav

Pre-gap length 0:00:02.49

Peak level 72.6 %
Track quality 99.9 %
Test CRC C121A473
Copy CRC C121A473
Copy OK

Track 16
Filename C:\Documents and Settings\chet4\16 - Tasty Pudding - Take 4.wav

Pre-gap length 0:00:02.17

Peak level 85.6 %
Track quality 100.0 %
Test CRC 8FB1825A
Copy CRC 8FB1825A
Copy OK

No errors occured


End of status report


[CUETools log; Date: 19.12.2012 1:42:00; Version: 2.1.2a]
Pregap length 00:00:33.
[CTDB TOCID: 4ftpItpr3VuJUnVSNtazMA3EESg-] disk not present in database.
[AccurateRip ID: 00258db6-01c53a4d-e40ec710] found.
Track [ CRC ] Status
01 [e5ad0c87] (7/7) Accurately ripped
02 [dcb2781f] (8/8) Accurately ripped
03 [4ed344f5] (8/8) Accurately ripped
04 [129d167d] (8/8) Accurately ripped
05 [ed9a7555] (8/8) Accurately ripped
06 [32d1085c] (8/8) Accurately ripped
07 [9138b6f4] (8/8) Accurately ripped
08 [2974f210] (8/8) Accurately ripped
09 [e14f352b] (8/8) Accurately ripped
10 [1adbf591] (8/8) Accurately ripped
11 [8a2fbb2f] (8/8) Accurately ripped
12 [3dfbe51d] (8/8) Accurately ripped
13 [5e1ce026] (8/8) Accurately ripped
14 [c8f19eca] (8/8) Accurately ripped
15 [65d36d6c] (8/8) Accurately ripped
16 [11cbfb92] (7/7) Accurately ripped

Track Peak [ CRC32 ] [W/O NULL] [ LOG ]
– 95,6 [6D021E4C] [0DA2ED43]
01 80,0 [9D77BF00] [610F3650] CRC32
02 89,8 [39F4D3BB] [A9F35698] CRC32
03 88,4 [E288FB92] [B2B6659E] CRC32
04 68,1 [1FB7F681] [8A115B81] CRC32
05 80,9 [8503D9FA] [210C3551] CRC32
06 93,2 [47E227E4] [CF78B31D] CRC32
07 95,6 [17FCE0E8] [74835748] CRC32
08 95,6 [8B9D65DC] [45FC2C01] CRC32
09 89,3 [312F75C7] [BB29D032] CRC32
10 87,6 [756AB0D8] [6D170FCF] CRC32
11 91,7 [2CA94417] [E276F4E7] CRC32
12 93,4 [04473B46] [D49037FB] CRC32
13 72,8 [5D640C9C] [4E1F0A87] CRC32
14 84,7 [EE90172A] [D0329D6C] CRC32
15 72,6 [C121A473] [CE602630] CRC32
16 85,6 [8FB1825A] [3F718DF0] CRC32



===