Subcategories
Please register here if you want to download anything!

If domain in your address bar is different from the list below
PLEASE LEAVE THAT SITE IMMEDIATELY
❗IT'S A DANGEROUS FAKE❗



Spicy Magazines for Men! ;-)

Paul Buff & Frank Zappa - Paul Buff Presents Highlights From The PAL & Original Sound Studio Archives 1961-70 (2012) {5CD Set}

Posted By: ruskaval
Paul Buff & Frank Zappa - Paul Buff Presents Highlights From The PAL & Original Sound Studio Archives 1961-70 (2012) {5CD Set}

Paul Buff & Frank Zappa - Paul Buff Presents Highlights From The PAL & Original Sound Studio Archives 1961-70 (2012) {5CD Set}
EAC rip (secure mode) | FLAC (tracks)+CUE+LOG -> 1.56 Gb | MP3 @320 -> 878 Mb
Full Artwork @ 300 dpi (jpg) -> 90 Mb | 5% repair rar
© 1961-70, 2012 Crossfire | 9516-2
Rock / Psychedelic Rock / Experimental Rock

156 tracks (58 with Frank Zappa contributions). 40-page color booklet. Reproductions of original 45 RPM labels. Many tracks making their CD debuts. Crossfire Publications have set a May 28, 2012 release date for a 5-CD set of recordings from the pre-Mothers era, with many tracks making their CD debuts. The set is entitled "Paul Buff Presents Highlights From The Pal And Original Sound Studio Archives." Paul Buff, owner of Pal Recording Studio in Cucamonga, California from 1957-1964, first opened up his archives in 2010 for a large series of download-only releases. This 156-track collection features 58 early masters by the late Frank Zappa, recorded at Pal and Original Sound Recording Studios. These recordings feature Zappa as performer, writer and/or producer.
Paul Buff & Frank Zappa - Paul Buff Presents Highlights From The PAL & Original Sound Studio Archives 1961-70 (2012) {5CD Set}

Multi-instrumentalist Paul Buff created Pal Recording Studio in December 1957 with a simple two-track Viking recorder. The demand for stereo recording led Buff to create a homemade, five-track recording studio when the industry standard was still mono or two-track stereo recording.

Buff's studio creativity and complete openness in recording musicians of all backgrounds and styles naturally resulted in studio bookings by many local artists. Pal Recording Studio quickly became a place where musicians could record their rehearsals and repertoire and leave with high quality recordings. One of those groups of musicians was The Surfaris, who recorded "Wipe Out" at Pal in late 1962. This surf standard is the best known Pal recording.

"Paul Buff Presents Highlights From The Pal And Original Sound Studio Archives" has many in-demand rarities and unreleased tracks drawn from Paul Buff's mixdown tapes and reference discs. Original releases of the records represented in this box set literally cost hundreds of dollars apiece, reflecting the impressive historical and musical value of Crossfire's set.

Pal functioned as the recording home for Buff's record labels (Pal, Emmy, Yukon, Plaza and Vigah!) and for The Pal Studio Band, a group of musicians revolving around Paul Buff, guitarist Dave Aerni and young guitarist/drummer Frank Zappa. Buff taught Zappa the art of recording studio operation as The Pal Studio Band created a large body of work. On many occasions, this group succeeded in licensing their tracks to larger record labels. When these recordings could not find a home, in-house labels by Buff or Dave Aerni (Daytone, Ador, Daani) released them.

Emmy's releases featured three singles by The Masters, cut by Buff and guitarist Ronnie Williams. The B-side of the second Masters single, "Breaktime," featured overdubbed guitar leads by Zappa. Other early singles that spotlighted Frank Zappa were by The Penguins, The Hollywood Persuaders, The Tornadoes, Buddy And The Crickets, Ron Roman, Baby Ray And The Ferns, Brian Lord And The Midnighters, Mr. Clean, The Heartbreakers, Ned & Nelda, Bob Guy, Conrad And The Hurricane Strings, The Cordells, The Rhythm Surfers, The Woody Waggers, The Decades, and Johnny Barakat And The Vestells. Many Pal Studio Band tracks with Zappa involvement make their CD debuts in this box set, including some with original Mothers Of Invention vocalist Ray Collins.
Paul Buff & Frank Zappa - Paul Buff Presents Highlights From The PAL & Original Sound Studio Archives 1961-70 (2012) {5CD Set}

While still at Pal, Paul Buff started working with Art Laboe, owner of Original Sound Records. Laboe asked Buff to create a new recording studio for Original Sound artists, and in 1964, Paul finished creating his own ten-track recording gear. Buff was already in place as Original Sound's studio engineer when he sold Pal Recording Studio to Frank Zappa on August 1, 1964. Many Original Sound artists were engineered by Paul Buff, who had started making his own recordings at the studio the previous year.

Paul Buff's Original Sound output was credited to his own name as well as many other artists. Tracks recorded with Dave Aerni were released as by The Bongo Teens and The Rotations. One-man-band recordings issued as The Hollywood Persuaders include the well known "Tijuana" and "Drums A-Go-Go." Paul also recorded with his first wife Allison as The Catalinas, Lori Allison, The Buff Organization and with vocalist Ricky Dean. The Friendly Torpedoes featured Buff with The Music Machine's Sean Bonniwell. Nearly the entire output of the All-American label (known for Strawberry Alarm Clock's "Incense And Peppermints") was engineered by Buff, as was Sugarloaf's "Green-Eyed Lady" for Liberty.

"Paul Buff Presents Highlights From The Pal And Original Sound Studio Archives" is available in DVD-sized packaging, with a 40-page, illustrated color booklet containing detailed information about the artists and the recordings. The five CDs in the set feature reproductions of the Pal, Plaza, Yukon, Emmy and Vigah! labels.

The first 200 pre-release orders from Crossfire Publications will be accompanied by two additional CDs – The Tornadoes' "Now And Then" and "Charge Of The Tornadoes" – featuring an additional 11 tracks that Frank Zappa engineered at Pal during 1962-1963.

The drawing on the front cover of Crossfire's set is Frank Zappa's "A Day At The Beach," which Frank created in the early 1960s for his sister Patrice "Candy" Zappa. This set joins the book reissues of Candy Zappa's "My Brother Was A Mother: Take 2" and father Frank V. Zappa's "Chances: And How To Take Them."
Paul Buff & Frank Zappa - Paul Buff Presents Highlights From The PAL & Original Sound Studio Archives 1961-70 (2012) {5CD Set}


tracklist:
CD1

01. Breaktime - The Masters
02. (Ghost) Riders In The Sky - Johnny Barakat And The Vestells
03. Hurricane - Conrad And The Hurricane Strings
04. Ambrosial - Dino Dupree
05. Upside Down World (Stereo Mix) - The Buff Organization
06. The Sahara Hop - The Woody Waggers
07. Drums A-Go-Go (Stereo Mix) - The Hollywood Persuaders
08. Take It Off - The Genteels
09. Everytime I See You - The Heartbreakers
10. Big City Surfer - The Rhythm Surfers
11. Troubled Times - Sonny Wilson
12. Baja Bongos (Stereo Mix) - The Bongo Teens
13. Louie De Loop - The Decades
14. Memories Of El Monte (Stereo Mix) - The Penguins
15. Mr. Clean - Mr. Clean
16. The Truant - The Truants
17. The World’s Greatest Sinner - Baby Ray And The Ferns
18. Blind Man’s Buff - Paul Buff
19. Mr. Z’s Backyard - The Thundermugs
20. Walkin’ Out - The Pal Studio Band
21. Sunshine Girl (Stereo Mix) - The Buff Organization
22. Baja Rhythm - The Bongo Teens
23. Three Months - Bobby Ray
24. Fortune Teller - Thee Sixpence
25. Pachuko Hop - The Biscaines
26. The Phantom Strikes Back - The Decades
27. Can’t Stand Up - The Pal Studio Band
28. Cyclophony - Frank Zappa And Steve Allen

CD2
01. Dirty Ways - City Limits
02. Cause I Love You - Paul Buff
03. I’m Losing Status At The High School - The Pal Studio Band/ Allison Buff
04. T Bone - The Masters (Ronnie, Johnnie And Paul)
05. Never On Sunday (1961 Version) - The Pal Studio Band
06. Lonely Nights - Sonny Wilson
07. Menagerie - The Biscaines
08. Masked Grandma - The Pal Studio Band
09. Under The Earth - The Masters
10. Queen Of My Heart - Rene And Ray
11. Tijuana (Single Mix) - The Hollywood Persuaders
12. The Big Surfer - Brian Lord And The Midnighters
13. Hey Nelda - Ned & Nelda
14. Tell Me Yes - Johnny Fisher
15. Jessie Lee - Mr. Clean
16. Deserie - Paul Buff & Ray Collins
17. One Look - City Limits
18. Lonely Drummer - The Decades
19. Fuzz Instrumental (Stereo Mix) - The Buff Organization
20. Sunset Strip (Stereo LP Version) - The Hollywood Persuaders
21. Why Don’t You Do Me Right? (Demo) - The Pal Studio Band
22. The Cruncher - The Rotations
23. Dog Patch Creeper - The Velveteens
24. 502 (Like Getting Pinched On A 502) - The Rhythm Surfers
25. Heart Full Of Rain - Thee Sixpence
26. Mr. Waters (The Judge) - Birmingham Sunday
27. In Too Deep (Stereo Remix) - Shapes Of Sound
28. I Love How You Love Me - The Cordells
29. Workshop (All-American LP Version - Edit) - Hunger!
30. Dear Jeepers - Bob Guy

CD3
01. These Boots Are Made For Walkin’ - The Buff Organization
02. Pintor - The Pharos
03. Blue Skies - The Biscaines
04. Who Do You Love - The Tracers
05. How’s Your Bird - Baby Ray And The Ferns
06. Make You Feel Like Livin’ - Bobby Ray And The Gents
07. I Ain’t Giving Up Nothin’ - Sonny Wilson
08. Sweet Love - Conrad And The Hurricane Strings
09. Cradle Rock - The Heartbreakers
10. Little Princess - Dino Dupree
11. Slow Bird - Paul Buff
12. Toothpick Boogie (Stereo Mix) - The Masters
13. Jezebel - Johnny Barakat And The Vestells
14. Go-Go Music - The Hollywood Persuaders
15. Cookin’ Turnips - The Pal Studio Band
16. Sixteen Tons - The Masters
17. Love Of My Life - Ron Roman
18. Surfin’ Bongos (Stereo Mix) - The Bongo Teens
19. Waltz - The Pal Studio Band
20. Summer Avenue - The Buff Organization
21. Citizen Fear (Final Mono Master) - The Friendly Torpedoes
22. Grunion Run (Stereo Mix) - The Hollywood Persuaders
23. One Of The Crowd - The Tracers
24. Twisted Conversation (Single Mix) - Shapes Of Sound
25. In Relation (LP Mix) - Strawberry Sac (Aka Crystal Circus)
26. Captain Midnight - The Thundermugs
27. Where Yo Is - Fat Daddy Holmes
28. She Let Him Continue - Hunger!
29. Dance Forever More - The Decades
30. Three Guns - Frank And The Woody Waggers
31. Original Sound Tag - The Buff Organization
32. Letter From Jeepers - Bob Guy

CD4
01. Mother Nature - Father Earth - The Music Machine
02. Hombre (First Single Version) - Arty & The Supremes
03. I’m In Heaven (When You Kiss Me) - Johnny Fortune
04. My Brother - Bobby Ray And The Gents
05. Mr. Clean (Alternate Mix) - Mr. Clean
06. Rolling Blues - The Masters
07. Love Of My Life (Piano/Bass Intro) - The Pal Studio Band
08. Memories Of El Monte (Single Mix) - The Penguins
09. Hollywood A-Go-Go (Stereo Mix) - The Hollywood Persuaders
10. In The Building - Thee Sixpence
11. Chicken Rock - Fat Daddy Holmes
12. Any Way The Wind Blows - The Pal Studio Band
13. Zing Zoing - Mel Moss
14. Blue Skies (Stereo Mix) - The Bongo Teens
15. Love Of My Life (Original Version) - The Pal Studio Band
16. She’s Got A 60 Cycle Brain (Single Version) - Paul Buff
17. Sun Dog - The Pal Studio Band
18. It’s Gonna Work Out Fine - Buddy And The Crickets
19. Nothing’s Too Good For My Car (Stereo Mix) - The Friendly Torpedoes
20. Grunion Run (Single Mix) - The Hollywood Persuaders
21. Studio ‘A’ (Version 8) (Stereo Mix) - The Buff Organization With Birmingham Sunday
22. Flowers (Stereo Single Mix) - Ricky Dean
23. My Proudest Possession (Demo Version) - Sonny Wilson
24. Heavies - The Rotations
25. Steel Wheels - The Rhythm Surfers (The Pharos)
26. Cucamonga Surf - The Pal Studio Band
27. North Beach (Stereo Mix) - The Hollywood Persuaders
28. Lost Weekend - Shapes Of Sound
29. Motion Tree - The Thundermugs
30. Egocentric Solitude (LP Mix) - Birmingham Sunday
31. Things We Do (The Difference Between) - Strawberry Sac (Aka Crystal Circus)
32. Mind Machine (All-American LP Version) - Hunger!
33. WXDT Jingle (Mix 2) - The Buff Organization
34. Like Surf (Fragment) - The Rotations

CD5
01. (I Can’t Get No) Satisfaction (Stereo Mix) - The Hollywood Persuaders
02. Jezebel - Buddy And The Crickets
03. Happy Time - The Cordells
04. Straight Ahead - The Pal Studio Band
05. Surf Along With Ned & Nelda - Ned & Nelda
06. The Battle Of Jericho (Take 2) - Johnny Fortune
07. Love Of My Life (Alternate Version) - The Pal Studio Band
08. True Love - Sonny Wilson
09. Long Day’s Care - Thee Sixpence
10. Is It Love (Stereo Mix) - Shapes Of Sound
11. Sun Dog (Alternate Take) - The Pal Studio Band
12. Brother, Where Are You (Single Version - Stereo Remix) - Indescribably Delicious
13. Prevalent Visionaries (LP Mix) - Birmingham Sunday
14. The Land Of In-Between - The Buff Organization
15. Why Don’t You Do Me Right? (Alternate Demo) - The Pal Studio Band
16. Smoky Night - The Pal Studio Band
17. Fountain Of Love - The Pal Studio Band
18. Chocolate Milk - Paul Conrad (Paul Buff)
19. Sunday Blues - The Masters (Ronnie, Johnnie And Paul)
20. Rooms Of Laughter - The Thundermugs
21. Chains - The Buff Organization
22. One Degree South - Ronnie And The Casuals
23. Cruisin’ Mainstreet USA - Larry Gee
24. Grunion Run (Alternate Mono Mix) - The Hollywood Persuaders
25. I’ll Never Love Another (Stereo Single Mix) - Ricky Dean
26. Heart Full Of Rain (Stereo Mix) - Big Brother Featuring Ernie Joseph
27. Cucamonga Surf (Alternate Take) - The Pal Studio Band
28. So Long Ago (Stereo Mix) - The Friendly Torpedoes
29. E.S.P. (First Single Version - Stereo Mix) - Giant Crab
30. Extra-Terrestrial Visitations - Art Nouveaux
31. High Steppin’ - The Pal Studio Band
32. Never On Sunday (1963 Version) - The Pal Studio Band

Exact Audio Copy V0.99 prebeta 5 from 4. May 2009

EAC extraction logfile from 26. April 2013, 20:17

Various / Paul Buff Presents Highlights From The PAL and Original Sound Studio Archives (CD1)

Used drive : PLEXTOR DVDR PX-L890SA Adapter: 6 ID: 0

Read mode : Secure
Utilize accurate stream : Yes
Defeat audio cache : Yes
Make use of C2 pointers : No

Read offset correction : 6
Overread into Lead-In and Lead-Out : No
Fill up missing offset samples with silence : Yes
Delete leading and trailing silent blocks : No
Null samples used in CRC calculations : Yes
Used interface : Native Win32 interface for Win NT & 2000
Gap handling : Appended to previous track

Used output format : User Defined Encoder
Selected bitrate : 1024 kBit/s
Quality : High
Add ID3 tag : No
Command line compressor : C:\Program Files (x86)\FLAC\flac.exe
Additional command line options : -8 -V -T "ARTIST=%a" -T "TITLE=%t" -T "ALBUM=%g" -T "DATE=%y" -T "TRACKNUMBER=%n" -T "GENRE=%m" -T "COMMENT=EAC FLAC -8" %s


TOC of the extracted CD

Track | Start | Length | Start sector | End sector
––––––––––––––––––––––––––––-
1 | 0:00.00 | 2:26.05 | 0 | 10954
2 | 2:26.05 | 2:18.74 | 10955 | 21378
3 | 4:45.04 | 2:17.32 | 21379 | 31685
4 | 7:02.36 | 2:03.49 | 31686 | 40959
5 | 9:06.10 | 2:25.05 | 40960 | 51839
6 | 11:31.15 | 2:30.22 | 51840 | 63111
7 | 14:01.37 | 2:20.56 | 63112 | 73667
8 | 16:22.18 | 1:54.18 | 73668 | 82235
9 | 18:16.36 | 2:33.01 | 82236 | 93711
10 | 20:49.37 | 2:12.56 | 93712 | 103667
11 | 23:02.18 | 2:21.33 | 103668 | 114275
12 | 25:23.51 | 1:40.47 | 114276 | 121822
13 | 27:04.23 | 1:57.08 | 121823 | 130605
14 | 29:01.31 | 2:39.53 | 130606 | 142583
15 | 31:41.09 | 2:07.70 | 142584 | 152178
16 | 33:49.04 | 1:50.36 | 152179 | 160464
17 | 35:39.40 | 2:26.13 | 160465 | 171427
18 | 38:05.53 | 1:42.74 | 171428 | 179151
19 | 39:48.52 | 1:34.11 | 179152 | 186212
20 | 41:22.63 | 2:25.51 | 186213 | 197138
21 | 43:48.39 | 2:16.46 | 197139 | 207384
22 | 46:05.10 | 1:41.72 | 207385 | 215031
23 | 47:47.07 | 3:04.07 | 215032 | 228838
24 | 50:51.14 | 2:13.32 | 228839 | 238845
25 | 53:04.46 | 2:00.15 | 238846 | 247860
26 | 55:04.61 | 2:18.09 | 247861 | 258219
27 | 57:22.70 | 4:56.16 | 258220 | 280435
28 | 62:19.11 | 16:00.12 | 280436 | 352447


Track 1

Filename C:\VA - Paul Buff Presents Highlights From The PAL and Original Sound Studio Archives\CD1\01 - The Masters - Breaktime.wav

Pre-gap length 0:00:02.00

Peak level 99.8 %
Track quality 100.0 %
Test CRC 177E025B
Copy CRC 177E025B
Track not present in AccurateRip database
Copy OK

Track 2

Filename C:\VA - Paul Buff Presents Highlights From The PAL and Original Sound Studio Archives\CD1\02 - Johnny Barakat and The Vestelles - (Ghost) Riders In The Sky.wav

Peak level 99.8 %
Track quality 100.0 %
Test CRC 99F47EAC
Copy CRC 99F47EAC
Track not present in AccurateRip database
Copy OK

Track 3

Filename C:\VA - Paul Buff Presents Highlights From The PAL and Original Sound Studio Archives\CD1\03 - Conrad and The Hurricane Strings - Hurricane.wav

Peak level 99.8 %
Track quality 100.0 %
Test CRC B1008486
Copy CRC B1008486
Track not present in AccurateRip database
Copy OK

Track 4

Filename C:\VA - Paul Buff Presents Highlights From The PAL and Original Sound Studio Archives\CD1\04 - Dino Dupree - Ambrosial.wav

Peak level 99.8 %
Track quality 100.0 %
Test CRC A1C95BE6
Copy CRC A1C95BE6
Track not present in AccurateRip database
Copy OK

Track 5

Filename C:\VA - Paul Buff Presents Highlights From The PAL and Original Sound Studio Archives\CD1\05 - The Buff Organization - Upside Down World (Stereo Mix).wav

Peak level 99.8 %
Track quality 100.0 %
Test CRC 242C7D28
Copy CRC 242C7D28
Track not present in AccurateRip database
Copy OK

Track 6

Filename C:\VA - Paul Buff Presents Highlights From The PAL and Original Sound Studio Archives\CD1\06 - The Woody Waggers - The Sahara Hop.wav

Peak level 99.8 %
Track quality 100.0 %
Test CRC 4CFA42DD
Copy CRC 4CFA42DD
Track not present in AccurateRip database
Copy OK

Track 7

Filename C:\VA - Paul Buff Presents Highlights From The PAL and Original Sound Studio Archives\CD1\07 - The Hollywood Persuaders - Drums A-Go-Go (Stereo Mix).wav

Peak level 100.0 %
Track quality 100.0 %
Test CRC 451F0B62
Copy CRC 451F0B62
Track not present in AccurateRip database
Copy OK

Track 8

Filename C:\VA - Paul Buff Presents Highlights From The PAL and Original Sound Studio Archives\CD1\08 - The Genteels - Take It Off.wav

Peak level 99.8 %
Track quality 99.9 %
Test CRC 78615B6C
Copy CRC 78615B6C
Track not present in AccurateRip database
Copy OK

Track 9

Filename C:\VA - Paul Buff Presents Highlights From The PAL and Original Sound Studio Archives\CD1\09 - The Heartbreakers - Everytime I See You.wav

Peak level 99.8 %
Track quality 100.0 %
Test CRC 51F5D76B
Copy CRC 51F5D76B
Track not present in AccurateRip database
Copy OK

Track 10

Filename C:\VA - Paul Buff Presents Highlights From The PAL and Original Sound Studio Archives\CD1\10 - The Rhythm Surfers - Big City Surfer.wav

Peak level 99.8 %
Track quality 100.0 %
Test CRC E499AB37
Copy CRC E499AB37
Track not present in AccurateRip database
Copy OK

Track 11

Filename C:\VA - Paul Buff Presents Highlights From The PAL and Original Sound Studio Archives\CD1\11 - Sonny Wilson - Troubled Times.wav

Peak level 99.8 %
Track quality 99.9 %
Test CRC 648BEF52
Copy CRC 648BEF52
Track not present in AccurateRip database
Copy OK

Track 12

Filename C:\VA - Paul Buff Presents Highlights From The PAL and Original Sound Studio Archives\CD1\12 - The Bongo Teens - Baja Bongos (Stereo Mix).wav

Peak level 99.6 %
Track quality 99.8 %
Test CRC FB7F0C1C
Copy CRC FB7F0C1C
Track not present in AccurateRip database
Copy OK

Track 13

Filename C:\VA - Paul Buff Presents Highlights From The PAL and Original Sound Studio Archives\CD1\13 - The Decades - Louie De Loop.wav

Peak level 99.8 %
Track quality 100.0 %
Test CRC BDEA5F8D
Copy CRC BDEA5F8D
Track not present in AccurateRip database
Copy OK

Track 14

Filename C:\VA - Paul Buff Presents Highlights From The PAL and Original Sound Studio Archives\CD1\14 - The Penguins - Memories Of El Monte (Stereo Mix).wav

Peak level 100.0 %
Track quality 99.9 %
Test CRC FF8816A9
Copy CRC FF8816A9
Track not present in AccurateRip database
Copy OK

Track 15

Filename C:\VA - Paul Buff Presents Highlights From The PAL and Original Sound Studio Archives\CD1\15 - Mr. Clean - Mr. Clean.wav

Peak level 99.8 %
Track quality 100.0 %
Test CRC D5E5C5B4
Copy CRC D5E5C5B4
Track not present in AccurateRip database
Copy OK

Track 16

Filename C:\VA - Paul Buff Presents Highlights From The PAL and Original Sound Studio Archives\CD1\16 - The Truants - The Truant.wav

Peak level 99.8 %
Track quality 100.0 %
Test CRC 4DEF6EBB
Copy CRC 4DEF6EBB
Track not present in AccurateRip database
Copy OK

Track 17

Filename C:\VA - Paul Buff Presents Highlights From The PAL and Original Sound Studio Archives\CD1\17 - Baby Ray and The Ferns - The World's Greatest Sinner.wav

Peak level 99.8 %
Track quality 100.0 %
Test CRC 0E3A6632
Copy CRC 0E3A6632
Track not present in AccurateRip database
Copy OK

Track 18

Filename C:\VA - Paul Buff Presents Highlights From The PAL and Original Sound Studio Archives\CD1\18 - Paul Buff - Blind Man's Buff.wav

Peak level 99.8 %
Track quality 100.0 %
Test CRC 477FE73F
Copy CRC 477FE73F
Track not present in AccurateRip database
Copy OK

Track 19

Filename C:\VA - Paul Buff Presents Highlights From The PAL and Original Sound Studio Archives\CD1\19 - The Thundermugs - Mr. Z's Backyard.wav

Peak level 99.8 %
Track quality 100.0 %
Test CRC 1AFE8024
Copy CRC 1AFE8024
Track not present in AccurateRip database
Copy OK

Track 20

Filename C:\VA - Paul Buff Presents Highlights From The PAL and Original Sound Studio Archives\CD1\20 - The PAL Studio Band - Walkin' Out.wav

Peak level 99.8 %
Track quality 100.0 %
Test CRC EF904C42
Copy CRC EF904C42
Track not present in AccurateRip database
Copy OK

Track 21

Filename C:\VA - Paul Buff Presents Highlights From The PAL and Original Sound Studio Archives\CD1\21 - The Buff Organization - Sunshine Girl (Stereo Mix).wav

Peak level 99.9 %
Track quality 100.0 %
Test CRC 2F2669BD
Copy CRC 2F2669BD
Track not present in AccurateRip database
Copy OK

Track 22

Filename C:\VA - Paul Buff Presents Highlights From The PAL and Original Sound Studio Archives\CD1\22 - The Bongo Teens - Baja Rhythm.wav

Peak level 99.8 %
Track quality 99.8 %
Test CRC D7F1DE31
Copy CRC D7F1DE31
Track not present in AccurateRip database
Copy OK

Track 23

Filename C:\VA - Paul Buff Presents Highlights From The PAL and Original Sound Studio Archives\CD1\23 - Bobby Ray - Three Months.wav

Peak level 99.8 %
Track quality 100.0 %
Test CRC 9DFA4B8F
Copy CRC 9DFA4B8F
Track not present in AccurateRip database
Copy OK

Track 24

Filename C:\VA - Paul Buff Presents Highlights From The PAL and Original Sound Studio Archives\CD1\24 - Thee Sixpence - Fortune Teller.wav

Peak level 99.8 %
Track quality 100.0 %
Test CRC 7A6BB223
Copy CRC 7A6BB223
Track not present in AccurateRip database
Copy OK

Track 25

Filename C:\VA - Paul Buff Presents Highlights From The PAL and Original Sound Studio Archives\CD1\25 - The Biscaines - Pachuko Hop.wav

Peak level 99.8 %
Track quality 99.9 %
Test CRC 5F77F8BF
Copy CRC 5F77F8BF
Track not present in AccurateRip database
Copy OK

Track 26

Filename C:\VA - Paul Buff Presents Highlights From The PAL and Original Sound Studio Archives\CD1\26 - The Decades - The Phantom Strikes Back.wav

Peak level 99.8 %
Track quality 99.9 %
Test CRC 707C7F7C
Copy CRC 707C7F7C
Track not present in AccurateRip database
Copy OK

Track 27

Filename C:\VA - Paul Buff Presents Highlights From The PAL and Original Sound Studio Archives\CD1\27 - The PAL Studio Band - Can't Stand Up.wav

Peak level 99.8 %
Track quality 99.9 %
Test CRC 17DC1C1F
Copy CRC 17DC1C1F
Track not present in AccurateRip database
Copy OK

Track 28

Filename C:\VA - Paul Buff Presents Highlights From The PAL and Original Sound Studio Archives\CD1\28 - Frank Zappa and Steve Allen - Cyclophony.wav

Peak level 99.8 %
Track quality 100.0 %
Test CRC E957F782
Copy CRC E957F782
Track not present in AccurateRip database
Copy OK


None of the tracks are present in the AccurateRip database

No errors occurred

End of status report

Exact Audio Copy V0.99 prebeta 5 from 4. May 2009

EAC extraction logfile from 26. April 2013, 21:31

Various / Paul Buff Presents Highlights From The PAL and Original Sound Studio Archives (CD2)

Used drive : PLEXTOR DVDR PX-L890SA Adapter: 6 ID: 0

Read mode : Secure
Utilize accurate stream : Yes
Defeat audio cache : Yes
Make use of C2 pointers : No

Read offset correction : 6
Overread into Lead-In and Lead-Out : No
Fill up missing offset samples with silence : Yes
Delete leading and trailing silent blocks : No
Null samples used in CRC calculations : Yes
Used interface : Native Win32 interface for Win NT & 2000
Gap handling : Appended to previous track

Used output format : User Defined Encoder
Selected bitrate : 1024 kBit/s
Quality : High
Add ID3 tag : No
Command line compressor : C:\Program Files (x86)\FLAC\flac.exe
Additional command line options : -8 -V -T "ARTIST=%a" -T "TITLE=%t" -T "ALBUM=%g" -T "DATE=%y" -T "TRACKNUMBER=%n" -T "GENRE=%m" -T "COMMENT=EAC FLAC -8" %s


TOC of the extracted CD

Track | Start | Length | Start sector | End sector
––––––––––––––––––––––––––––-
1 | 0:00.00 | 2:20.65 | 0 | 10564
2 | 2:20.65 | 2:00.68 | 10565 | 19632
3 | 4:21.58 | 1:10.60 | 19633 | 24942
4 | 5:32.43 | 2:28.30 | 24943 | 36072
5 | 8:00.73 | 3:51.63 | 36073 | 53460
6 | 11:52.61 | 3:23.58 | 53461 | 68743
7 | 15:16.44 | 2:42.56 | 68744 | 80949
8 | 17:59.25 | 2:42.26 | 80950 | 93125
9 | 20:41.51 | 2:30.67 | 93126 | 104442
10 | 23:12.43 | 2:16.36 | 104443 | 114678
11 | 25:29.04 | 2:23.59 | 114679 | 125462
12 | 27:52.63 | 2:28.59 | 125463 | 136621
13 | 30:21.47 | 2:08.51 | 136622 | 146272
14 | 32:30.23 | 1:59.30 | 146273 | 155227
15 | 34:29.53 | 1:50.71 | 155228 | 163548
16 | 36:20.49 | 1:42.20 | 163549 | 171218
17 | 38:02.69 | 2:30.41 | 171219 | 182509
18 | 40:33.35 | 2:22.03 | 182510 | 193162
19 | 42:55.38 | 2:43.48 | 193163 | 205435
20 | 45:39.11 | 2:29.22 | 205436 | 216632
21 | 48:08.33 | 4:44.16 | 216633 | 237948
22 | 52:52.49 | 2:19.54 | 237949 | 248427
23 | 55:12.28 | 2:57.11 | 248428 | 261713
24 | 58:09.39 | 2:29.10 | 261714 | 272898
25 | 60:38.49 | 2:13.70 | 272899 | 282943
26 | 62:52.44 | 2:52.33 | 282944 | 295876
27 | 65:45.02 | 2:09.14 | 295877 | 305565
28 | 67:54.16 | 2:08.16 | 305566 | 315181
29 | 70:02.32 | 6:04.14 | 315182 | 342495
30 | 76:06.46 | 2:27.06 | 342496 | 353526


Track 1

Filename C:\VA - Paul Buff Presents Highlights From The PAL and Original Sound Studio Archives\CD2\01 - City Limits - Dirty Water.wav

Pre-gap length 0:00:02.00

Peak level 99.8 %
Track quality 100.0 %
Test CRC 10A7662A
Copy CRC 10A7662A
Track not present in AccurateRip database
Copy OK

Track 2

Filename C:\VA - Paul Buff Presents Highlights From The PAL and Original Sound Studio Archives\CD2\02 - Paul Buff - Cause I Love You.wav

Peak level 99.8 %
Track quality 100.0 %
Test CRC B688E145
Copy CRC B688E145
Track not present in AccurateRip database
Copy OK

Track 3

Filename C:\VA - Paul Buff Presents Highlights From The PAL and Original Sound Studio Archives\CD2\03 - The PAL Studio Band - I'm Losing Status At The High School.wav

Peak level 80.9 %
Track quality 100.0 %
Test CRC 2EB7952A
Copy CRC 2EB7952A
Track not present in AccurateRip database
Copy OK

Track 4

Filename C:\VA - Paul Buff Presents Highlights From The PAL and Original Sound Studio Archives\CD2\04 - The Masters - T-Bone.wav

Peak level 99.8 %
Track quality 99.9 %
Test CRC DA00B52C
Copy CRC DA00B52C
Track not present in AccurateRip database
Copy OK

Track 5

Filename C:\VA - Paul Buff Presents Highlights From The PAL and Original Sound Studio Archives\CD2\05 - The PAL Studio Band - Never On Sunday (1961 Version).wav

Peak level 94.4 %
Track quality 100.0 %
Test CRC C4C6A1C6
Copy CRC C4C6A1C6
Track not present in AccurateRip database
Copy OK

Track 6

Filename C:\VA - Paul Buff Presents Highlights From The PAL and Original Sound Studio Archives\CD2\06 - Sonny Wilson - Lonely Nights.wav

Peak level 99.8 %
Track quality 100.0 %
Test CRC 2CB71F74
Copy CRC 2CB71F74
Track not present in AccurateRip database
Copy OK

Track 7

Filename C:\VA - Paul Buff Presents Highlights From The PAL and Original Sound Studio Archives\CD2\07 - The Biscaines - Menagerie.wav

Peak level 99.8 %
Track quality 100.0 %
Test CRC DAD5C5C6
Copy CRC DAD5C5C6
Track not present in AccurateRip database
Copy OK

Track 8

Filename C:\VA - Paul Buff Presents Highlights From The PAL and Original Sound Studio Archives\CD2\08 - The PAL Studio Band - Masked Grandma.wav

Peak level 99.8 %
Track quality 99.9 %
Test CRC 5962BE5E
Copy CRC 5962BE5E
Track not present in AccurateRip database
Copy OK

Track 9

Filename C:\VA - Paul Buff Presents Highlights From The PAL and Original Sound Studio Archives\CD2\09 - The Masters - Under The Earth.wav

Peak level 99.8 %
Track quality 100.0 %
Test CRC 75ACD5C6
Copy CRC 75ACD5C6
Track not present in AccurateRip database
Copy OK

Track 10

Filename C:\VA - Paul Buff Presents Highlights From The PAL and Original Sound Studio Archives\CD2\10 - Rene And Ray - Queen Of My Heart.wav

Peak level 99.8 %
Track quality 99.9 %
Test CRC 49E88A8C
Copy CRC 49E88A8C
Track not present in AccurateRip database
Copy OK

Track 11

Filename C:\VA - Paul Buff Presents Highlights From The PAL and Original Sound Studio Archives\CD2\11 - The Hollywood Persuaders - Tijuana (Single Mix).wav

Peak level 99.6 %
Track quality 99.9 %
Test CRC 4D2CD00B
Copy CRC 4D2CD00B
Track not present in AccurateRip database
Copy OK

Track 12

Filename C:\VA - Paul Buff Presents Highlights From The PAL and Original Sound Studio Archives\CD2\12 - Brian Lord And The Midnighters - The Big Surfer.wav

Peak level 99.4 %
Track quality 100.0 %
Test CRC D3DC59E4
Copy CRC D3DC59E4
Track not present in AccurateRip database
Copy OK

Track 13

Filename C:\VA - Paul Buff Presents Highlights From The PAL and Original Sound Studio Archives\CD2\13 - Ned & Nelda - Hey Nelda.wav

Peak level 99.8 %
Track quality 100.0 %
Test CRC 2C026FF6
Copy CRC 2C026FF6
Track not present in AccurateRip database
Copy OK

Track 14

Filename C:\VA - Paul Buff Presents Highlights From The PAL and Original Sound Studio Archives\CD2\14 - Johnny Fisher - Tell Me Yes.wav

Peak level 99.8 %
Track quality 100.0 %
Test CRC D3740722
Copy CRC D3740722
Track not present in AccurateRip database
Copy OK

Track 15

Filename C:\VA - Paul Buff Presents Highlights From The PAL and Original Sound Studio Archives\CD2\15 - Mr. Clean - Jessie Lee.wav

Peak level 99.8 %
Track quality 100.0 %
Test CRC 66D222C4
Copy CRC 66D222C4
Track not present in AccurateRip database
Copy OK

Track 16

Filename C:\VA - Paul Buff Presents Highlights From The PAL and Original Sound Studio Archives\CD2\16 - Paul Buff & Ray Collins - Deserie.wav

Peak level 99.8 %
Track quality 99.8 %
Test CRC 34A92AF3
Copy CRC 34A92AF3
Track not present in AccurateRip database
Copy OK

Track 17

Filename C:\VA - Paul Buff Presents Highlights From The PAL and Original Sound Studio Archives\CD2\17 - City Limits - One Look.wav

Peak level 99.8 %
Track quality 100.0 %
Test CRC DF58B08C
Copy CRC DF58B08C
Track not present in AccurateRip database
Copy OK

Track 18

Filename C:\VA - Paul Buff Presents Highlights From The PAL and Original Sound Studio Archives\CD2\18 - The Decades - Lonely Drummer.wav

Peak level 99.8 %
Track quality 100.0 %
Test CRC F984E8B4
Copy CRC F984E8B4
Track not present in AccurateRip database
Copy OK

Track 19

Filename C:\VA - Paul Buff Presents Highlights From The PAL and Original Sound Studio Archives\CD2\19 - The Buff Organization - Fuzz Instrumental (Stereo Mix).wav

Peak level 99.9 %
Track quality 100.0 %
Test CRC 92C6B10C
Copy CRC 92C6B10C
Track not present in AccurateRip database
Copy OK

Track 20

Filename C:\VA - Paul Buff Presents Highlights From The PAL and Original Sound Studio Archives\CD2\20 - The Hollywood Persuaders - Sunset Strip (Stereo LP Version).wav

Peak level 99.9 %
Track quality 100.0 %
Test CRC 3BB45FEE
Copy CRC 3BB45FEE
Track not present in AccurateRip database
Copy OK

Track 21

Filename C:\VA - Paul Buff Presents Highlights From The PAL and Original Sound Studio Archives\CD2\21 - The PAL Studio Band - Why Don't You Do Me Right (Demo).wav

Peak level 99.8 %
Track quality 100.0 %
Test CRC 89C85397
Copy CRC 89C85397
Track not present in AccurateRip database
Copy OK

Track 22

Filename C:\VA - Paul Buff Presents Highlights From The PAL and Original Sound Studio Archives\CD2\22 - The Rotations - The Cruncher.wav

Peak level 99.2 %
Track quality 100.0 %
Test CRC A2E1242F
Copy CRC A2E1242F
Track not present in AccurateRip database
Copy OK

Track 23

Filename C:\VA - Paul Buff Presents Highlights From The PAL and Original Sound Studio Archives\CD2\23 - The Velveteens - Dog Patch Creeper.wav

Peak level 99.8 %
Track quality 100.0 %
Test CRC D36B98B0
Copy CRC D36B98B0
Track not present in AccurateRip database
Copy OK

Track 24

Filename C:\VA - Paul Buff Presents Highlights From The PAL and Original Sound Studio Archives\CD2\24 - The Rhythm Surfers - 502 (Like Getting Pinched On A 502).wav

Peak level 99.8 %
Track quality 100.0 %
Test CRC 82AE1F27
Copy CRC 82AE1F27
Track not present in AccurateRip database
Copy OK

Track 25

Filename C:\VA - Paul Buff Presents Highlights From The PAL and Original Sound Studio Archives\CD2\25 - The Sixpence - Heart Full Of Rain.wav

Peak level 99.8 %
Track quality 100.0 %
Test CRC 96C84A1B
Copy CRC 96C84A1B
Track not present in AccurateRip database
Copy OK

Track 26

Filename C:\VA - Paul Buff Presents Highlights From The PAL and Original Sound Studio Archives\CD2\26 - Birmingham Sunday - Mr. Waters (The Judge).wav

Peak level 100.0 %
Track quality 100.0 %
Test CRC B75AE9E3
Copy CRC B75AE9E3
Track not present in AccurateRip database
Copy OK

Track 27

Filename C:\VA - Paul Buff Presents Highlights From The PAL and Original Sound Studio Archives\CD2\27 - Shapes Of Sound - In Too Deep (Stereo Remix).wav

Peak level 100.0 %
Track quality 99.9 %
Test CRC 982917C0
Copy CRC 982917C0
Track not present in AccurateRip database
Copy OK

Track 28

Filename C:\VA - Paul Buff Presents Highlights From The PAL and Original Sound Studio Archives\CD2\28 - The Cordells - I Love How You Love Me.wav

Peak level 99.8 %
Track quality 100.0 %
Test CRC 80583C3C
Copy CRC 80583C3C
Track not present in AccurateRip database
Copy OK

Track 29

Filename C:\VA - Paul Buff Presents Highlights From The PAL and Original Sound Studio Archives\CD2\29 - Workshop (All-American LP Version - Edit).wav

Peak level 100.0 %
Track quality 100.0 %
Test CRC 285CA2B9
Copy CRC 285CA2B9
Track not present in AccurateRip database
Copy OK

Track 30

Filename C:\VA - Paul Buff Presents Highlights From The PAL and Original Sound Studio Archives\CD2\30 - Bob Guy - Dear Jeepers.wav

Peak level 97.7 %
Track quality 99.9 %
Test CRC BAE7663C
Copy CRC BAE7663C
Track not present in AccurateRip database
Copy OK


None of the tracks are present in the AccurateRip database

No errors occurred

End of status report

Exact Audio Copy V0.99 prebeta 5 from 4. May 2009

EAC extraction logfile from 26. April 2013, 22:40

Various Artists / Paul Buff Presents Highlights From The PAL and Original Sound Studio Archives (CD3)

Used drive : PLEXTOR DVDR PX-L890SA Adapter: 6 ID: 0

Read mode : Secure
Utilize accurate stream : Yes
Defeat audio cache : Yes
Make use of C2 pointers : No

Read offset correction : 6
Overread into Lead-In and Lead-Out : No
Fill up missing offset samples with silence : Yes
Delete leading and trailing silent blocks : No
Null samples used in CRC calculations : Yes
Used interface : Native Win32 interface for Win NT & 2000
Gap handling : Appended to previous track

Used output format : User Defined Encoder
Selected bitrate : 1024 kBit/s
Quality : High
Add ID3 tag : No
Command line compressor : C:\Program Files (x86)\FLAC\flac.exe
Additional command line options : -8 -V -T "ARTIST=%a" -T "TITLE=%t" -T "ALBUM=%g" -T "DATE=%y" -T "TRACKNUMBER=%n" -T "GENRE=%m" -T "COMMENT=EAC FLAC -8" %s


TOC of the extracted CD

Track | Start | Length | Start sector | End sector
––––––––––––––––––––––––––––-
1 | 0:00.00 | 2:58.17 | 0 | 13366
2 | 2:58.17 | 2:16.23 | 13367 | 23589
3 | 5:14.40 | 2:29.40 | 23590 | 34804
4 | 7:44.05 | 2:02.49 | 34805 | 44003
5 | 9:46.54 | 2:08.73 | 44004 | 53676
6 | 11:55.52 | 2:05.27 | 53677 | 63078
7 | 14:01.04 | 2:09.19 | 63079 | 72772
8 | 16:10.23 | 2:00.63 | 72773 | 81835
9 | 18:11.11 | 2:52.37 | 81836 | 94772
10 | 21:03.48 | 2:01.39 | 94773 | 103886
11 | 23:05.12 | 2:07.33 | 103887 | 113444
12 | 25:12.45 | 1:25.26 | 113445 | 119845
13 | 26:37.71 | 2:58.06 | 119846 | 133201
14 | 29:36.02 | 1:57.01 | 133202 | 141977
15 | 31:33.03 | 4:15.09 | 141978 | 161111
16 | 35:48.12 | 2:21.00 | 161112 | 171686
17 | 38:09.12 | 2:04.43 | 171687 | 181029
18 | 40:13.55 | 2:00.73 | 181030 | 190102
19 | 42:14.53 | 3:35.63 | 190103 | 206290
20 | 45:50.41 | 2:40.72 | 206291 | 218362
21 | 48:31.38 | 2:33.14 | 218363 | 229851
22 | 51:04.52 | 2:14.39 | 229852 | 239940
23 | 53:19.16 | 2:04.60 | 239941 | 249300
24 | 55:24.01 | 3:51.42 | 249301 | 266667
25 | 59:15.43 | 2:24.33 | 266668 | 277500
26 | 61:40.01 | 2:07.04 | 277501 | 287029
27 | 63:47.05 | 1:47.00 | 287030 | 295054
28 | 65:34.05 | 5:02.09 | 295055 | 317713
29 | 70:36.14 | 1:46.70 | 317714 | 325733
30 | 72:23.09 | 3:06.44 | 325734 | 339727
31 | 75:29.53 | 0:15.20 | 339728 | 340872
32 | 75:44.73 | 2:21.39 | 340873 | 351486


Track 1

Filename C:\VA - Paul Buff Presents Highlights From The PAL and Original Sound Studio Archives\CD3\01 - The Buff Organization - These Boots Are Made For Walkin'.wav

Pre-gap length 0:00:02.00

Peak level 99.8 %
Track quality 100.0 %
Test CRC D7C26FA2
Copy CRC D7C26FA2
Track not present in AccurateRip database
Copy OK

Track 2

Filename C:\VA - Paul Buff Presents Highlights From The PAL and Original Sound Studio Archives\CD3\02 - The Pharos - Pintor.wav

Peak level 99.8 %
Track quality 100.0 %
Test CRC AF03909D
Copy CRC AF03909D
Track not present in AccurateRip database
Copy OK

Track 3

Filename C:\VA - Paul Buff Presents Highlights From The PAL and Original Sound Studio Archives\CD3\03 - The Biscaines - Blue Skies.wav

Peak level 99.8 %
Track quality 100.0 %
Test CRC E32FE519
Copy CRC E32FE519
Track not present in AccurateRip database
Copy OK

Track 4

Filename C:\VA - Paul Buff Presents Highlights From The PAL and Original Sound Studio Archives\CD3\04 - The Tracers - Who Do You Love.wav

Peak level 99.8 %
Track quality 100.0 %
Test CRC 916A0943
Copy CRC 916A0943
Track not present in AccurateRip database
Copy OK

Track 5

Filename C:\VA - Paul Buff Presents Highlights From The PAL and Original Sound Studio Archives\CD3\05 - Baby Ray and The Ferns - How's Your Bird.wav

Peak level 99.8 %
Track quality 100.0 %
Test CRC 145F2480
Copy CRC 145F2480
Track not present in AccurateRip database
Copy OK

Track 6

Filename C:\VA - Paul Buff Presents Highlights From The PAL and Original Sound Studio Archives\CD3\06 - Bobby Ray And The Gents - Make You Feel Like Livin'.wav

Peak level 99.8 %
Track quality 100.0 %
Test CRC 4F988674
Copy CRC 4F988674
Track not present in AccurateRip database
Copy OK

Track 7

Filename C:\VA - Paul Buff Presents Highlights From The PAL and Original Sound Studio Archives\CD3\07 - Sonny Wilson - I Ain't Giving Up Nothin'.wav

Peak level 99.8 %
Track quality 100.0 %
Test CRC 451717CC
Copy CRC 451717CC
Track not present in AccurateRip database
Copy OK

Track 8

Filename C:\VA - Paul Buff Presents Highlights From The PAL and Original Sound Studio Archives\CD3\08 - Conrad and The Hurricane Strings - Sweet Love.wav

Peak level 99.8 %
Track quality 99.9 %
Test CRC 58029572
Copy CRC 58029572
Track not present in AccurateRip database
Copy OK

Track 9

Filename C:\VA - Paul Buff Presents Highlights From The PAL and Original Sound Studio Archives\CD3\09 - The Heartbreakers - Cradle Rock.wav

Peak level 99.8 %
Track quality 100.0 %
Test CRC 99E5EAFD
Copy CRC 99E5EAFD
Track not present in AccurateRip database
Copy OK

Track 10

Filename C:\VA - Paul Buff Presents Highlights From The PAL and Original Sound Studio Archives\CD3\10 - Dino Dupree - Little Princess.wav

Peak level 99.8 %
Track quality 99.9 %
Test CRC 0132547F
Copy CRC 0132547F
Track not present in AccurateRip database
Copy OK

Track 11

Filename C:\VA - Paul Buff Presents Highlights From The PAL and Original Sound Studio Archives\CD3\11 - Paul Buff - Slow Bird.wav

Peak level 99.8 %
Track quality 100.0 %
Test CRC B23D4F4E
Copy CRC B23D4F4E
Track not present in AccurateRip database
Copy OK

Track 12

Filename C:\VA - Paul Buff Presents Highlights From The PAL and Original Sound Studio Archives\CD3\12 - The Masters - Toothpick Boogie (Stereo Mix).wav

Peak level 100.0 %
Track quality 99.8 %
Test CRC AF0D30F6
Copy CRC AF0D30F6
Track not present in AccurateRip database
Copy OK

Track 13

Filename C:\VA - Paul Buff Presents Highlights From The PAL and Original Sound Studio Archives\CD3\13 - Johnny Barakat And The Vestells - Jezebel.wav

Peak level 99.8 %
Track quality 100.0 %
Test CRC 7A9FE12C
Copy CRC 7A9FE12C
Track not present in AccurateRip database
Copy OK

Track 14

Filename C:\VA - Paul Buff Presents Highlights From The PAL and Original Sound Studio Archives\CD3\14 - The Hollywood Persuaders - Go-Go Music.wav

Peak level 99.8 %
Track quality 100.0 %
Test CRC 7FF0DABA
Copy CRC 7FF0DABA
Track not present in AccurateRip database
Copy OK

Track 15

Filename C:\VA - Paul Buff Presents Highlights From The PAL and Original Sound Studio Archives\CD3\15 - The PAL Studio Band - Cookin' Turnips.wav

Peak level 99.8 %
Track quality 100.0 %
Test CRC 5F8C73FC
Copy CRC 5F8C73FC
Track not present in AccurateRip database
Copy OK

Track 16

Filename C:\VA - Paul Buff Presents Highlights From The PAL and Original Sound Studio Archives\CD3\16 - The Masters - Sixteen Tons.wav

Peak level 99.8 %
Track quality 100.0 %
Test CRC D6EE6F52
Copy CRC D6EE6F52
Track not present in AccurateRip database
Copy OK

Track 17

Filename C:\VA - Paul Buff Presents Highlights From The PAL and Original Sound Studio Archives\CD3\17 - Ron Roman - Love Of My Life.wav

Peak level 99.8 %
Track quality 100.0 %
Test CRC 03138DA1
Copy CRC 03138DA1
Track not present in AccurateRip database
Copy OK

Track 18

Filename C:\VA - Paul Buff Presents Highlights From The PAL and Original Sound Studio Archives\CD3\18 - The Bongo Teens - Surfin' Bongos (Stereo Mix).wav

Peak level 100.0 %
Track quality 100.0 %
Test CRC 738FE1BC
Copy CRC 738FE1BC
Track not present in AccurateRip database
Copy OK

Track 19

Filename C:\VA - Paul Buff Presents Highlights From The PAL and Original Sound Studio Archives\CD3\19 - The PAL Studio Band - Waltz.wav

Peak level 99.8 %
Track quality 99.9 %
Test CRC 4C705892
Copy CRC 4C705892
Track not present in AccurateRip database
Copy OK

Track 20

Filename C:\VA - Paul Buff Presents Highlights From The PAL and Original Sound Studio Archives\CD3\20 - The Buff Organization - Summer Avenue.wav

Peak level 100.0 %
Track quality 100.0 %
Test CRC EBDE7F09
Copy CRC EBDE7F09
Track not present in AccurateRip database
Copy OK

Track 21

Filename C:\VA - Paul Buff Presents Highlights From The PAL and Original Sound Studio Archives\CD3\21 - The Friendly Torpedoes - Citizen Fear (Final Mono Master).wav

Peak level 99.8 %
Track quality 100.0 %
Test CRC 872CEC32
Copy CRC 872CEC32
Track not present in AccurateRip database
Copy OK

Track 22

Filename C:\VA - Paul Buff Presents Highlights From The PAL and Original Sound Studio Archives\CD3\22 - The Hollywood Persuaders - Grunion Run (Stereo Mix).wav

Peak level 100.0 %
Track quality 100.0 %
Test CRC 5F0D8C4B
Copy CRC 5F0D8C4B
Track not present in AccurateRip database
Copy OK

Track 23

Filename C:\VA - Paul Buff Presents Highlights From The PAL and Original Sound Studio Archives\CD3\23 - The Tracers - One Of The Crowd.wav

Peak level 99.8 %
Track quality 100.0 %
Test CRC 98740A15
Copy CRC 98740A15
Track not present in AccurateRip database
Copy OK

Track 24

Filename C:\VA - Paul Buff Presents Highlights From The PAL and Original Sound Studio Archives\CD3\24 - Shapes Of Sound - Twisted Conversation (Single Mix).wav

Peak level 99.8 %
Track quality 100.0 %
Test CRC A109882D
Copy CRC A109882D
Track not present in AccurateRip database
Copy OK

Track 25

Filename C:\VA - Paul Buff Presents Highlights From The PAL and Original Sound Studio Archives\CD3\25 - Strawberry Sac (aka Crystal Circus) - In Relation (LP Mix).wav

Peak level 100.0 %
Track quality 99.9 %
Test CRC DA398B0F
Copy CRC DA398B0F
Track not present in AccurateRip database
Copy OK

Track 26

Filename C:\VA - Paul Buff Presents Highlights From The PAL and Original Sound Studio Archives\CD3\26 - The Thundermugs - Captain Midnight.wav

Peak level 99.8 %
Track quality 100.0 %
Test CRC 7A3ABD19
Copy CRC 7A3ABD19
Track not present in AccurateRip database
Copy OK

Track 27

Filename C:\VA - Paul Buff Presents Highlights From The PAL and Original Sound Studio Archives\CD3\27 - Fat Daddy Holmes - Where Yo Is.wav

Peak level 99.8 %
Track quality 100.0 %
Test CRC 3EE678C5
Copy CRC 3EE678C5
Track not present in AccurateRip database
Copy OK

Track 28

Filename C:\VA - Paul Buff Presents Highlights From The PAL and Original Sound Studio Archives\CD3\28 - Hunger - She Let Him Continue.wav

Peak level 99.9 %
Track quality 100.0 %
Test CRC 3B1774C0
Copy CRC 3B1774C0
Track not present in AccurateRip database
Copy OK

Track 29

Filename C:\VA - Paul Buff Presents Highlights From The PAL and Original Sound Studio Archives\CD3\29 - The Decades - Dance Forever More.wav

Peak level 99.8 %
Track quality 99.9 %
Test CRC 5DB0AE0A
Copy CRC 5DB0AE0A
Track not present in AccurateRip database
Copy OK

Track 30

Filename C:\VA - Paul Buff Presents Highlights From The PAL and Original Sound Studio Archives\CD3\30 - Frank And The Woody Waggers - Three Guns.wav

Peak level 99.8 %
Track quality 100.0 %
Test CRC 8A90A1FE
Copy CRC 8A90A1FE
Track not present in AccurateRip database
Copy OK

Track 31

Filename C:\VA - Paul Buff Presents Highlights From The PAL and Original Sound Studio Archives\CD3\31 - The Buff Organization - Original Sound Tag.wav

Peak level 99.8 %
Track quality 99.2 %
Test CRC 2769778A
Copy CRC 2769778A
Track not present in AccurateRip database
Copy OK

Track 32

Filename C:\VA - Paul Buff Presents Highlights From The PAL and Original Sound Studio Archives\CD3\32 - Bob Guy - Letter From Jeepers.wav

Peak level 99.8 %
Track quality 100.0 %
Test CRC 209ED073
Copy CRC 209ED073
Track not present in AccurateRip database
Copy OK


None of the tracks are present in the AccurateRip database

No errors occurred

End of status report

Exact Audio Copy V0.99 prebeta 5 from 4. May 2009

EAC extraction logfile from 26. April 2013, 23:48

Various / Paul Buff Presents Highlights From The PAL and Original Sound Studio Archives (CD4)

Used drive : PLEXTOR DVDR PX-L890SA Adapter: 6 ID: 0

Read mode : Secure
Utilize accurate stream : Yes
Defeat audio cache : Yes
Make use of C2 pointers : No

Read offset correction : 6
Overread into Lead-In and Lead-Out : No
Fill up missing offset samples with silence : Yes
Delete leading and trailing silent blocks : No
Null samples used in CRC calculations : Yes
Used interface : Native Win32 interface for Win NT & 2000
Gap handling : Appended to previous track

Used output format : User Defined Encoder
Selected bitrate : 1024 kBit/s
Quality : High
Add ID3 tag : No
Command line compressor : C:\Program Files (x86)\FLAC\flac.exe
Additional command line options : -8 -V -T "ARTIST=%a" -T "TITLE=%t" -T "ALBUM=%g" -T "DATE=%y" -T "TRACKNUMBER=%n" -T "GENRE=%m" -T "COMMENT=EAC FLAC -8" %s


TOC of the extracted CD

Track | Start | Length | Start sector | End sector
––––––––––––––––––––––––––––-
1 | 0:00.00 | 2:12.73 | 0 | 9972
2 | 2:12.73 | 2:34.20 | 9973 | 21542
3 | 4:47.18 | 2:22.41 | 21543 | 32233
4 | 7:09.59 | 2:37.02 | 32234 | 44010
5 | 9:46.61 | 2:04.43 | 44011 | 53353
6 | 11:51.29 | 2:30.68 | 53354 | 64671
7 | 14:22.22 | 0:04.35 | 64672 | 65006
8 | 14:26.57 | 2:41.36 | 65007 | 77117
9 | 17:08.18 | 1:58.10 | 77118 | 85977
10 | 19:06.28 | 2:58.21 | 85978 | 99348
11 | 22:04.49 | 1:57.61 | 99349 | 108184
12 | 24:02.35 | 2:21.08 | 108185 | 118767
13 | 26:23.43 | 2:01.04 | 118768 | 127846
14 | 28:24.47 | 2:05.28 | 127847 | 137249
15 | 30:30.00 | 2:14.00 | 137250 | 147299
16 | 32:44.00 | 2:09.29 | 147300 | 157003
17 | 34:53.29 | 2:39.68 | 157004 | 168996
18 | 37:33.22 | 2:27.44 | 168997 | 180065
19 | 40:00.66 | 2:40.59 | 180066 | 192124
20 | 42:41.50 | 2:23.08 | 192125 | 202857
21 | 45:04.58 | 2:34.74 | 202858 | 214481
22 | 47:39.57 | 2:36.61 | 214482 | 226242
23 | 50:16.43 | 2:59.36 | 226243 | 239703
24 | 53:16.04 | 1:46.09 | 239704 | 247662
25 | 55:02.13 | 2:45.59 | 247663 | 260096
26 | 57:47.72 | 2:25.14 | 260097 | 270985
27 | 60:13.11 | 2:16.39 | 270986 | 281224
28 | 62:29.50 | 2:40.58 | 281225 | 293282
29 | 65:10.33 | 2:44.04 | 293283 | 305586
30 | 67:54.37 | 3:18.37 | 305587 | 320473
31 | 71:12.74 | 2:28.54 | 320474 | 331627
32 | 73:41.53 | 4:02.58 | 331628 | 349835
33 | 77:44.36 | 0:26.18 | 349836 | 351803
34 | 78:10.54 | 0:15.17 | 351804 | 352945


Track 1

Filename C:\VA - Paul Buff Presents Highlights From The PAL and Original Sound Studio Archives\CD4\01 - Mother Nature - Father Earth.wav

Pre-gap length 0:00:02.00

Peak level 99.8 %
Track quality 100.0 %
Test CRC 4DC60909
Copy CRC 4DC60909
Track not present in AccurateRip database
Copy OK

Track 2

Filename C:\VA - Paul Buff Presents Highlights From The PAL and Original Sound Studio Archives\CD4\02 - Arty & The Supremes - Hombre (First Single Version).wav

Peak level 99.8 %
Track quality 100.0 %
Test CRC 16109690
Copy CRC 16109690
Track not present in AccurateRip database
Copy OK

Track 3

Filename C:\VA - Paul Buff Presents Highlights From The PAL and Original Sound Studio Archives\CD4\03 - Johnny Fortune - I'm In Heaven (When You Kiss Me).wav

Peak level 99.8 %
Track quality 100.0 %
Test CRC 27E36ADF
Copy CRC 27E36ADF
Track not present in AccurateRip database
Copy OK

Track 4

Filename C:\VA - Paul Buff Presents Highlights From The PAL and Original Sound Studio Archives\CD4\04 - Bobby Ray And The Gents - My Brother.wav

Peak level 99.8 %
Track quality 100.0 %
Test CRC E142A939
Copy CRC E142A939
Track not present in AccurateRip database
Copy OK

Track 5

Filename C:\VA - Paul Buff Presents Highlights From The PAL and Original Sound Studio Archives\CD4\05 - Mr. Clean - Mr. Clean (Alternate Mix).wav

Peak level 99.5 %
Track quality 100.0 %
Test CRC A43071E0
Copy CRC A43071E0
Track not present in AccurateRip database
Copy OK

Track 6

Filename C:\VA - Paul Buff Presents Highlights From The PAL and Original Sound Studio Archives\CD4\06 - The Masters - Rolling Blues.wav

Peak level 99.8 %
Track quality 100.0 %
Test CRC 5C8C91EA
Copy CRC 5C8C91EA
Track not present in AccurateRip database
Copy OK

Track 7

Filename C:\VA - Paul Buff Presents Highlights From The PAL and Original Sound Studio Archives\CD4\07 - The PAL Studio Band - Love Of My Life (Piano & Base Intro).wav

Peak level 99.9 %
Track quality 100.0 %
Test CRC CFAD8BAE
Copy CRC CFAD8BAE
Track not present in AccurateRip database
Copy OK

Track 8

Filename C:\VA - Paul Buff Presents Highlights From The PAL and Original Sound Studio Archives\CD4\08 - The Penguins - Memories Of El Monte (Single Mix).wav

Peak level 85.5 %
Track quality 100.0 %
Test CRC 3B065F38
Copy CRC 3B065F38
Track not present in AccurateRip database
Copy OK

Track 9

Filename C:\VA - Paul Buff Presents Highlights From The PAL and Original Sound Studio Archives\CD4\09 - The Hollywood Persuaders - Hollywood A-Go-Go.wav

Peak level 100.0 %
Track quality 100.0 %
Test CRC 70FCE7F8
Copy CRC 70FCE7F8
Track not present in AccurateRip database
Copy OK

Track 10

Filename C:\VA - Paul Buff Presents Highlights From The PAL and Original Sound Studio Archives\CD4\10 - The Sixpence - In The Building.wav

Peak level 99.8 %
Track quality 100.0 %
Test CRC 75A0D554
Copy CRC 75A0D554
Track not present in AccurateRip database
Copy OK

Track 11

Filename C:\VA - Paul Buff Presents Highlights From The PAL and Original Sound Studio Archives\CD4\11 - Fat Daddy Holmes - Chicken Rock.wav

Peak level 99.8 %
Track quality 100.0 %
Test CRC 81CE8D67
Copy CRC 81CE8D67
Track not present in AccurateRip database
Copy OK

Track 12

Filename C:\VA - Paul Buff Presents Highlights From The PAL and Original Sound Studio Archives\CD4\12 - The PAL Studio Band - Any Way The Wind Blows.wav

Peak level 99.8 %
Track quality 99.9 %
Test CRC 0B31C917
Copy CRC 0B31C917
Track not present in AccurateRip database
Copy OK

Track 13

Filename C:\VA - Paul Buff Presents Highlights From The PAL and Original Sound Studio Archives\CD4\13 - Mel Moss - Zing Zoing.wav

Peak level 96.2 %
Track quality 100.0 %
Test CRC CF7BCC6A
Copy CRC CF7BCC6A
Track not present in AccurateRip database
Copy OK

Track 14

Filename C:\VA - Paul Buff Presents Highlights From The PAL and Original Sound Studio Archives\CD4\14 - The Bongo Teens - Blue Skies (Stereo Mix).wav

Peak level 100.0 %
Track quality 100.0 %
Test CRC 7C7A6DF3
Copy CRC 7C7A6DF3
Track not present in AccurateRip database
Copy OK

Track 15

Filename C:\VA - Paul Buff Presents Highlights From The PAL and Original Sound Studio Archives\CD4\15 - The PAL Studio Band - Love Of My Life (Original version).wav

Peak level 99.8 %
Track quality 100.0 %
Test CRC 5A6E011A
Copy CRC 5A6E011A
Track not present in AccurateRip database
Copy OK

Track 16

Filename C:\VA - Paul Buff Presents Highlights From The PAL and Original Sound Studio Archives\CD4\16 - Paul Buff - She's Got A 60 Cycle Brain (Single Version).wav

Peak level 99.8 %
Track quality 100.0 %
Test CRC 6E50B33A
Copy CRC 6E50B33A
Track not present in AccurateRip database
Copy OK

Track 17

Filename C:\VA - Paul Buff Presents Highlights From The PAL and Original Sound Studio Archives\CD4\17 - The PAL Studio Band - Sun Dog.wav

Peak level 99.8 %
Track quality 100.0 %
Test CRC E3783DD2
Copy CRC E3783DD2
Track not present in AccurateRip database
Copy OK

Track 18

Filename C:\VA - Paul Buff Presents Highlights From The PAL and Original Sound Studio Archives\CD4\18 - Buddy And The Crickets - It's Gonna Work Out Fine.wav

Peak level 99.5 %
Track quality 100.0 %
Test CRC 3CE4033C
Copy CRC 3CE4033C
Track not present in AccurateRip database
Copy OK

Track 19

Filename C:\VA - Paul Buff Presents Highlights From The PAL and Original Sound Studio Archives\CD4\19 - The Friendly Torpedoes - Nothing's Too Good For My Car (Stereo Mix).wav

Peak level 99.9 %
Track quality 100.0 %
Test CRC C73315C3
Copy CRC C73315C3
Track not present in AccurateRip database
Copy OK

Track 20

Filename C:\VA - Paul Buff Presents Highlights From The PAL and Original Sound Studio Archives\CD4\20 - The Hollywood Persuaders - Grunion Run (Single Mix).wav

Peak level 99.5 %
Track quality 99.9 %
Test CRC 69EF8971
Copy CRC 69EF8971
Track not present in AccurateRip database
Copy OK

Track 21

Filename C:\VA - Paul Buff Presents Highlights From The PAL and Original Sound Studio Archives\CD4\21 - The Buff Organization With Birmingham Sunday - Studio 'A' (Version B).wav

Peak level 100.0 %
Track quality 100.0 %
Test CRC 8E60CB11
Copy CRC 8E60CB11
Track not present in AccurateRip database
Copy OK

Track 22

Filename C:\VA - Paul Buff Presents Highlights From The PAL and Original Sound Studio Archives\CD4\22 - Ricky Dean - Flowers (Stereo Single Mix).wav

Peak level 100.0 %
Track quality 100.0 %
Test CRC AF4D6F54
Copy CRC AF4D6F54
Track not present in AccurateRip database
Copy OK

Track 23

Filename C:\VA - Paul Buff Presents Highlights From The PAL and Original Sound Studio Archives\CD4\23 - Sonny Wilson - My Proudest Posession (Demo Version).wav

Peak level 98.6 %
Track quality 100.0 %
Test CRC 4D9A219B
Copy CRC 4D9A219B
Track not present in AccurateRip database
Copy OK

Track 24

Filename C:\VA - Paul Buff Presents Highlights From The PAL and Original Sound Studio Archives\CD4\24 - The Rotations - Heavies.wav

Peak level 97.5 %
Track quality 100.0 %
Test CRC 00956D6B
Copy CRC 00956D6B
Track not present in AccurateRip database
Copy OK

Track 25

Filename C:\VA - Paul Buff Presents Highlights From The PAL and Original Sound Studio Archives\CD4\25 - The Rhythm Surfers (The Pharos) - Steel Wheels.wav

Peak level 99.8 %
Track quality 100.0 %
Test CRC C64D41E2
Copy CRC C64D41E2
Track not present in AccurateRip database
Copy OK

Track 26

Filename C:\VA - Paul Buff Presents Highlights From The PAL and Original Sound Studio Archives\CD4\26 - The PAL Studio Band - Cucamonga Surf.wav

Peak level 99.8 %
Track quality 100.0 %
Test CRC EF79B656
Copy CRC EF79B656
Track not present in AccurateRip database
Copy OK

Track 27

Filename C:\VA - Paul Buff Presents Highlights From The PAL and Original Sound Studio Archives\CD4\27 - The Hollywood Persuaders - North Beach (Stereo Mix).wav

Peak level 100.0 %
Track quality 100.0 %
Test CRC 132462FC
Copy CRC 132462FC
Track not present in AccurateRip database
Copy OK

Track 28

Filename C:\VA - Paul Buff Presents Highlights From The PAL and Original Sound Studio Archives\CD4\28 - Shapes Of Sound - Lost Weekend.wav

Peak level 99.6 %
Track quality 100.0 %
Test CRC 25F7E48F
Copy CRC 25F7E48F
Track not present in AccurateRip database
Copy OK

Track 29

Filename C:\VA - Paul Buff Presents Highlights From The PAL and Original Sound Studio Archives\CD4\29 - The Thundermugs - Motion Tree.wav

Peak level 99.5 %
Track quality 99.9 %
Test CRC 31B75098
Copy CRC 31B75098
Track not present in AccurateRip database
Copy OK

Track 30

Filename C:\VA - Paul Buff Presents Highlights From The PAL and Original Sound Studio Archives\CD4\30 - Birmingham Sunday - Egocentric Solitude (LP Mix).wav

Peak level 100.0 %
Track quality 100.0 %
Test CRC 405C837E
Copy CRC 405C837E
Track not present in AccurateRip database
Copy OK

Track 31

Filename C:\VA - Paul Buff Presents Highlights From The PAL and Original Sound Studio Archives\CD4\31 - Strawberry Sac (aka Crystal Circus) - Things We Do (The Difference Between).wav

Peak level 99.9 %
Track quality 100.0 %
Test CRC 07A0DBB1
Copy CRC 07A0DBB1
Track not present in AccurateRip database
Copy OK

Track 32

Filename C:\VA - Paul Buff Presents Highlights From The PAL and Original Sound Studio Archives\CD4\32 - Hunger - Mind Machine (All-American LP Version).wav

Peak level 99.9 %
Track quality 100.0 %
Test CRC F60B0BB5
Copy CRC F60B0BB5
Track not present in AccurateRip database
Copy OK

Track 33

Filename C:\VA - Paul Buff Presents Highlights From The PAL and Original Sound Studio Archives\CD4\33 - The Buff Organization - WXDT Jingle (Mix 2).wav

Peak level 99.8 %
Track quality 99.5 %
Test CRC 2C4F123C
Copy CRC 2C4F123C
Track not present in AccurateRip database
Copy OK

Track 34

Filename C:\VA - Paul Buff Presents Highlights From The PAL and Original Sound Studio Archives\CD4\34 - The Rotations - Like Surf (Fragment).wav

Peak level 99.8 %
Track quality 100.0 %
Test CRC 49AE8B9A
Copy CRC 49AE8B9A
Track not present in AccurateRip database
Copy OK


None of the tracks are present in the AccurateRip database

No errors occurred

End of status report

Exact Audio Copy V0.99 prebeta 5 from 4. May 2009

EAC extraction logfile from 27. April 2013, 1:18

Various / Paul Buff Presents Highlights From The PAL and Original Sound Studio Archives (CD5)

Used drive : PLEXTOR DVDR PX-L890SA Adapter: 6 ID: 0

Read mode : Secure
Utilize accurate stream : Yes
Defeat audio cache : Yes
Make use of C2 pointers : No

Read offset correction : 6
Overread into Lead-In and Lead-Out : No
Fill up missing offset samples with silence : Yes
Delete leading and trailing silent blocks : No
Null samples used in CRC calculations : Yes
Used interface : Native Win32 interface for Win NT & 2000
Gap handling : Appended to previous track

Used output format : User Defined Encoder
Selected bitrate : 1024 kBit/s
Quality : High
Add ID3 tag : No
Command line compressor : C:\Program Files (x86)\FLAC\flac.exe
Additional command line options : -8 -V -T "ARTIST=%a" -T "TITLE=%t" -T "ALBUM=%g" -T "DATE=%y" -T "TRACKNUMBER=%n" -T "GENRE=%m" -T "COMMENT=EAC FLAC -8" %s


TOC of the extracted CD

Track | Start | Length | Start sector | End sector
––––––––––––––––––––––––––––-
1 | 0:00.00 | 2:07.09 | 0 | 9533
2 | 2:07.09 | 2:06.33 | 9534 | 19016
3 | 4:13.42 | 2:25.43 | 19017 | 29934
4 | 6:39.10 | 1:59.68 | 29935 | 38927
5 | 8:39.03 | 2:05.59 | 38928 | 48361
6 | 10:44.62 | 2:29.30 | 48362 | 59566
7 | 13:14.17 | 2:07.22 | 59567 | 69113
8 | 15:21.39 | 1:57.28 | 69114 | 77916
9 | 17:18.67 | 2:01.04 | 77917 | 86995
10 | 19:19.71 | 2:44.41 | 86996 | 99336
11 | 22:04.37 | 2:37.21 | 99337 | 111132
12 | 24:41.58 | 2:44.16 | 111133 | 123448
13 | 27:25.74 | 2:49.11 | 123449 | 136134
14 | 30:15.10 | 2:33.05 | 136135 | 147614
15 | 32:48.15 | 5:01.29 | 147615 | 170218
16 | 37:49.44 | 2:03.06 | 170219 | 179449
17 | 39:52.50 | 2:19.26 | 179450 | 189900
18 | 42:12.01 | 2:23.23 | 189901 | 200648
19 | 44:35.24 | 3:05.08 | 200649 | 214531
20 | 47:40.32 | 2:27.16 | 214532 | 225572
21 | 50:07.48 | 2:08.27 | 225573 | 235199
22 | 52:16.00 | 2:26.22 | 235200 | 246171
23 | 54:42.22 | 2:35.54 | 246172 | 257850
24 | 57:18.01 | 2:14.39 | 257851 | 267939
25 | 59:32.40 | 1:51.12 | 267940 | 276276
26 | 61:23.52 | 3:28.31 | 276277 | 291907
27 | 64:52.08 | 2:12.73 | 291908 | 301880
28 | 67:05.06 | 2:54.59 | 301881 | 314989
29 | 69:59.65 | 2:21.69 | 314990 | 325633
30 | 72:21.59 | 2:53.67 | 325634 | 338675
31 | 75:15.51 | 1:19.61 | 338676 | 344661
32 | 76:35.37 | 1:52.20 | 344662 | 353081


Track 1

Filename C:\VA - Paul Buff Presents Highlights From The PAL and Original Sound Studio Archives\CD5\01 - The Hollywood Persuaders - (I Can't Get No) Satisfaction (Stereo Mix).wav

Pre-gap length 0:00:02.00

Peak level 100.0 %
Track quality 100.0 %
Test CRC 11F889F3
Copy CRC 11F889F3
Track not present in AccurateRip database
Copy OK

Track 2

Filename C:\VA - Paul Buff Presents Highlights From The PAL and Original Sound Studio Archives\CD5\02 - Buddy And The Crickets - Jezebel.wav

Peak level 99.7 %
Track quality 100.0 %
Test CRC 1019E3F2
Copy CRC 1019E3F2
Track not present in AccurateRip database
Copy OK

Track 3

Filename C:\VA - Paul Buff Presents Highlights From The PAL and Original Sound Studio Archives\CD5\03 - The Cordells - Happy Time.wav

Peak level 99.8 %
Track quality 100.0 %
Test CRC E6406F1F
Copy CRC E6406F1F
Track not present in AccurateRip database
Copy OK

Track 4

Filename C:\VA - Paul Buff Presents Highlights From The PAL and Original Sound Studio Archives\CD5\04 - The PAL Studio Band - Straight Ahead.wav

Peak level 99.8 %
Track quality 100.0 %
Test CRC 4A7BF042
Copy CRC 4A7BF042
Track not present in AccurateRip database
Copy OK

Track 5

Filename C:\VA - Paul Buff Presents Highlights From The PAL and Original Sound Studio Archives\CD5\05 - Ned & Nelda - Surf Along With Ned & Nelda.wav

Peak level 99.8 %
Track quality 100.0 %
Test CRC 79D9A9AB
Copy CRC 79D9A9AB
Track not present in AccurateRip database
Copy OK

Track 6

Filename C:\VA - Paul Buff Presents Highlights From The PAL and Original Sound Studio Archives\CD5\06 - Johnny Fortune - The Battle Of Jericho (Take 2).wav

Peak level 99.5 %
Track quality 99.9 %
Test CRC B5718DD2
Copy CRC B5718DD2
Track not present in AccurateRip database
Copy OK

Track 7

Filename C:\VA - Paul Buff Presents Highlights From The PAL and Original Sound Studio Archives\CD5\07 - The PAL Studio Band - Love Of My Life (Alternate Version).wav

Peak level 99.8 %
Track quality 100.0 %
Test CRC 628E4674
Copy CRC 628E4674
Track not present in AccurateRip database
Copy OK

Track 8

Filename C:\VA - Paul Buff Presents Highlights From The PAL and Original Sound Studio Archives\CD5\08 - Sonny Wilson - True Love.wav

Peak level 99.8 %
Track quality 100.0 %
Test CRC 2E9CDABF
Copy CRC 2E9CDABF
Track not present in AccurateRip database
Copy OK

Track 9

Filename C:\VA - Paul Buff Presents Highlights From The PAL and Original Sound Studio Archives\CD5\09 - Thee Sixpence - Long Day's Care.wav

Peak level 99.8 %
Track quality 100.0 %
Test CRC D480BA9B
Copy CRC D480BA9B
Track not present in AccurateRip database
Copy OK

Track 10

Filename C:\VA - Paul Buff Presents Highlights From The PAL and Original Sound Studio Archives\CD5\10 - Shapes Of Sound - Is It Love (Stereo Mix).wav

Peak level 100.0 %
Track quality 100.0 %
Test CRC 816DD989
Copy CRC 816DD989
Track not present in AccurateRip database
Copy OK

Track 11

Filename C:\VA - Paul Buff Presents Highlights From The PAL and Original Sound Studio Archives\CD5\11 - The PAL Studio Band - Sun Dog (Alternate Take).wav

Peak level 99.8 %
Track quality 100.0 %
Test CRC 04D9E43B
Copy CRC 04D9E43B
Track not present in AccurateRip database
Copy OK

Track 12

Filename C:\VA - Paul Buff Presents Highlights From The PAL and Original Sound Studio Archives\CD5\12 - Brother, Where Are You (Single Version - Stereo Remix).wav

Peak level 99.9 %
Track quality 100.0 %
Test CRC 125FF46B
Copy CRC 125FF46B
Track not present in AccurateRip database
Copy OK

Track 13

Filename C:\VA - Paul Buff Presents Highlights From The PAL and Original Sound Studio Archives\CD5\13 - Birmingham Sunday - Prevalent Visionaries.wav

Peak level 100.0 %
Track quality 100.0 %
Test CRC 8B0E8D65
Copy CRC 8B0E8D65
Track not present in AccurateRip database
Copy OK

Track 14

Filename C:\VA - Paul Buff Presents Highlights From The PAL and Original Sound Studio Archives\CD5\14 - The Buff Organization - The Land Of In-Between.wav

Peak level 100.0 %
Track quality 99.9 %
Test CRC 578A1035
Copy CRC 578A1035
Track not present in AccurateRip database
Copy OK

Track 15

Filename C:\VA - Paul Buff Presents Highlights From The PAL and Original Sound Studio Archives\CD5\15 - The PAL Studio Band - Why Don't You Do Me Right (Altrnate Demo).wav

Peak level 99.7 %
Track quality 100.0 %
Test CRC F11E66A0
Copy CRC F11E66A0
Track not present in AccurateRip database
Copy OK

Track 16

Filename C:\VA - Paul Buff Presents Highlights From The PAL and Original Sound Studio Archives\CD5\16 - The PAL Studio Band - Smoky Night.wav

Peak level 99.8 %
Track quality 100.0 %
Test CRC 977FF0B5
Copy CRC 977FF0B5
Track not present in AccurateRip database
Copy OK

Track 17

Filename C:\VA - Paul Buff Presents Highlights From The PAL and Original Sound Studio Archives\CD5\17 - The PAL Studio Band - Fountain Of Love.wav

Peak level 99.8 %
Track quality 100.0 %
Test CRC 2D148299
Copy CRC 2D148299
Track not present in AccurateRip database
Copy OK

Track 18

Filename C:\VA - Paul Buff Presents Highlights From The PAL and Original Sound Studio Archives\CD5\18 - Paul Conrad (Paul Buff) - Chocolate Milk.wav

Peak level 99.8 %
Track quality 100.0 %
Test CRC 26E55BF3
Copy CRC 26E55BF3
Track not present in AccurateRip database
Copy OK

Track 19

Filename C:\VA - Paul Buff Presents Highlights From The PAL and Original Sound Studio Archives\CD5\19 - The Masters - Sunday Blues.wav

Peak level 99.8 %
Track quality 100.0 %
Test CRC 66B2A07D
Copy CRC 66B2A07D
Track not present in AccurateRip database
Copy OK

Track 20

Filename C:\VA - Paul Buff Presents Highlights From The PAL and Original Sound Studio Archives\CD5\20 - The Thundermugs - Rooms Of Laughter.wav

Peak level 99.8 %
Track quality 100.0 %
Test CRC CE5C0EC3
Copy CRC CE5C0EC3
Track not present in AccurateRip database
Copy OK

Track 21

Filename C:\VA - Paul Buff Presents Highlights From The PAL and Original Sound Studio Archives\CD5\21 - The Buff Organization - Chains.wav

Peak level 99.9 %
Track quality 100.0 %
Test CRC 0B5D21FA
Copy CRC 0B5D21FA
Track not present in AccurateRip database
Copy OK

Track 22

Filename C:\VA - Paul Buff Presents Highlights From The PAL and Original Sound Studio Archives\CD5\22 - Ronnie And The Casuals - One Degree South.wav

Peak level 99.8 %
Track quality 100.0 %
Test CRC 72298A11
Copy CRC 72298A11
Track not present in AccurateRip database
Copy OK

Track 23

Filename C:\VA - Paul Buff Presents Highlights From The PAL and Original Sound Studio Archives\CD5\23 - Larry Gee - Crusin' Mainstreet USA.wav

Peak level 99.8 %
Track quality 99.9 %
Test CRC 948D444C
Copy CRC 948D444C
Track not present in AccurateRip database
Copy OK

Track 24

Filename C:\VA - Paul Buff Presents Highlights From The PAL and Original Sound Studio Archives\CD5\24 - The Hollywood Persuaders - Grunion Run (Alternate Mono Mix).wav

Peak level 99.8 %
Track quality 100.0 %
Test CRC 09AB968C
Copy CRC 09AB968C
Track not present in AccurateRip database
Copy OK

Track 25

Filename C:\VA - Paul Buff Presents Highlights From The PAL and Original Sound Studio Archives\CD5\25 - Ricky Dean - I'll Never Love Another (Stereo Single Mix).wav

Peak level 100.0 %
Track quality 100.0 %
Test CRC 9CD2EF1D
Copy CRC 9CD2EF1D
Track not present in AccurateRip database
Copy OK

Track 26

Filename C:\VA - Paul Buff Presents Highlights From The PAL and Original Sound Studio Archives\CD5\26 - Big Brother Featuring Ernie Joseph - Heart Full Of Rain (Stereo Mix).wav

Peak level 100.0 %
Track quality 100.0 %
Test CRC D8350232
Copy CRC D8350232
Track not present in AccurateRip database
Copy OK

Track 27

Filename C:\VA - Paul Buff Presents Highlights From The PAL and Original Sound Studio Archives\CD5\27 - The PAL Studio Band - Cucamonga Surf (Alternate Take).wav

Peak level 99.8 %
Track quality 100.0 %
Test CRC 5E1D0A33
Copy CRC 5E1D0A33
Track not present in AccurateRip database
Copy OK

Track 28

Filename C:\VA - Paul Buff Presents Highlights From The PAL and Original Sound Studio Archives\CD5\28 - The Friendly Torpedoes - So Long Ago (Stereo Mix).wav

Peak level 100.0 %
Track quality 100.0 %
Test CRC 50E43257
Copy CRC 50E43257
Track not present in AccurateRip database
Copy OK

Track 29

Filename C:\VA - Paul Buff Presents Highlights From The PAL and Original Sound Studio Archives\CD5\29 - E.S.P. (First Single Version - Stereo Remix).wav

Peak level 100.0 %
Track quality 100.0 %
Test CRC 9A256B1A
Copy CRC 9A256B1A
Track not present in AccurateRip database
Copy OK

Track 30

Filename C:\VA - Paul Buff Presents Highlights From The PAL and Original Sound Studio Archives\CD5\30 - Art Nouveaux - Extra-Terrestrial Visitations.wav

Peak level 99.8 %
Track quality 100.0 %
Test CRC C4E8FC54
Copy CRC C4E8FC54
Track not present in AccurateRip database
Copy OK

Track 31

Filename C:\VA - Paul Buff Presents Highlights From The PAL and Original Sound Studio Archives\CD5\31 - The PAL Studio Band - High Steppin'.wav

Peak level 99.8 %
Track quality 100.0 %
Test CRC 1D64FF67
Copy CRC 1D64FF67
Track not present in AccurateRip database
Copy OK

Track 32

Filename C:\VA - Paul Buff Presents Highlights From The PAL and Original Sound Studio Archives\CD5\32 - The PAL Studio Band - Never On Sunday (1963 Version).wav

Peak level 99.8 %
Track quality 100.0 %
Test CRC B9B4C21B
Copy CRC B9B4C21B
Track not present in AccurateRip database
Copy OK


None of the tracks are present in the AccurateRip database

No errors occurred

End of status report


Paul Buff & Frank Zappa - Paul Buff Presents Highlights From The PAL & Original Sound Studio Archives 1961-70 (2012) {5CD Set}



===