Subcategories

Bud Powell - Live at the Blue Note Cafe, Paris 1961 (2007) {ESP-Disk' ESP4036}

Posted By: ruskaval
Bud Powell - Live at the Blue Note Cafe, Paris 1961 (2007) {ESP-Disk' ESP4036}

Bud Powell - Live at the Blue Note Cafe, Paris 1961 (2007) {ESP-Disk' ESP4036}
EAC rip (secure mode) | FLAC (tracks)+CUE+LOG -> 490 Mb | MP3 @320 -> 166 Mb
Full Artwork @ 300 dpi (jpg) -> 35 Mb | 5% repair rar
© 1961, 2007 ESP-Disk' | ESP 4036
Jazz / Bop / Piano

After bop pianist Bud Powell died in 1966, ESP-Disk Records kept his name alive with a series of archival live recordings curated from the personal collection of his wife, Buttercup Powell. Unlike their higher-profile Billie Holiday and Charlie Parker series, which were of unfortunately varying (and quite often very low) quality, the Bud Powell sessions are uniformly fine, with the excellent Blue Note Café Paris 1961 a particular standout.

Working in a trio format with local bassist Pierre Michelot and former Modern Jazz Quartet drummer Kenny Clarke, Powell stretches out on a set that's half evergreen standards (including a rollicking "There Will Never Be Another You") and half songs written or co-written by his friend and mentor Thelonious Monk. Although Powell's performances during this period were occasionally erratic owing to his sometimes precarious mental state, the pianist sounds relaxed and even playful on these eight tracks, investing his solos on Monk showcases like "'Round Midnight" with a lightness of touch that matches Clarke's fleet, flashy drumming. It's not one of Powell's most essential recordings, but Blue Note Café Paris 1961 shows the pianist in a comfortable setting in front of an appreciative crowd.

PERSONNEL:

BUD POWELL, piano
PIERRE MICHELOT, bass
KENNY CLARKE, drums
ZOOT SIMS, tenor sax on track 1-3

TRACKS:

01 Groovin’ High
02 Taking a Chance on Love
03 Bud’s Blues / 52nd Street Theme
04 There Will Never Be Another You
05 Thelonious
06 Round Midnight
07 Night in Tunisia
08 Monk’s Mood
09 Shawnuff
10 Lover Man
11 52nd Street Theme

Exact Audio Copy V0.99 prebeta 5 from 4. May 2009

EAC extraction logfile from 21. December 2009, 0:19

Bud Powell / Live at the Blue Note Cafe, Paris 1961

Used drive : HL-DT-STDVDRAM GSA-4084N Adapter: 0 ID: 0

Read mode : Secure
Utilize accurate stream : Yes
Defeat audio cache : Yes
Make use of C2 pointers : No

Read offset correction : 667
Overread into Lead-In and Lead-Out : No
Fill up missing offset samples with silence : Yes
Delete leading and trailing silent blocks : No
Null samples used in CRC calculations : Yes
Used interface : Installed external ASPI interface
Gap handling : Appended to previous track

Used output format : User Defined Encoder
Selected bitrate : 128 kBit/s
Quality : High
Add ID3 tag : No
Command line compressor : C:\Program Files\FLAC\flac.exe
Additional command line options : -8 -V -T "ARTIST=%a" -T "TITLE=%t" -T "ALBUM=%g" -T "DATE=%y" -T "TRACKNUMBER=%n" -T "GENRE=%m" -T "COMMENT=EAC v0.99 pb5, FLAC -8" %s


TOC of the extracted CD

Track | Start | Length | Start sector | End sector
––––––––––––––––––––––––––––-
1 | 0:00.00 | 12:33.42 | 0 | 56516
2 | 12:33.42 | 9:52.01 | 56517 | 100917
3 | 22:25.43 | 11:35.20 | 100918 | 153062
4 | 34:00.63 | 6:22.33 | 153063 | 181745
5 | 40:23.21 | 3:48.35 | 181746 | 198880
6 | 44:11.56 | 5:59.17 | 198881 | 225822
7 | 50:10.73 | 7:04.59 | 225823 | 257681
8 | 57:15.57 | 3:55.05 | 257682 | 275311
9 | 61:10.62 | 4:11.25 | 275312 | 294161
10 | 65:22.12 | 2:58.47 | 294162 | 307558
11 | 68:20.59 | 0:54.69 | 307559 | 311677


Track 1

Filename E:\RIPS\Bud Powell - Live at the Blue Note Cafe, Paris 1961 [FLAC] {ESP 4036}\01 - Groovin' High.wav

Pre-gap length 0:00:02.00

Peak level 99.5 %
Track quality 100.0 %
Test CRC 5975ACF4
Copy CRC 5975ACF4
Cannot be verified as accurate (confidence 1) [B7CC0361], AccurateRip returned [88219B55]
Copy OK

Track 2

Filename E:\RIPS\Bud Powell - Live at the Blue Note Cafe, Paris 1961 [FLAC] {ESP 4036}\02 - Taking a Chance on Love.wav

Pre-gap length 0:00:02.00

Peak level 99.5 %
Track quality 100.0 %
Test CRC C979AFB9
Copy CRC C979AFB9
Accurately ripped (confidence 1) [7977310F]
Copy OK

Track 3

Filename E:\RIPS\Bud Powell - Live at the Blue Note Cafe, Paris 1961 [FLAC] {ESP 4036}\03 - Bud's Blues _ 52nd Street Theme.wav

Pre-gap length 0:00:02.00

Peak level 99.4 %
Track quality 100.0 %
Test CRC B7283466
Copy CRC B7283466
Accurately ripped (confidence 1) [E9937DE5]
Copy OK

Track 4

Filename E:\RIPS\Bud Powell - Live at the Blue Note Cafe, Paris 1961 [FLAC] {ESP 4036}\04 - There Will Never Be Another You.wav

Pre-gap length 0:00:02.00

Peak level 99.5 %
Track quality 100.0 %
Test CRC E919267A
Copy CRC E919267A
Accurately ripped (confidence 1) [D5CC8136]
Copy OK

Track 5

Filename E:\RIPS\Bud Powell - Live at the Blue Note Cafe, Paris 1961 [FLAC] {ESP 4036}\05 - Thelonious.wav

Pre-gap length 0:00:02.00

Peak level 99.5 %
Track quality 99.9 %
Test CRC 7ADFB181
Copy CRC 7ADFB181
Accurately ripped (confidence 1) [C7C19C58]
Copy OK

Track 6

Filename E:\RIPS\Bud Powell - Live at the Blue Note Cafe, Paris 1961 [FLAC] {ESP 4036}\06 - Round Midnight.wav

Pre-gap length 0:00:02.00

Peak level 99.5 %
Track quality 100.0 %
Test CRC EAB6EDEC
Copy CRC EAB6EDEC
Accurately ripped (confidence 1) [BF340002]
Copy OK

Track 7

Filename E:\RIPS\Bud Powell - Live at the Blue Note Cafe, Paris 1961 [FLAC] {ESP 4036}\07 - A Night in Tunisia.wav

Pre-gap length 0:00:02.00

Peak level 99.5 %
Track quality 100.0 %
Test CRC A65042FF
Copy CRC A65042FF
Accurately ripped (confidence 1) [0C6466A1]
Copy OK

Track 8

Filename E:\RIPS\Bud Powell - Live at the Blue Note Cafe, Paris 1961 [FLAC] {ESP 4036}\08 - Monk's Mood.wav

Pre-gap length 0:00:02.00

Peak level 99.5 %
Track quality 100.0 %
Test CRC FBB6ABF0
Copy CRC FBB6ABF0
Accurately ripped (confidence 1) [FAF1E7F5]
Copy OK

Track 9

Filename E:\RIPS\Bud Powell - Live at the Blue Note Cafe, Paris 1961 [FLAC] {ESP 4036}\09 - Shaw Nuff.wav

Pre-gap length 0:00:02.00

Peak level 99.5 %
Track quality 100.0 %
Test CRC 6C0AFF83
Copy CRC 6C0AFF83
Accurately ripped (confidence 1) [10C9F192]
Copy OK

Track 10

Filename E:\RIPS\Bud Powell - Live at the Blue Note Cafe, Paris 1961 [FLAC] {ESP 4036}\10 - Lover Man.wav

Pre-gap length 0:00:02.00

Peak level 99.5 %
Track quality 99.9 %
Test CRC 5D50E0A3
Copy CRC 5D50E0A3
Accurately ripped (confidence 1) [C8D9D3A9]
Copy OK

Track 11

Filename E:\RIPS\Bud Powell - Live at the Blue Note Cafe, Paris 1961 [FLAC] {ESP 4036}\11 - 52nd Street Theme.wav

Pre-gap length 0:00:02.00

Peak level 99.5 %
Track quality 100.0 %
Test CRC A3AA78D6
Copy CRC A3AA78D6
Accurately ripped (confidence 1) [8F997469]
Copy OK


10 track(s) accurately ripped
1 track(s) could not be verified as accurate

Some tracks could not be verified as accurate

No errors occurred

End of status report


Bud Powell - Live at the Blue Note Cafe, Paris 1961 (2007) {ESP-Disk' ESP4036}

Bud Powell - Live at the Blue Note Cafe, Paris 1961 (2007) {ESP-Disk' ESP4036}



===