Subcategories
Please register here if you want to download anything!

If domain in your address bar is different from the list below
PLEASE LEAVE THAT SITE IMMEDIATELY
❗IT'S A DANGEROUS FAKE❗



Spicy Magazines for Men! ;-)

Bent Knee - Shiny Eyed Babies (2014)

Posted By: Domestos
Bent Knee - Shiny Eyed Babies (2014)

Bent Knee - Shiny Eyed Babies (2014)
EAC Rip | FLAC (tracks+.cue, log) ~ 348.40 Mb + 60.42 Mb (Scans) | MP3 CBR 320kbps ~ 144.05 Mb (Cover)
Art-Rock, Psychedelic | 62:46 | Country: USA | Label: Bent Knee

Bent Knee is a band without frontiers. Its borderless sound combines myriad influences from across the rock, pop, minimalist, and avant-garde spectrums into a seamless, thrilling whole. Fiercely innovative, the group bridges the gap between the experimental and the familiar, merging texture and style into music that’s moving, addictive, and unapologetically original.



Track List:
1. Shiny Eyed Babies. 1:19
2. Way Too Long. 4:59
3. Dry. 6:07
4. In God We Trust. 5:20
5. I'm Still Here. 5:08
6. Dead Horse. 5:17
7. Battle Creek. 5:42
8. Untitled. 2:00
9. Sunshine. 5:19
10. Democratic Chorale. 1:42
11. Skin. 5:58
12. Being Human. 6:28
13. Toothsmile. 7:23

- Courtney Swain / lead vocals, keyboards
- Ben Levin / guitar
- Chris Baum / violin
- Jessica Kion / bass, backing vocals
- Gavin Wallace-Ailsworth / drums
- Vince Welch / sound design, producer & engineer

With:
- Abigale Reisman /violin
- Rachel Panitch / violin
- Matthew Consul / violin
- Abby Swidler / viola
- Rachel Jayson / viola
- Ro Rowan / cello
- Valerie Thompson / cello
- Rob Krahn / trombone
- Sam Morrison / baritone sax
- Tyler Kion / alto sax
- Rach Azrak / flute, piccolo
- Matt Hull / trumpet
- Guy Mendilow / berimbau

Bent Knee - Shiny Eyed Babies (2014)

Exact Audio Copy V1.0 beta 4 from 7. December 2014

EAC extraction logfile from 12. August 2019, 17:14

Bent Knee / Shiny Eyed Babies

Used drive : ATAPI iHAS124 E Adapter: 1 ID: 0

Read mode : Secure
Utilize accurate stream : Yes
Defeat audio cache : Yes
Make use of C2 pointers : No

Read offset correction : 6
Overread into Lead-In and Lead-Out : No
Fill up missing offset samples with silence : Yes
Delete leading and trailing silent blocks : No
Null samples used in CRC calculations : Yes
Used interface : Native Win32 interface for Win NT & 2000
Gap handling : Appended to previous track

Used output format : User Defined Encoder
Selected bitrate : 768 kBit/s
Quality : High
Add ID3 tag : No
Command line compressor : C:\Program Files (x86)\flac-1.3.2-win\win64\flac.exe
Additional command line options : -8 -V -T "ARTIST=%artist%" -T "TITLE=%title%" -T "ALBUM=%albumtitle%" -T "DATE=%year%" -T "TRACKNUMBER=%tracknr%" -T "GENRE=%genre%" -T "COMMENT=ripped by vp_sunset" %source% -o %dest%


TOC of the extracted CD

Track | Start | Length | Start sector | End sector
––––––––––––––––––––––––––––-
1 | 0:00.00 | 1:19.29 | 0 | 5953
2 | 1:19.29 | 4:59.04 | 5954 | 28382
3 | 6:18.33 | 6:07.00 | 28383 | 55907
4 | 12:25.33 | 5:20.44 | 55908 | 79951
5 | 17:46.02 | 5:08.07 | 79952 | 103058
6 | 22:54.09 | 5:17.54 | 103059 | 126887
7 | 28:11.63 | 5:42.37 | 126888 | 152574
8 | 33:54.25 | 2:00.32 | 152575 | 161606
9 | 35:54.57 | 5:19.44 | 161607 | 185575
10 | 41:14.26 | 1:42.31 | 185576 | 193256
11 | 42:56.57 | 5:58.59 | 193257 | 220165
12 | 48:55.41 | 6:28.16 | 220166 | 249281
13 | 55:23.57 | 7:23.17 | 249282 | 282523


Track 1

Filename C:\_EAC\01. Shiny Eyed Babies.wav

Pre-gap length 0:00:02.00

Peak level 73.6 %
Extraction speed 1.5 X
Track quality 100.0 %
Test CRC 63C10FEA
Copy CRC 63C10FEA
Accurately ripped (confidence 5) [FE7B717F] (AR v2)
Copy OK

Track 2

Filename C:\_EAC\02. Way Too Long.wav

Peak level 99.3 %
Extraction speed 2.1 X
Track quality 100.0 %
Test CRC F30FB480
Copy CRC F30FB480
Accurately ripped (confidence 5) [6F64ABDB] (AR v2)
Copy OK

Track 3

Filename C:\_EAC\03. Dry.wav

Peak level 99.3 %
Extraction speed 2.5 X
Track quality 100.0 %
Test CRC 87FEEC9B
Copy CRC 87FEEC9B
Accurately ripped (confidence 5) [AD6116F9] (AR v2)
Copy OK

Track 4

Filename C:\_EAC\04. In God We Trust.wav

Peak level 99.3 %
Extraction speed 2.7 X
Track quality 100.0 %
Test CRC D1A0DC05
Copy CRC D1A0DC05
Accurately ripped (confidence 5) [DB11D664] (AR v2)
Copy OK

Track 5

Filename C:\_EAC\05. I'm Still Here.wav

Peak level 99.3 %
Extraction speed 2.3 X
Track quality 99.9 %
Test CRC E782B416
Copy CRC E782B416
Accurately ripped (confidence 5) [7113224F] (AR v2)
Copy OK

Track 6

Filename C:\_EAC\06. Dead Horse.wav

Peak level 99.3 %
Extraction speed 2.4 X
Track quality 99.9 %
Test CRC 669EA1DE
Copy CRC 669EA1DE
Accurately ripped (confidence 5) [AA9C4EC5] (AR v2)
Copy OK

Track 7

Filename C:\_EAC\07. Battle Creek.wav

Peak level 99.3 %
Extraction speed 3.3 X
Track quality 100.0 %
Test CRC 06141570
Copy CRC 06141570
Accurately ripped (confidence 5) [ECA07D8B] (AR v2)
Copy OK

Track 8

Filename C:\_EAC\08. Untitled.wav

Peak level 66.2 %
Extraction speed 2.9 X
Track quality 100.0 %
Test CRC B7AC0D7D
Copy CRC B7AC0D7D
Accurately ripped (confidence 5) [B1280EEA] (AR v2)
Copy OK

Track 9

Filename C:\_EAC\09. Sunshine.wav

Peak level 99.3 %
Extraction speed 3.5 X
Track quality 100.0 %
Test CRC 3E3C48FC
Copy CRC 3E3C48FC
Accurately ripped (confidence 5) [57D75F90] (AR v2)
Copy OK

Track 10

Filename C:\_EAC\10. Democratic Chorale.wav

Peak level 74.2 %
Extraction speed 3.0 X
Track quality 100.0 %
Test CRC 262DD0E7
Copy CRC 262DD0E7
Accurately ripped (confidence 5) [625276FC] (AR v2)
Copy OK

Track 11

Filename C:\_EAC\11. Skin.wav

Peak level 99.3 %
Extraction speed 3.8 X
Track quality 100.0 %
Test CRC 32EAA6B0
Copy CRC 32EAA6B0
Accurately ripped (confidence 5) [83985835] (AR v2)
Copy OK

Track 12

Filename C:\_EAC\12. Being Human.wav

Peak level 99.3 %
Extraction speed 4.0 X
Track quality 100.0 %
Test CRC 0EF297D0
Copy CRC 0EF297D0
Accurately ripped (confidence 5) [BAD0C1CE] (AR v2)
Copy OK

Track 13

Filename C:\_EAC\13. Toothsmile.wav

Peak level 99.3 %
Extraction speed 3.5 X
Track quality 99.9 %
Test CRC AA156CCD
Copy CRC AA156CCD
Accurately ripped (confidence 5) [B9478EFB] (AR v2)
Copy OK


All tracks accurately ripped

No errors occurred

End of status report

–– CUETools DB Plugin V2.1.4

[CTDB TOCID: vb5gKB5TpUt_pD341.tdCcFsRKg-] found
Submit result: vb5gKB5TpUt_pD341.tdCcFsRKg- has been confirmed
Track | CTDB Status
1 | (27/28) Accurately ripped
2 | (27/28) Accurately ripped
3 | (27/28) Accurately ripped
4 | (27/28) Accurately ripped
5 | (27/28) Accurately ripped
6 | (27/28) Accurately ripped
7 | (27/28) Accurately ripped
8 | (27/28) Accurately ripped
9 | (27/28) Accurately ripped
10 | (27/28) Accurately ripped
11 | (27/28) Accurately ripped
12 | (27/28) Accurately ripped
13 | (27/28) Accurately ripped


==== Log checksum 71BC17CAE1E44AB367BFF7C133A8EDCB9CE287651906D3343760DA345602B322 ====

All thanks go to the vp_sunset

More Music in My Blog
Follow My RSS Channel