Subcategories

Accademia d’Arcadia, Roberto Balconi - Duni: Les deux chasseurs et la laitière (2016)

Posted By: delpotro
Accademia d’Arcadia, Roberto Balconi - Duni: Les deux chasseurs et la laitière (2016)

Accademia d’Arcadia, Roberto Balconi, Agnieszka Budzinska-Bennet, Maciej Straburzynski & Lukasz Wilda - Duni: Les deux chasseurs et la laitière (2016)
EAC Rip | FLAC (tracks+log+.cue) - 243 Mb | MP3 CBR 320 kbps - 123 Mb | Digital booklet | 00:52:42
Classical, Opera | Label: Brilliant Classics

Les deux chasseurs et la laitière, a oneact opera by Egidio Romualdo Dun, was premiered in Paris by the company of Théâtre de Comédiens Italiens, in July 1763. This work, staged then many times at the Opéra Comique, was soon published and its popularity among European theatres reached its peak between the 1780s and the beginning of 19th century.

The opera is written in the Galant Style: small size, fastpaced action, sharp sense of humour, amusing spoken dialogues and, above all, very light and cleverly written music, made this pièce one of the most popular operas not only in Paris of the time. The libretto is based on two fables by De La Fontaine, ingeniously combining two plots involving two hunters and a milk jug. A vibrant performance on period instruments by the Accademia dellArcadia from the Polish Poznan, featuring three excellent young Polish vocal soloists.

Conductor is Early music specialist Roberto Balconi, who already issued an excellent recording of madrigals by Ghizzolo on Brilliant Classics.
Tracklist:
1. Accademia d’Arcadia & Roberto Balconi – Les deux chasseurs et la latière: Introduction. Allegro assai (03:16)
2. Accademia d’Arcadia, Roberto Balconi & Lukasz Wilda – Les deux chasseurs et la latière, scène I: Ariette - Colas. Je suis percé jusq'aux os (02:54)
3. Accademia d’Arcadia, Roberto Balconi & Maciej Straburzynski – Les deux chasseurs et la latière, scène II: Ariette - Guillot. Tant qu'il me reste (01:45)
4. Accademia d’Arcadia, Roberto Balconi, Maciej Straburzynski & Lukasz Wilda – Les deux chasseurs et la latière, scène II: Duo - Guillot & Colas. Eh! Bien, Colas? … Eh! Bien, guillot? (01:59)
5. Accademia d’Arcadia, Roberto Balconi & Maciej Straburzynski – Les deux chasseurs et la latière, scène III: Ariette - Guillot. Le briquet frappe la pierre (02:27)
6. Accademia d’Arcadia, Roberto Balconi & Agnieszka Budzinska-Bennet – Les deux chasseurs et la latière, scène IV: Ariette - Perrette. Voilà la petite Laitière (03:10)
7. Accademia d’Arcadia, Roberto Balconi & Maciej Straburzynski – Les deux chasseurs et la latière, scène IV: Ariette - Guillot. Si vous trouvez dans la plaine (01:51)
8. Accademia d’Arcadia, Roberto Balconi, Maciej Straburzynski & Agnieszka Budzinska-Bennet – Les deux chasseurs et la latière, Scène IV: Duo - Guillot & Perrette. Quand je trouve à l'écart… Telle qu'une perdrix (02:43)
9. Accademia d’Arcadia, Roberto Balconi & Agnieszka Budzinska-Bennet – Les deux chasseurs et la latière, scène IV: Ariette - Perrette. Voici tout mon projet (01:57)
10. Accademia d’Arcadia, Roberto Balconi & Maciej Straburzynski – Les deux chasseurs et la latière, scène V: Ariette - Guillot. Jeune fille à cet âge (02:04)
11. Accademia d’Arcadia, Roberto Balconi & Agnieszka Budzinska-Bennet – Les deux chasseurs et la latière, scène VIII: Ariette - Perrette. Hélas! J'ai repandu mon lait (02:43)
12. Accademia d’Arcadia, Roberto Balconi, Lukasz Wilda, Maciej Straburzynski & Agnieszka Budzinska-Bennet – Les deux chasseurs et la latière, scène IX: Trio - Colas, Guillot & Perrette. Je tombe … La masure… Quelle aventure! (01:22)
13. Accademia d’Arcadia, Roberto Balconi & Agnieszka Budzinska-Bennet – Les deux chasseurs et la latière, scène IX: Ariette - Perrette. Tu promets de me rendre heureuse (01:45)
14. Accademia d’Arcadia, Roberto Balconi, Maciej Straburzynski, Lukasz Wilda & Agnieszka Budzinska-Bennet – Vaudeville: Vaudeville - Colas, Guillot & Perrette. J'étois gisant à cette place (04:33)
15. Accademia d’Arcadia, Roberto Balconi, Maciej Straburzynski, Lukasz Wilda & Agnieszka Budzinska-Bennet – Vaudeville: Choeur - Colas, guillot & perrette. Ain si le sort, un tems, nous berce (01:14)
16. Accademia d’Arcadia & Roberto Balconi – Michal Orlowski Second Half of the 18th Century Sinfonia in F Major: I. Allegro (08:38)
17. Accademia d’Arcadia & Roberto Balconi – Michal Orlowski Second Half of the 18th Century Sinfonia in F Major: II. Andante, rondo (04:29)
18. Accademia d’Arcadia & Roberto Balconi – Michal Orlowski Second Half of the 18th Century Sinfonia in F Major: III. Allegro, rondo (03:44)

Exact Audio Copy V1.3 from 2. September 2016

EAC extraction logfile from 24. August 2020, 21:45

Accademia dell'Arcadia, Roberto Balconi, Agnieszka Budzinska-Bennett, Maciej Straburzynski, Lukasz Wilda / Les Deux Chasseurs et la Laitiere

Used drive : HL-DT-STDVDRAM GH24NSD1 Adapter: 1 ID: 1

Read mode : Secure
Utilize accurate stream : Yes
Defeat audio cache : Yes
Make use of C2 pointers : No

Read offset correction : 6
Overread into Lead-In and Lead-Out : No
Fill up missing offset samples with silence : Yes
Delete leading and trailing silent blocks : No
Null samples used in CRC calculations : Yes
Used interface : Native Win32 interface for Win NT & 2000
Gap handling : Appended to previous track

Used output format : User Defined Encoder
Selected bitrate : 1024 kBit/s
Quality : High
Add ID3 tag : No
Command line compressor : C:\Program Files (x86)\Exact Audio Copy\Flac\flac.exe
Additional command line options : -8 -V -T "ARTIST=%artist%" -T "TITLE=%title%" -T "ALBUM=%albumtitle%" -T "DATE=%year%" -T "TRACKNUMBER=%tracknr%" -T "GENRE=%genre%" -T "PERFORMER=%albuminterpret%" -T "COMPOSER=%composer%" %haslyrics%–tag-from-file=LYRICS="%lyricsfile%"%haslyrics% -T "ALBUMARTIST=%albumartist%" -T "DISCNUMBER=%cdnumber%" -T "TOTALDISCS=%totalcds%" -T "TOTALTRACKS=%numtracks%" -T "COMMENT=%comment%" %source% -o %dest%


TOC of the extracted CD

Track | Start | Length | Start sector | End sector
––––––––––––––––––––––––––––-
1 | 0:00.00 | 3:16.16 | 0 | 14715
2 | 3:16.16 | 2:54.30 | 14716 | 27795
3 | 6:10.46 | 1:44.74 | 27796 | 35669
4 | 7:55.45 | 1:59.47 | 35670 | 44641
5 | 9:55.17 | 2:27.49 | 44642 | 55715
6 | 12:22.66 | 3:10.09 | 55716 | 69974
7 | 15:33.00 | 1:51.03 | 69975 | 78302
8 | 17:24.03 | 2:43.28 | 78303 | 90555
9 | 20:07.31 | 1:57.49 | 90556 | 99379
10 | 22:05.05 | 2:04.65 | 99380 | 108744
11 | 24:09.70 | 2:43.35 | 108745 | 121004
12 | 26:53.30 | 1:22.20 | 121005 | 127174
13 | 28:15.50 | 1:45.39 | 127175 | 135088
14 | 30:01.14 | 4:33.38 | 135089 | 155601
15 | 34:34.52 | 1:14.50 | 155602 | 161201
16 | 35:49.27 | 8:38.14 | 161202 | 200065
17 | 44:27.41 | 4:29.66 | 200066 | 220306
18 | 48:57.32 | 3:44.59 | 220307 | 237165


Track 1

Filename E:\WHAT.CD\000TEMP\E. R. Duni - Les deux chasseurs et la laitière - Balconi (2016) [FLAC]\01 - Les deux chasseurs et la latière - Introduction. Allegro assai.wav

Pre-gap length 0:00:02.00

Peak level 76.7 %
Extraction speed 0.8 X
Track quality 99.9 %
Test CRC 86CD856C
Copy CRC 86CD856C
Accurately ripped (confidence 1) [FD43DBD2] (AR v2)
Copy OK

Track 2

Filename E:\WHAT.CD\000TEMP\E. R. Duni - Les deux chasseurs et la laitière - Balconi (2016) [FLAC]\02 - Scene I - Ariette - Colas. Je suis percé jusq'aux os.wav

Peak level 40.6 %
Extraction speed 1.1 X
Track quality 100.0 %
Test CRC BB71E12D
Copy CRC BB71E12D
Accurately ripped (confidence 1) [05D141DA] (AR v2)
Copy OK

Track 3

Filename E:\WHAT.CD\000TEMP\E. R. Duni - Les deux chasseurs et la laitière - Balconi (2016) [FLAC]\03 - Scene II - Ariette - Guillot. Tant qu'il me reste.wav

Peak level 33.3 %
Extraction speed 3.4 X
Track quality 100.0 %
Test CRC CAE27C39
Copy CRC CAE27C39
Accurately ripped (confidence 1) [B7F0F20F] (AR v2)
Copy OK

Track 4

Filename E:\WHAT.CD\000TEMP\E. R. Duni - Les deux chasseurs et la laitière - Balconi (2016) [FLAC]\04 - Scene II - Duo - Guillot & Colas. Eh, Bien, Colas.wav

Peak level 70.3 %
Extraction speed 3.7 X
Track quality 100.0 %
Test CRC B9947B4C
Copy CRC B9947B4C
Accurately ripped (confidence 1) [9C315730] (AR v2)
Copy OK

Track 5

Filename E:\WHAT.CD\000TEMP\E. R. Duni - Les deux chasseurs et la laitière - Balconi (2016) [FLAC]\05 - Scene III - Ariette - Guillot. Le briquet frappe la pierre.wav

Peak level 56.5 %
Extraction speed 4.0 X
Track quality 100.0 %
Test CRC 39D7C384
Copy CRC 39D7C384
Accurately ripped (confidence 1) [530B8051] (AR v2)
Copy OK

Track 6

Filename E:\WHAT.CD\000TEMP\E. R. Duni - Les deux chasseurs et la laitière - Balconi (2016) [FLAC]\06 - Scene IV - Ariette - Perrette. Voilà la petite Laitière.wav

Peak level 67.5 %
Extraction speed 4.4 X
Track quality 100.0 %
Test CRC 40C54667
Copy CRC 40C54667
Accurately ripped (confidence 1) [9C6C0C91] (AR v2)
Copy OK

Track 7

Filename E:\WHAT.CD\000TEMP\E. R. Duni - Les deux chasseurs et la laitière - Balconi (2016) [FLAC]\07 - Scene IV - Ariette - Guillot. Si vous trouvez dans la plaine.wav

Peak level 40.2 %
Extraction speed 4.1 X
Track quality 100.0 %
Test CRC 48C1F191
Copy CRC 48C1F191
Accurately ripped (confidence 1) [5E4ADB66] (AR v2)
Copy OK

Track 8

Filename E:\WHAT.CD\000TEMP\E. R. Duni - Les deux chasseurs et la laitière - Balconi (2016) [FLAC]\08 - Scene IV - Duo - Guillot & Perrette. Quand je trouve à l'écart… Telle qu'une perdrix.wav

Peak level 72.5 %
Extraction speed 4.5 X
Track quality 100.0 %
Test CRC 1B6C0ABF
Copy CRC 1B6C0ABF
Accurately ripped (confidence 1) [6DBB6509] (AR v2)
Copy OK

Track 9

Filename E:\WHAT.CD\000TEMP\E. R. Duni - Les deux chasseurs et la laitière - Balconi (2016) [FLAC]\09 - Scene IV - Ariette - Perrette. Voici tout mon projet.wav

Peak level 83.2 %
Extraction speed 4.5 X
Track quality 100.0 %
Test CRC 7A602199
Copy CRC 7A602199
Accurately ripped (confidence 1) [F01C1CDD] (AR v2)
Copy OK

Track 10

Filename E:\WHAT.CD\000TEMP\E. R. Duni - Les deux chasseurs et la laitière - Balconi (2016) [FLAC]\10 - Scene V - Ariette - Guillot. Jeune fille à cet age.wav

Peak level 87.6 %
Extraction speed 4.6 X
Track quality 100.0 %
Test CRC 4D7E1AAF
Copy CRC 4D7E1AAF
Accurately ripped (confidence 1) [1324A31A] (AR v2)
Copy OK

Track 11

Filename E:\WHAT.CD\000TEMP\E. R. Duni - Les deux chasseurs et la laitière - Balconi (2016) [FLAC]\11 - Scene VIII - Ariette - Perrette. Hélas. J'Ai Repandu Mon Lait.wav

Peak level 82.8 %
Extraction speed 5.1 X
Track quality 100.0 %
Test CRC 3CA4B8AC
Copy CRC 3CA4B8AC
Accurately ripped (confidence 1) [176CF848] (AR v2)
Copy OK

Track 12

Filename E:\WHAT.CD\000TEMP\E. R. Duni - Les deux chasseurs et la laitière - Balconi (2016) [FLAC]\12 - Scene IX - Trio - Colas, Guillot & Perrette. Je tombe…La masure…Quelle aventure.wav

Peak level 66.4 %
Extraction speed 4.4 X
Track quality 100.0 %
Test CRC 0F9FCC36
Copy CRC 0F9FCC36
Accurately ripped (confidence 1) [CB684B35] (AR v2)
Copy OK

Track 13

Filename E:\WHAT.CD\000TEMP\E. R. Duni - Les deux chasseurs et la laitière - Balconi (2016) [FLAC]\13 - Scene IX - Ariette - Perrette. Tu promets de me rendre heureuse.wav

Peak level 76.2 %
Extraction speed 4.8 X
Track quality 100.0 %
Test CRC AC47C84D
Copy CRC AC47C84D
Accurately ripped (confidence 1) [E62B3BE6] (AR v2)
Copy OK

Track 14

Filename E:\WHAT.CD\000TEMP\E. R. Duni - Les deux chasseurs et la laitière - Balconi (2016) [FLAC]\14 - Vaudeville - Colas, Guillot & Perrette. J'étois gisant à cette place.wav

Peak level 78.1 %
Extraction speed 5.8 X
Track quality 100.0 %
Test CRC 87D7C8D2
Copy CRC 87D7C8D2
Accurately ripped (confidence 1) [FC2593C4] (AR v2)
Copy OK

Track 15

Filename E:\WHAT.CD\000TEMP\E. R. Duni - Les deux chasseurs et la laitière - Balconi (2016) [FLAC]\15 - Choeur - Colas, Guillot & Perrette. Ain si le sort, un tems, nous berce.wav

Peak level 75.9 %
Extraction speed 3.5 X
Track quality 99.8 %
Test CRC 52A74E6A
Copy CRC 52A74E6A
Accurately ripped (confidence 1) [769259B2] (AR v2)
Copy OK

Track 16

Filename E:\WHAT.CD\000TEMP\E. R. Duni - Les deux chasseurs et la laitière - Balconi (2016) [FLAC]\16 - Sinfonia in F Major- I. Allegro.wav

Peak level 93.0 %
Extraction speed 6.6 X
Track quality 100.0 %
Test CRC 55265919
Copy CRC 55265919
Accurately ripped (confidence 1) [BEF90EA6] (AR v2)
Copy OK

Track 17

Filename E:\WHAT.CD\000TEMP\E. R. Duni - Les deux chasseurs et la laitière - Balconi (2016) [FLAC]\17 - Sinfonia in F Major- II. Andante. Rondo.wav

Peak level 62.6 %
Extraction speed 6.0 X
Track quality 99.9 %
Test CRC ED14CA35
Copy CRC ED14CA35
Accurately ripped (confidence 1) [4FC231E6] (AR v2)
Copy OK

Track 18

Filename E:\WHAT.CD\000TEMP\E. R. Duni - Les deux chasseurs et la laitière - Balconi (2016) [FLAC]\18 - Sinfonia in F Major- III. Allegro. Rondo.wav

Peak level 69.1 %
Extraction speed 3.9 X
Track quality 99.8 %
Test CRC AB61D40E
Copy CRC AB61D40E
Accurately ripped (confidence 1) [786FC8F6] (AR v2)
Copy OK


All tracks accurately ripped

No errors occurred

End of status report

–– CUETools DB Plugin V2.1.6

[CTDB TOCID: iJyb5q2k.A8L0Qbc1w.wmOGW8W4-] found
Submit result: iJyb5q2k.A8L0Qbc1w.wmOGW8W4- has been confirmed
Track | CTDB Status
1 | (3/3) Accurately ripped
2 | (3/3) Accurately ripped
3 | (3/3) Accurately ripped
4 | (3/3) Accurately ripped
5 | (3/3) Accurately ripped
6 | (3/3) Accurately ripped
7 | (3/3) Accurately ripped
8 | (3/3) Accurately ripped
9 | (3/3) Accurately ripped
10 | (3/3) Accurately ripped
11 | (3/3) Accurately ripped
12 | (3/3) Accurately ripped
13 | (3/3) Accurately ripped
14 | (3/3) Accurately ripped
15 | (3/3) Accurately ripped
16 | (3/3) Accurately ripped
17 | (3/3) Accurately ripped
18 | (3/3) Accurately ripped


==== Log checksum 82CF0C978F32F03934B348535AAE28DA81DBAABACF0EB43435430EAF24AA6B51 ====

Thanks to the Original ripper !