Subcategories

Virus - Thoughts (1971)

Posted By: v3122
Virus - Thoughts (1971)

Virus - Thoughts (1971)
EAC | Flac(Image) + Cue + Log & MP3 CBR 320Kbps
1991 | Pilz, 2021102-9 | ~ 240 or 95 Mb | Artwork(jpg) -> 3.36 Mb
Krautrock, Heavy Prog

Between their first album, Revelation, and this follow-up, most of Virus split to form the band Weed. Thoughts, recorded only six months after the debut, shows a radically different group with only two original members. The tracks are much shorter and song-oriented, as the group trades in space rock for a more conventional blues-rock sound. There is still some nice work here, some great psychedelic guitar and keyboard workouts, especially on the dark track "King Heroin," which opens the disc. "Mankind, Where Do You Go?" is even better, as the cut sports a jazz-funk riff and gloomy chorus vocals. Elga Blask sings on much of the rest of the album in an unfeminine voice quite similar to Inga Rumpf's, though not quite as powerful. Instrumentally the group sticks close to the sound of Frumpy, Rumpf's band in the early '70s who featured similar psychedelic guitar and organ work. Unfortunately, there are none of the long, wild jam-outs of Frumpy's best material, though "My Strand-Eyed Girl" has some interesting percussions. Most of this record is quite good, it's just that Virus' debut raised the bar too high and this record pales in comparison.

by Rolf Semprebon, allmusic
Virus - Thoughts (1971):

Virus - Thoughts (1971)

Tracklist:

01. King Heroin 05:42
02. Manking, Where Do You Go? 05:02
03. Theme 00:23
04. Old Time Movie 04:17
05. Butterflies 04:29
06. Take Your Thoughts 06:13
07. Sittin' And Smoking' 02:58
08. Going On 04:35
09. Deeds Of The Past 02:14
10. My Strand-Eyed Girl 04:19

Musicians:

Jörg-Dieter Krahe - keyboards
Bernd Rosner - guitars
Werner Vogt - vocals, bass, guitar
Jürgen Schäfer - vocals, bass
Wolfgang Rieke - drums
Axel Nieling - percussion, drums


Exact Audio Copy V1.3 from 2. September 2016

EAC extraction logfile from 10. July 2019, 13:01

Virus / Thoughts

Used drive : ASUS DRW-24D5MT Adapter: 1 ID: 0

Read mode : Secure
Utilize accurate stream : Yes
Defeat audio cache : Yes
Make use of C2 pointers : No

Read offset correction : 6
Overread into Lead-In and Lead-Out : No
Fill up missing offset samples with silence : Yes
Delete leading and trailing silent blocks : No
Null samples used in CRC calculations : Yes
Used interface : Native Win32 interface for Win NT & 2000
Gap handling : Appended to previous track

Used output format : User Defined Encoder
Selected bitrate : 1024 kBit/s
Quality : High
Add ID3 tag : No
Command line compressor : C:\Program Files (x86)\Exact Audio Copy\Flac\flac.exe
Additional command line options : -V -8 -T "Genre=%genre%" -T "Artist=%artist%" -T "Title=%title%" -T "Album=%albumtitle%" -T "Date=%year%" -T "Tracknumber=%tracknr%" -T "Comment=%comment%" %source%


TOC of the extracted CD

Track | Start | Length | Start sector | End sector
––––––––––––––––––––––––––––-
1 | 0:00.00 | 5:41.62 | 0 | 25636
2 | 5:41.62 | 5:02.20 | 25637 | 48306
3 | 10:44.07 | 0:23.30 | 48307 | 50061
4 | 11:07.37 | 4:17.33 | 50062 | 69369
5 | 15:24.70 | 4:29.22 | 69370 | 89566
6 | 19:54.17 | 6:12.60 | 89567 | 117526
7 | 26:07.02 | 2:57.70 | 117527 | 130871
8 | 29:04.72 | 4:34.63 | 130872 | 151484
9 | 33:39.60 | 2:14.35 | 151485 | 161569
10 | 35:54.20 | 4:15.52 | 161570 | 180746


Track 1

Filename G:\Sket4er\Virus – Thoughts (1971) 1991\01 King Heroin.wav

Pre-gap length 0:00:02.00

Peak level 89.6 %
Extraction speed 1.2 X
Track quality 100.0 %
Test CRC C18271E8
Copy CRC C18271E8
Cannot be verified as accurate (confidence 1) [8A96409B], AccurateRip returned [540DBA19] (AR v2)
Copy OK

Track 2

Filename G:\Sket4er\Virus – Thoughts (1971) 1991\02 Manking, Where Do You Go To.wav

Peak level 83.7 %
Extraction speed 1.4 X
Track quality 100.0 %
Test CRC BC6863B8
Copy CRC BC6863B8
Cannot be verified as accurate (confidence 1) [D11FB04E], AccurateRip returned [9F28F592] (AR v2)
Copy OK

Track 3

Filename G:\Sket4er\Virus – Thoughts (1971) 1991\03 Theme.wav

Peak level 38.1 %
Extraction speed 0.6 X
Track quality 100.0 %
Test CRC 50C75F53
Copy CRC 50C75F53
Cannot be verified as accurate (confidence 1) [694DED58], AccurateRip returned [FCCE80D8] (AR v2)
Copy OK

Track 4

Filename G:\Sket4er\Virus – Thoughts (1971) 1991\04 Old Time Movie.wav

Peak level 85.4 %
Extraction speed 1.5 X
Track quality 100.0 %
Test CRC 9553C583
Copy CRC 9553C583
Cannot be verified as accurate (confidence 1) [B501194D], AccurateRip returned [ADACA85C] (AR v2)
Copy OK

Track 5

Filename G:\Sket4er\Virus – Thoughts (1971) 1991\05 Butterflies.wav

Peak level 83.3 %
Extraction speed 1.6 X
Track quality 100.0 %
Test CRC 2E93C23C
Copy CRC 2E93C23C
Cannot be verified as accurate (confidence 1) [1E315C11], AccurateRip returned [7E0AC464] (AR v2)
Copy OK

Track 6

Filename G:\Sket4er\Virus – Thoughts (1971) 1991\06 Take Your Thoughts.wav

Peak level 82.7 %
Extraction speed 1.6 X
Track quality 99.9 %
Test CRC 283BE244
Copy CRC 283BE244
Cannot be verified as accurate (confidence 1) [D416175C], AccurateRip returned [160A5137] (AR v2)
Copy OK

Track 7

Filename G:\Sket4er\Virus – Thoughts (1971) 1991\07 Sittin' And Smokin'.wav

Peak level 83.4 %
Extraction speed 1.4 X
Track quality 99.9 %
Test CRC 6E189A69
Copy CRC 6E189A69
Cannot be verified as accurate (confidence 1) [CDA3BC8F], AccurateRip returned [2B23D64C] (AR v2)
Copy OK

Track 8

Filename G:\Sket4er\Virus – Thoughts (1971) 1991\08 Going On.wav

Peak level 83.8 %
Extraction speed 1.8 X
Track quality 100.0 %
Test CRC 74FBEDBC
Copy CRC 74FBEDBC
Cannot be verified as accurate (confidence 1) [D117C1B6], AccurateRip returned [20433C8D] (AR v2)
Copy OK

Track 9

Filename G:\Sket4er\Virus – Thoughts (1971) 1991\09 Deeds Of The Past.wav

Peak level 86.5 %
Extraction speed 1.4 X
Track quality 99.9 %
Test CRC 385C6195
Copy CRC 385C6195
Cannot be verified as accurate (confidence 1) [0D79846E], AccurateRip returned [F0D7AC34] (AR v2)
Copy OK

Track 10

Filename G:\Sket4er\Virus – Thoughts (1971) 1991\10 My Strand - Eyed Girl.wav

Peak level 89.2 %
Extraction speed 1.9 X
Track quality 100.0 %
Test CRC 28828275
Copy CRC 28828275
Cannot be verified as accurate (confidence 1) [0B810CFF], AccurateRip returned [F16AB09D] (AR v2)
Copy OK


No tracks could be verified as accurate
You may have a different pressing from the one(s) in the database

No errors occurred

End of status report

–– CUETools DB Plugin V2.1.6

[CTDB TOCID: yfKMW5Y1qB2W9_Ngt6JAZAT20xY-] found
Submit result: yfKMW5Y1qB2W9_Ngt6JAZAT20xY- has been confirmed
Track | CTDB Status
1 | (3/3) Accurately ripped
2 | (3/3) Accurately ripped
3 | (3/3) Accurately ripped
4 | (3/3) Accurately ripped
5 | (3/3) Accurately ripped
6 | (3/3) Accurately ripped
7 | (3/3) Accurately ripped
8 | (3/3) Accurately ripped
9 | (3/3) Accurately ripped
10 | (3/3) Accurately ripped


==== Log checksum 904BD26B58138236B942E582565B9F3B56E087CAB50264554132FC269A8DD6C5 ====


[CUETools log; Date: 19.07.2019 15:41:54; Version: 2.1.4]
[AccurateRip ID: 000fa478-007bdd8b-8d09690a] found.
Track [ CRC | V2 ] Status
01 [c5e3394b|8a96409b] (0+0/2) No match
02 [b9828dde|d11fb04e] (0+0/2) No match
03 [6ed1e66c|694ded58] (0+0/2) No match
04 [d5564f50|b501194d] (0+0/2) No match
05 [b0e9d8fc|1e315c11] (0+0/2) No match
06 [83fe9adb|d416175c] (0+0/2) No match
07 [ab23f204|cda3bc8f] (0+0/2) No match
08 [44539537|d117c1b6] (0+0/2) No match
09 [73518410|0d79846e] (0+0/2) No match
10 [be850580|0b810cff] (0+0/2) No match
Offsetted by 6:
01 [540dba19] (1/2) Accurately ripped
02 [9f28f592] (1/2) Accurately ripped
03 [fcce80d8] (1/2) Accurately ripped
04 [adaca85c] (1/2) Accurately ripped
05 [7e0ac464] (1/2) Accurately ripped
06 [160a5137] (1/2) Accurately ripped
07 [2b23d64c] (1/2) Accurately ripped
08 [20433c8d] (1/2) Accurately ripped
09 [f0d7ac34] (1/2) Accurately ripped
10 [f16ab09d] (1/2) Accurately ripped

Track Peak [ CRC32 ] [W/O NULL] [ LOG ]
– 89,6 [7A2A7001] [5F9525C6]
01 89,6 [C18271E8] [001798CA] CRC32
02 83,7 [BC6863B8] [135FF419] CRC32
03 38,1 [50C75F53] [94C2CFE3] CRC32
04 85,4 [9553C583] [30E1E164] CRC32
05 83,3 [2E93C23C] [07953BBC] CRC32
06 82,7 [283BE244] [C97450A9] CRC32
07 83,4 [6E189A69] [BC9997C5] CRC32
08 83,8 [74FBEDBC] [6FFA171C] CRC32
09 86,5 [385C6195] [563B21A6] CRC32
10 89,2 [28828275] [F62F80F6] CRC32


Virus - Thoughts (1971)

All thanks go to Sket4er

Download Virus - Thoughts (1971):