Subcategories

V.A. - No Thanks! The '70s Punk Rebellion (4CD Box Set,2003)

Posted By: Discograf_man
V.A. - No Thanks! The '70s Punk Rebellion (4CD Box Set,2003)

V.A. - No Thanks! The '70s Punk Rebellion (4CD Box Set,2003)
EAC Rip | FLAC (*tracks+.cue+log) | Run Time: 02:03:45 | 2,04 Gb | Covers 14,34 Mb
Genre: Punk rock, New wave, Post-punk | Label: Rhino

Over 100 tracks that smashed through the bloated excesses of arena rock and disco in the late '70s, cross-licensed from everywhere. Blitzkrieg Bop Ramones; White Riot Clash; Personality Crisis New York Dolls; Neat Neat Neat Damned; See No Evil Television; Free Money Patti Smith; Sonic Reducer Dead Boys; In the City Jam; Pablo Picasso Modern Lovers; Boredom Buzzcocks; Mongoloid Devo; Wasted Black Flag by far the most complete punk collection ever assembled. A 116-page book contains essays, track-by-track commentary and personal recollections!
V.A. - No Thanks! The '70s Punk Rebellion (4CD Box Set,2003)

Tracklist:

Disc 1

01. Ramones - Blitzkrieg Bop (2:12)
02. The Clash - White Riot (1:59)
03. Nick Lowe - Heart Of The City (2:03)
04. Buzzcocks feat. Howard Devoto - Boredom (2:53)
05. The Saints - (I'm) Stranded (3:33)
06. The Damned - Neat Neat Neat (2:42)
07. The Jam - In The City (2:19)
08. Pere Ubu - Final Solution (5:00)
09. The Modern Lovers - Roadrunner (4:06)
10. Television - Little Johnny Jewel (7:06)
11. The Adverts - One Chord Wonders (2:36)
12. The Heartbreakers - Born To Lose (3:02)
13. Iggy & The Stooges - Search And Destroy (3:29)
14. Mink DeVille - Let Me Dream If I Want To (Amphetamine Blues) (2:54)
15. X-Ray Spex - Oh Bondage, Up Yours! (2:50)
16. Wire - 1 2 X U (1:57)
17. Richard Hell & The Voidoids - Blank Generation (2:44)
18. The Stranglers - (Get A) Grip (On Yourself) (4:03)
19. The Runaways - Cherry Bomb (2:19)
20. New York Dolls - Personality Crisis (3:43)
21. Eddie & The Hot Rods - Teenage Depression (2:58)
22. The Dictators - Two Tub Man (3:33)
23. Patti Smith - Hey Joe (Version) (5:08)
24. Generation X - Your Generation (3:17)

Disc 2
01. Iggy Pop - Lust For Life (5:13)
02. The Adverts - Gary Gilmore's Eyes (2:14)
03. Ultravox! - Satday Night In The City Of The Dead (2:34)
04. Buzzcocks - What Do I Get (2:55)
05. Blondie - X Offender (3:12)
06. The Boomtown Rats - Lookin' After No. 1 (3:10)
07. Penatration - Don't Dictate (2:55)
08. The Fall - Bingo Master (2:24)
09. Patti Smith - Free Money (3:51)
10. The Jam - The Modern World (2:32)
11. The Heartbreakers - Chinese Rocks (2:56)
12. The Damned - New Rose (2:44)
13. Subway Sect - Ambition (3:04)
14. Television - See No Evil (4:04)
15. Stiff Little Fingers - Suspect Device (2:43)
16. Wire - Mannequin (2:37)
17. The Vibrators - Baby Baby (3:42)
18. Richard Hell & The Voidoids - Love Comes In Spurts (2:01)
19. The Boys - First Time (2:22)
20. Dead Boys - Sonic Reducer (3:06)
21. Magazine - Shot By Both Sides (4:01)
22. Elvis Costello - Mystery Dance (1:38)
23. New York Dolls - Trash (3:09)
24. X-Ray Spex - The Day The World Turned Day-Glo (2:51)
25. Eddie & The Hot Rods - Do Anything You Wanna Do (4:04)

Disc 3
01. Generation X - Ready Steady Go (2:58)
02. The Undertones - Teenage Kicks (2:26)
03. Ian Dury - Sex & Drugs & Rock & Roll (3:04)
04. Buzzcocks - Ever Fallen In Love (With Someone You Shouldn't've) (2:42)
05. Suicide - Rocket U.S.A. (4:17)
06. Devo - Mongoloid (3:34)
07. 999- Homicide (3:42)
08. The Dils - Mr. Big (1:44)
09. Joy Division - Warsaw (2:26)
10. The Mekons - Where Were You (2:43)
11. The Germs - Lexicon Devil (2:05)
12. The Rezillos - (My Baby Does) Good Sculptures (2:53)
13. The Pretenders - The Wait (3:11)
14. The Weirdos - We Got The Neutron Bomb (3:00)
15. The Modern Lovers - Pablo Picasso (4:22)
16. Alternative TV - Action Time Vision (2:31)
17. Tom Robinson Band - 2-4-6-8 Motorway (3:18)
18. The Avengers - We Are The One (2:41)
19. Sham 69 - Borstal Breakout (2:06)
20. Black Flag - Wasted (0:51)
21. Ramones - Sheena Is A Punk Rocker (2:48)
22. Fear - I Love Livin' In The City (2:12)
23. The Boomtown Rats - She's So Modern (2:58)
24. Rich Kids - Ghosts Of Princes In Towers (3:34)
25. X - We're Desperate (2:01)
26. The Dickies - You Drive Me Ape (You Big Gorilla) (1:53)
27. The Motors - Dancing The Night Away (3:14)

Disc 4
01. Siouxsie & The Banshees - Hong Kong Garden (2:56)
02. Blondie - Hanging On The Telephone (2:21)
03. The Rezillos - Top Of The Pops (3:22)
04. X - Adult Books (3:15)
05. The Members - The Sound Of The Suburbs (3:55)
06. Dead Kennedys - California Uber Alles (3:28)
07. The Only Ones - Another Girl, Another Planet (3:03)
08. The Soft Boys - (I Want To Be An) Anglepoise Lamp (3:00)
09. Elvis Costello & The Attractions - Radio, Radio (3:07)
10. The Slits - Typical Girls (3:55)
11. The Cramps - Human Fly (2:15)
12. Talking Heads - Psycho Killer (4:21)
13. The Ruts - Babylon's Burning (2:32)
14. Sham 69 - If The Kids Are United (3:48)
15. Stiff Little Fingers - Alternative Ulster (2:44)
16. The Cure - Boys Don't Cry (2:41)
17. The Pop Group - She Is Beyond Good And Evil (3:23)
18. Joe Jackson - Is She Really Going Out With Him (3:36)
19. The Undertones - Get Over You (2:44)
20. Gang Of Four - Love Like Anthrax (3:19)
21. The Stranglers - Peaches (4:07)
22. Skids - Into The Valley (3:17)
23. Johnny Thunders - You Can't Put Your Arms Round A Memory (3:04)
24. Joy Division - Love Will Tear Us Apart (3:25)

V.A. - No Thanks! The '70s Punk Rebellion (4CD Box Set,2003)


Exact Audio Copy V0.99 prebeta 5 from 4. May 2009

EAC extraction logfile from 17. October 2009, 14:22

Various / No Thanks! The '70s Punk Rebellion (CD1)

Used drive : PIONEER DVD-RW DVR-116D Adapter: 1 ID: 0

Read mode : Secure
Utilize accurate stream : Yes
Defeat audio cache : Yes
Make use of C2 pointers : No

Read offset correction : 96
Overread into Lead-In and Lead-Out : No
Fill up missing offset samples with silence : Yes
Delete leading and trailing silent blocks : No
Null samples used in CRC calculations : Yes
Used interface : Installed external ASPI interface

Used output format : Internal WAV Routines
Sample format : 44.100 Hz; 16 Bit; Stereo


TOC of the extracted CD

Track | Start | Length | Start sector | End sector
––––––––––––––––––––––––––––-
1 | 0:00.00 | 2:12.47 | 0 | 9946
2 | 2:12.47 | 1:59.31 | 9947 | 18902
3 | 4:12.03 | 2:03.68 | 18903 | 28195
4 | 6:15.71 | 2:53.05 | 28196 | 41175
5 | 9:09.01 | 3:33.46 | 41176 | 57196
6 | 12:42.47 | 2:42.66 | 57197 | 69412
7 | 15:25.38 | 2:19.14 | 69413 | 79851
8 | 17:44.52 | 5:00.37 | 79852 | 102388
9 | 22:45.14 | 4:06.05 | 102389 | 120843
10 | 26:51.19 | 7:06.49 | 120844 | 152842
11 | 33:57.68 | 2:36.27 | 152843 | 164569
12 | 36:34.20 | 3:02.62 | 164570 | 178281
13 | 39:37.07 | 3:29.38 | 178282 | 193994
14 | 43:06.45 | 2:54.36 | 193995 | 207080
15 | 46:01.06 | 2:50.07 | 207081 | 219837
16 | 48:51.13 | 1:57.33 | 219838 | 228645
17 | 50:48.46 | 2:44.23 | 228646 | 240968
18 | 53:32.69 | 4:03.23 | 240969 | 259216
19 | 57:36.17 | 2:19.33 | 259217 | 269674
20 | 59:55.50 | 3:42.71 | 269675 | 286395
21 | 63:38.46 | 2:58.26 | 286396 | 299771
22 | 66:36.72 | 3:33.05 | 299772 | 315751
23 | 70:10.02 | 5:08.13 | 315752 | 338864
24 | 75:18.15 | 3:17.20 | 338865 | 353659


Range status and errors

Selected range

Filename D:\VA - No Thanks! - The '70s Punk Rebellion (4CD, 2003)\CD_1\VA - No Thanks! The '70s Punk Rebellion (CD1).wav

Peak level 96.3 %
Range quality 100.0 %
Copy CRC B8AC4796
Copy OK

No errors occurred


AccurateRip summary

Track 1 accurately ripped (confidence 31) [C059C0C4]
Track 2 accurately ripped (confidence 31) [C255004D]
Track 3 accurately ripped (confidence 30) [F023EC9E]
Track 4 accurately ripped (confidence 30) [B7E3B83C]
Track 5 accurately ripped (confidence 30) [6C3835FC]
Track 6 accurately ripped (confidence 30) [5F22DADC]
Track 7 accurately ripped (confidence 30) [1F95CB47]
Track 8 accurately ripped (confidence 31) [E556E6F0]
Track 9 accurately ripped (confidence 30) [4C6E0777]
Track 10 accurately ripped (confidence 31) [CD79ED8A]
Track 11 accurately ripped (confidence 30) [48B02402]
Track 12 accurately ripped (confidence 31) [8D3C4CFE]
Track 13 accurately ripped (confidence 31) [B7AF14CA]
Track 14 accurately ripped (confidence 31) [A34EE670]
Track 15 accurately ripped (confidence 30) [467F9217]
Track 16 accurately ripped (confidence 30) [06C60C0B]
Track 17 accurately ripped (confidence 31) [AFA399FE]
Track 18 accurately ripped (confidence 30) [3805E245]
Track 19 accurately ripped (confidence 31) [D92BB6C7]
Track 20 accurately ripped (confidence 30) [A0242924]
Track 21 accurately ripped (confidence 31) [9094DFBE]
Track 22 accurately ripped (confidence 30) [0FDC34F7]
Track 23 accurately ripped (confidence 29) [353157A3]
Track 24 accurately ripped (confidence 31) [785C71E7]

All tracks accurately ripped

End of status report

=================================================================

Exact Audio Copy V0.99 prebeta 5 from 4. May 2009

EAC extraction logfile from 17. October 2009, 17:16

Various / No Thanks! The '70s Punk Rebellion (CD2)

Used drive : PIONEER DVD-RW DVR-116D Adapter: 1 ID: 0

Read mode : Secure
Utilize accurate stream : Yes
Defeat audio cache : Yes
Make use of C2 pointers : No

Read offset correction : 96
Overread into Lead-In and Lead-Out : No
Fill up missing offset samples with silence : Yes
Delete leading and trailing silent blocks : No
Null samples used in CRC calculations : Yes
Used interface : Installed external ASPI interface

Used output format : Internal WAV Routines
Sample format : 44.100 Hz; 16 Bit; Stereo


TOC of the extracted CD

Track | Start | Length | Start sector | End sector
––––––––––––––––––––––––––––-
1 | 0:00.00 | 5:13.29 | 0 | 23503
2 | 5:13.29 | 2:14.34 | 23504 | 33587
3 | 7:27.63 | 2:34.25 | 33588 | 45162
4 | 10:02.13 | 2:55.13 | 45163 | 58300
5 | 12:57.26 | 3:12.51 | 58301 | 72751
6 | 16:10.02 | 3:10.31 | 72752 | 87032
7 | 19:20.33 | 2:55.33 | 87033 | 100190
8 | 22:15.66 | 2:24.55 | 100191 | 111045
9 | 24:40.46 | 3:51.28 | 111046 | 128398
10 | 28:31.74 | 2:32.64 | 128399 | 139862
11 | 31:04.63 | 2:55.71 | 139863 | 153058
12 | 34:00.59 | 2:43.71 | 153059 | 165354
13 | 36:44.55 | 3:04.47 | 165355 | 179201
14 | 39:49.27 | 4:04.41 | 179202 | 197542
15 | 43:53.68 | 2:43.56 | 197543 | 209823
16 | 46:37.49 | 2:37.65 | 209824 | 221663
17 | 49:15.39 | 3:42.62 | 221664 | 238375
18 | 52:58.26 | 2:01.21 | 238376 | 247471
19 | 54:59.47 | 2:22.21 | 247472 | 258142
20 | 57:21.68 | 3:06.56 | 258143 | 272148
21 | 60:28.49 | 4:01.03 | 272149 | 290226
22 | 64:29.52 | 1:37.70 | 290227 | 297571
23 | 66:07.47 | 3:09.49 | 297572 | 311795
24 | 69:17.21 | 2:51.24 | 311796 | 324644
25 | 72:08.45 | 4:04.44 | 324645 | 342988


Range status and errors

Selected range

Filename D:\VA - No Thanks! - The '70s Punk Rebellion (4CD, 2003)\CD_2\VA - No Thanks! The '70s Punk Rebellion (CD2).wav

Peak level 97.2 %
Range quality 99.9 %
Copy CRC EA346345
Copy OK

No errors occurred


AccurateRip summary

Track 1 accurately ripped (confidence 29) [80805038]
Track 2 accurately ripped (confidence 28) [BBC15409]
Track 3 accurately ripped (confidence 28) [215FF102]
Track 4 accurately ripped (confidence 28) [41FC67B4]
Track 5 accurately ripped (confidence 29) [B1A0CD9C]
Track 6 accurately ripped (confidence 28) [94B7A171]
Track 7 accurately ripped (confidence 29) [DA49275F]
Track 8 accurately ripped (confidence 28) [EB49F91F]
Track 9 accurately ripped (confidence 28) [0EF3EA23]
Track 10 accurately ripped (confidence 28) [46FBECE4]
Track 11 accurately ripped (confidence 28) [546AE76A]
Track 12 accurately ripped (confidence 28) [C640293D]
Track 13 accurately ripped (confidence 29) [5746D1DC]
Track 14 accurately ripped (confidence 29) [04E985D5]
Track 15 accurately ripped (confidence 28) [C5842549]
Track 16 accurately ripped (confidence 29) [9B3461C9]
Track 17 accurately ripped (confidence 29) [374A0311]
Track 18 accurately ripped (confidence 29) [F4B336A8]
Track 19 accurately ripped (confidence 29) [84DAEC03]
Track 20 accurately ripped (confidence 28) [0E56CAEC]
Track 21 accurately ripped (confidence 28) [261683C9]
Track 22 accurately ripped (confidence 28) [3E9BED4A]
Track 23 accurately ripped (confidence 28) [95BC93CA]
Track 24 accurately ripped (confidence 28) [7A7BA216]
Track 25 accurately ripped (confidence 29) [E9E4EEED]

All tracks accurately ripped

End of status report

========================================================

Exact Audio Copy V0.99 prebeta 5 from 4. May 2009

EAC extraction logfile from 17. October 2009, 17:53

Various / No Thanks! The '70s Punk Rebellion (CD3)

Used drive : PIONEER DVD-RW DVR-116D Adapter: 1 ID: 0

Read mode : Secure
Utilize accurate stream : Yes
Defeat audio cache : Yes
Make use of C2 pointers : No

Read offset correction : 96
Overread into Lead-In and Lead-Out : No
Fill up missing offset samples with silence : Yes
Delete leading and trailing silent blocks : No
Null samples used in CRC calculations : Yes
Used interface : Installed external ASPI interface

Used output format : Internal WAV Routines
Sample format : 44.100 Hz; 16 Bit; Stereo


TOC of the extracted CD

Track | Start | Length | Start sector | End sector
––––––––––––––––––––––––––––-
1 | 0:00.00 | 2:58.12 | 0 | 13361
2 | 2:58.12 | 2:26.24 | 13362 | 24335
3 | 5:24.36 | 3:04.54 | 24336 | 38189
4 | 8:29.15 | 2:42.45 | 38190 | 50384
5 | 11:11.60 | 4:17.64 | 50385 | 69723
6 | 15:29.49 | 3:34.28 | 69724 | 85801
7 | 19:04.02 | 3:42.65 | 85802 | 102516
8 | 22:46.67 | 1:43.72 | 102517 | 110313
9 | 24:30.64 | 2:26.48 | 110314 | 121311
10 | 26:57.37 | 2:43.51 | 121312 | 133587
11 | 29:41.13 | 2:05.01 | 133588 | 142963
12 | 31:46.14 | 2:53.08 | 142964 | 155946
13 | 34:39.22 | 3:11.03 | 155947 | 170274
14 | 37:50.25 | 3:00.24 | 170275 | 183798
15 | 40:50.49 | 4:22.33 | 183799 | 203481
16 | 45:13.07 | 2:31.45 | 203482 | 214851
17 | 47:44.52 | 3:18.50 | 214852 | 229751
18 | 51:03.27 | 2:41.09 | 229752 | 241835
19 | 53:44.36 | 2:06.65 | 241836 | 251350
20 | 55:51.26 | 0:51.48 | 251351 | 255223
21 | 56:42.74 | 2:48.49 | 255224 | 267872
22 | 59:31.48 | 2:11.72 | 267873 | 277769
23 | 61:43.45 | 2:58.39 | 277770 | 291158
24 | 64:42.09 | 3:34.64 | 291159 | 307272
25 | 68:16.73 | 2:01.33 | 307273 | 316380
26 | 70:18.31 | 1:53.65 | 316381 | 324920
27 | 72:12.21 | 3:14.09 | 324921 | 339479


Range status and errors

Selected range

Filename D:\VA - No Thanks! - The '70s Punk Rebellion (4CD, 2003)\CD_3\VA - No Thanks! The '70s Punk Rebellion (CD3).wav

Peak level 97.4 %
Range quality 100.0 %
Copy CRC C6AEFCA4
Copy OK

No errors occurred


AccurateRip summary

Track 1 accurately ripped (confidence 28) [266AB9E2]
Track 2 accurately ripped (confidence 28) [4D87D750]
Track 3 accurately ripped (confidence 29) [899565F0]
Track 4 accurately ripped (confidence 28) [3A8D2BDC]
Track 5 accurately ripped (confidence 29) [393DE27B]
Track 6 accurately ripped (confidence 29) [E509C7B2]
Track 7 accurately ripped (confidence 29) [9C3433CE]
Track 8 accurately ripped (confidence 28) [17F83D59]
Track 9 accurately ripped (confidence 28) [39CB912A]
Track 10 accurately ripped (confidence 28) [C18B5ACF]
Track 11 accurately ripped (confidence 28) [AFA6D63A]
Track 12 accurately ripped (confidence 28) [895FB510]
Track 13 accurately ripped (confidence 28) [D6647F5E]
Track 14 accurately ripped (confidence 28) [BAF687C4]
Track 15 accurately ripped (confidence 29) [1E5ADBF3]
Track 16 accurately ripped (confidence 28) [10FAFC18]
Track 17 accurately ripped (confidence 28) [87D785C8]
Track 18 accurately ripped (confidence 28) [F3DFCBD3]
Track 19 accurately ripped (confidence 28) [B7668650]
Track 20 accurately ripped (confidence 28) [528E2D44]
Track 21 accurately ripped (confidence 27) [E86852DE]
Track 22 accurately ripped (confidence 28) [A1BD7B15]
Track 23 accurately ripped (confidence 28) [AF7934CC]
Track 24 accurately ripped (confidence 28) [822ED55B]
Track 25 accurately ripped (confidence 28) [3025401A]
Track 26 accurately ripped (confidence 28) [057A2295]
Track 27 accurately ripped (confidence 28) [262F21AC]

All tracks accurately ripped

End of status report

=======================================================

Exact Audio Copy V0.99 prebeta 5 from 4. May 2009

EAC extraction logfile from 17. October 2009, 18:43

Various / No Thanks! The '70s Punk Rebellion (CD4)

Used drive : PIONEER DVD-RW DVR-116D Adapter: 1 ID: 0

Read mode : Secure
Utilize accurate stream : Yes
Defeat audio cache : Yes
Make use of C2 pointers : No

Read offset correction : 96
Overread into Lead-In and Lead-Out : No
Fill up missing offset samples with silence : Yes
Delete leading and trailing silent blocks : No
Null samples used in CRC calculations : Yes
Used interface : Installed external ASPI interface

Used output format : Internal WAV Routines
Sample format : 44.100 Hz; 16 Bit; Stereo


TOC of the extracted CD

Track | Start | Length | Start sector | End sector
––––––––––––––––––––––––––––-
1 | 0:00.00 | 2:56.25 | 0 | 13224
2 | 2:56.25 | 2:21.67 | 13225 | 23866
3 | 5:18.17 | 3:22.12 | 23867 | 39028
4 | 8:40.29 | 3:15.40 | 39029 | 53693
5 | 11:55.69 | 3:55.19 | 53694 | 71337
6 | 15:51.13 | 3:28.06 | 71338 | 86943
7 | 19:19.19 | 3:03.22 | 86944 | 100690
8 | 22:22.41 | 3:00.26 | 100691 | 114216
9 | 25:22.67 | 3:07.10 | 114217 | 128251
10 | 28:30.02 | 3:55.59 | 128252 | 145935
11 | 32:25.61 | 2:15.04 | 145936 | 156064
12 | 34:40.65 | 4:20.73 | 156065 | 175637
13 | 39:01.63 | 2:32.32 | 175638 | 187069
14 | 41:34.20 | 3:48.37 | 187070 | 204206
15 | 45:22.57 | 2:44.39 | 204207 | 216545
16 | 48:07.21 | 2:41.56 | 216546 | 228676
17 | 50:49.02 | 3:23.44 | 228677 | 243945
18 | 54:12.46 | 3:36.43 | 243946 | 260188
19 | 57:49.14 | 2:43.73 | 260189 | 272486
20 | 60:33.12 | 3:19.04 | 272487 | 287415
21 | 63:52.16 | 4:07.04 | 287416 | 305944
22 | 67:59.20 | 3:17.31 | 305945 | 320750
23 | 71:16.51 | 3:04.16 | 320751 | 334566
24 | 74:20.67 | 3:25.12 | 334567 | 349953


Range status and errors

Selected range

Filename D:\VA - No Thanks! - The '70s Punk Rebellion (4CD, 2003)\CD_4\VA - No Thanks! The '70s Punk Rebellion (CD4).wav

Peak level 96.1 %
Range quality 100.0 %
Copy CRC D3259A92
Copy OK

No errors occurred


AccurateRip summary

Track 1 accurately ripped (confidence 30) [0D1BC2C6]
Track 2 accurately ripped (confidence 30) [BC06BB56]
Track 3 accurately ripped (confidence 30) [3E6A0CA6]
Track 4 accurately ripped (confidence 29) [7A373A66]
Track 5 accurately ripped (confidence 29) [2FF8146C]
Track 6 accurately ripped (confidence 29) [D06E62DF]
Track 7 accurately ripped (confidence 30) [B8E49F47]
Track 8 accurately ripped (confidence 29) [9201A034]
Track 9 accurately ripped (confidence 29) [BE4BC879]
Track 10 accurately ripped (confidence 30) [8B848522]
Track 11 accurately ripped (confidence 30) [D67D6616]
Track 12 accurately ripped (confidence 31) [2FE0A310]
Track 13 accurately ripped (confidence 30) [CC9948A6]
Track 14 accurately ripped (confidence 30) [1C608F5D]
Track 15 accurately ripped (confidence 30) [6C8D9038]
Track 16 accurately ripped (confidence 31) [733D5215]
Track 17 accurately ripped (confidence 31) [1BD710EC]
Track 18 accurately ripped (confidence 30) [03614DE8]
Track 19 accurately ripped (confidence 31) [11D62DD6]
Track 20 accurately ripped (confidence 30) [5440215D]
Track 21 accurately ripped (confidence 30) [651D1395]
Track 22 accurately ripped (confidence 30) [6E62DA0F]
Track 23 accurately ripped (confidence 30) [415D86C7]
Track 24 accurately ripped (confidence 30) [DD088146]

All tracks accurately ripped

End of status report

============================================================