Subcategories

V.A. - Obsessions (1992)

Posted By: gribovar
V.A. - Obsessions (1992)

V.A. - Obsessions (1992)
EAC Rip | FLAC (image+.cue+log) - 428 MB | MP3 CBR 320 kbps (LAME 3.93) - 156 MB | Covers - 123 MB
Genre: New Age, Electronic | RAR 3% Rec. | Label: Innovative Communication (IC 720.147)

Erotic music. Bodies in harmony. Songs for making love. Sexy music. Dangerous. Touch, feel, smell, demand. Exploring the curves, following inner desires. Explosive and sensuous.
Dancing Fantasy, Software, G.E.N.E., Megabyte, Mind Over Matter and Peter Seiler.
The booklet contains erotic photographies of Gunter Blum!
Tracklist:
01. Dancing Fantasy - Voodoo Jammin - The Eros Mix
02. Software - Modesty Blaze - The free Voice Mix
03. Dancing Fantasy - Cairo Whispers
04. G.E.N.E. - Faru Love Affair - The Voice-Mix
05. Megabyte - Take off (for your last flight)
06. Mind Over Matter - Jack the Bear - The Dance Version
07. Megabyte - Relax
08. G.E.N.E. - Diamonds in the Sky
09. Mind Over Matter - Sentimental Russia
10. Peter Seiler - Waiting for Fall - The New Mix
11. Software - Present Voice
12. Software - I love you - The Hard Mix
13. Peter Seiler - Das Lied Salomons

Total time: 01:06:16

Exact Audio Copy V1.5 from 20. February 2020

EAC extraction logfile from 27. September 2020, 13:11

Various Artists / Obsessions

Used drive : TEAC CD-W540E Adapter: 1 ID: 0

Read mode : Secure
Utilize accurate stream : Yes
Defeat audio cache : Yes
Make use of C2 pointers : No

Read offset correction : 686
Overread into Lead-In and Lead-Out : No
Fill up missing offset samples with silence : Yes
Delete leading and trailing silent blocks : No
Null samples used in CRC calculations : Yes
Used interface : Native Win32 interface for Win NT & 2000

Used output format : User Defined Encoder
Selected bitrate : 896 kBit/s
Quality : High
Add ID3 tag : No
Command line compressor : C:\flac.exe
Additional command line options : -6 -V -T "ARTIST=%artist%" -T "TITLE=%title%" -T "ALBUM=%albumtitle%" -T "DATE=%year%" -T "TRACKNUMBER=%tracknr%" -T "GENRE=%genre%" -T "COMMENT=ripped by mag_vitaly" %source%


TOC of the extracted CD

Track | Start | Length | Start sector | End sector
––––––––––––––––––––––––––––-
1 | 0:00.00 | 6:34.00 | 0 | 29549
2 | 6:34.00 | 3:44.00 | 29550 | 46349
3 | 10:18.00 | 4:49.00 | 46350 | 68024
4 | 15:07.00 | 3:58.00 | 68025 | 85874
5 | 19:05.00 | 4:25.00 | 85875 | 105749
6 | 23:30.00 | 6:23.00 | 105750 | 134474
7 | 29:53.00 | 4:45.00 | 134475 | 155849
8 | 34:38.00 | 4:06.00 | 155850 | 174299
9 | 38:44.00 | 4:51.00 | 174300 | 196124
10 | 43:35.00 | 4:09.00 | 196125 | 214799
11 | 47:44.00 | 9:36.00 | 214800 | 257999
12 | 57:20.00 | 3:52.00 | 258000 | 275399
13 | 61:12.00 | 5:04.00 | 275400 | 298199


Range status and errors

Selected range

Filename C:\1992 - VA - Obsessions (#IC 720.147)\VA - Obsessions.wav

Peak level 80.1 %
Extraction speed 7.7 X
Range quality 100.0 %
Test CRC EFC59250
Copy CRC EFC59250
Copy OK

No errors occurred


AccurateRip summary

Track 1 accurately ripped (confidence 10) [66268257] (AR v2)
Track 2 accurately ripped (confidence 10) [7DC4513A] (AR v2)
Track 3 accurately ripped (confidence 10) [541EE50B] (AR v2)
Track 4 accurately ripped (confidence 10) [BCA89375] (AR v2)
Track 5 accurately ripped (confidence 10) [A83D5BED] (AR v2)
Track 6 accurately ripped (confidence 10) [A59E0FAF] (AR v2)
Track 7 accurately ripped (confidence 10) [DE005C25] (AR v2)
Track 8 accurately ripped (confidence 10) [97EB62B1] (AR v2)
Track 9 accurately ripped (confidence 10) [C103A789] (AR v2)
Track 10 accurately ripped (confidence 10) [036F4D40] (AR v2)
Track 11 accurately ripped (confidence 10) [078EA31C] (AR v2)
Track 12 accurately ripped (confidence 10) [0C08B769] (AR v2)
Track 13 accurately ripped (confidence 10) [D623444C] (AR v2)

All tracks accurately ripped

End of status report

==== Log checksum B3EF3C96C2AAAB7257EBE3C174063EC9BFA7EFF6C5BD05B8603124FFA0861F6D ====

[CUETools log; Date: 18.10.2020 18:44:44; Version: 2.1.4]
[CTDB TOCID: RBCPCbI7oGnHBwvSoIVeV.Jsw.s-] found.
Track | CTDB Status
1 | (29/30) Accurately ripped
2 | (30/30) Accurately ripped
3 | (30/30) Accurately ripped
4 | (30/30) Accurately ripped
5 | (30/30) Accurately ripped
6 | (28/30) Accurately ripped
7 | (28/30) Accurately ripped
8 | (29/30) Accurately ripped
9 | (29/30) Accurately ripped
10 | (28/30) Accurately ripped
11 | (28/30) Accurately ripped
12 | (29/30) Accurately ripped
13 | (29/30) Accurately ripped
[AccurateRip ID: 001f2b4c-01384951-b70f880d] found.
Track [ CRC | V2 ] Status
01 [1337a0ef|66268257] (02+10/12) Accurately ripped
02 [8515c4e5|7dc4513a] (02+10/12) Accurately ripped
03 [c65ccbf2|541ee50b] (02+10/12) Accurately ripped
04 [11af6ac0|bca89375] (02+10/12) Accurately ripped
05 [1a8ddc69|a83d5bed] (02+10/12) Accurately ripped
06 [9b516fa2|a59e0faf] (02+10/12) Accurately ripped
07 [eed7319a|de005c25] (02+10/12) Accurately ripped
08 [0c71ebdf|97eb62b1] (02+10/12) Accurately ripped
09 [84081d7c|c103a789] (02+10/12) Accurately ripped
10 [d247e360|036f4d40] (02+10/12) Accurately ripped
11 [7f2f8bc9|078ea31c] (02+10/12) Accurately ripped
12 [c8c392d8|0c08b769] (02+10/12) Accurately ripped
13 [58abeecc|d623444c] (02+10/12) Accurately ripped
Offsetted by -119:
01 [4f16b450] (00/12) No match (V2 was not tested)
02 [d3fffe81] (00/12) No match (V2 was not tested)
03 [71ca841b] (00/12) No match (V2 was not tested)
04 [cf818ed5] (00/12) No match (V2 was not tested)
05 [5d324907] (00/12) No match (V2 was not tested)
06 [3bc32dba] (00/12) No match (V2 was not tested)
07 [56874f6d] (00/12) No match (V2 was not tested)
08 [57e60d19] (00/12) No match (V2 was not tested)
09 [093205cc] (00/12) No match (V2 was not tested)
10 [40c09d4a] (00/12) No match (V2 was not tested)
11 [92ff1833] (00/12) No match (V2 was not tested)
12 [c769cbc5] (00/12) No match (V2 was not tested)
13 [5c6a237d] (00/12) No match (V2 was not tested)

Track Peak [ CRC32 ] [W/O NULL] [ LOG ]
– 80,1 [EFC59250] [D2042CD3] CRC32
01 80,1 [988EFC27] [827C9A0A]
02 80,1 [CC5CA80B] [B8F94A03]
03 80,1 [39C27A81] [65B253EA]
04 80,1 [46853B19] [16BE19F2]
05 80,1 [9FCE9F11] [E2FDB645]
06 80,1 [1BDB3C38] [B758F8C9]
07 80,1 [106F8E40] [FCEBB2F3]
08 80,1 [3935B286] [E89388EB]
09 80,1 [A74D1D10] [E983F204]
10 80,1 [77A0E1E6] [22F48B61]
11 80,1 [CBAADD8F] [323EDC59]
12 80,1 [AB8478D8] [5AACB457]
13 76,7 [144FDEB2] [963ED1E7]

Thanks to mag23847