Subcategories

VA - The Great Harp Players 1927-1936 (1992) Reissue 2007

Posted By: Designol
VA - The Great Harp Players 1927-1936 (1992) Reissue 2007

VA - The Great Harp Players 1927-1936 (1992) Reissue 2007
EAC | FLAC | Tracks (Cue&Log) ~ 256 Mb | Mp3 (CBR320) ~ 182 Mb | Scans included | 01:16:53
Pre-War Blues, Folk-Blues, Vaudeville Blues | Label: Document | # DOCD-5100

Although one may think of the blues harp beginning with Little Walter, the first Sonny Boy Williamson, or Sonny Terry, a variety of harmonica players did record in the '20s. Some of their recordings were technical displays that featured them imitating everything from animals to trains, while other players were more blues-oriented. This valuable CD has two selections from the guitar-harmonica team of William Francis and Richard Sowell; Ollis Martin's "Police and High Sheriff Come Ridin' Down"; six pieces by Eli Watson (including "El Watson's Fox Chase"); two cuts apiece by Palmer McAbee, Ellis Williams, Alfred Lewis, and the team of Smith & Harper (which is the only music on this CD recorded after 1930); plus four songs/displays from Blues Birdhead (including "Get up off That Jazzophone") and George "Bullet" Williams (highlighted by "Frisco Leaving Birmingham" and "The Escaped Convict"). Fascinating music.

Review by Scott Yanow, Allmusic.com

The great figures of city and down-home blues-harp playing from Sonny Boy Williamson onwards are household names to blues enthusiasts and their work, lives, and inter-relationships have been extensively studied. Their forbears have not, partly no doubt because of the very small recorded legacy of players such as those represented here. The harmonica lends itself to mimicry, to the playing of “party pieces” in imitation of the sounds of the countryside, agriculture and machinery. The one country harp player well-known when critical standards were being formed, Sonny Terry, played and recorded a good many such pieces. Imitative pieces were popular in old-time music also and there was some overlap in styles. Palmer McAbee‘s coupling is labelled “hillbilly” on Victor’s session sheet. This is conclusive evidence only that the company thought the record would sell better in that market than the “Race” market, but that in itself is suggestive. The consensus has been that this is an African-American performer but the jury is still out and with only two train imitations to go on is quite likely to stay out permanently unless biographical data comes to light. George “Bullet” Williams, who came from Alabama, worked with Booker T. (Bukka) White around Glendora and West Point, Mississippi, in the late twenties. White said that, “He was the best”, but he was an incurable alcoholic addicted to crude alcohol and going down fast. His Frisco Leaving Birmingham and El Watson‘s Narrow Gauge Blues move a further stage towards personal expression. El Watson‘s blues credentials are aurally not in doubt. He packs a considerable rhythmic and expressive punch, even managing a hot waltz – but he apparently also recorded at his first session with the white Johnson Brothers and one of them can be heard chugging along on guitar behind Pot Licker Blues. Richard Sowell applies the basic techniques to the ballad tradition to good effect, but Ellis Williams, and especially Alfred Lewis, demonstrate a more developed sensibility. Lewis merges harp and voice into inspired improvisations of soaring rhythmic and emotional power. Technique is now at the service of content. The harmonica was not widely used in instrumental jazz in the vintage era. Its most extensively recorded exponent, Robert Cooksey, is heard playing second harp on El Watson‘s Fox Chase. Blues Birdhead (James Simon) was also familiar with contemporary jazz and with the Bubbling Over Five recorded what most have regarded as a jazz performance. According to the OKeh files, the vocalist on these is one Bob Brown, who also made two unissued titles at the same session. No doubt it is his choice of repertoire – Mammy’s Little Rolling Stone and Shine On Virginia Moon – which has led jazz discographers to speculate that he belongs to country music. Smith & Harper – no one seems to know which is which – end this varied survey by carrying it into the field of more conventional sounding blues duets. Finally, a curious footnote: the bones player was a ubiquitous symbol of minstrelsy but by the era of “Race” records was a rare and distinctly old-fashioned being. His anonymous appearance on Bay Rum Blues is therefore to be cherished, but the equally anonymous spoons player on Buttermilk Blues certainly carries his business on.

Howard Rye, original booklet notes


Tracklist:

01. William Francis & Richard Sowell - John Henry Blues (3:04)
02. William Francis & Richard Sowell - Roubin Blues (3:07)
03. Ollis Martin - Police and High Sheriff Come Ridin' Down (3:02)
04. El Watson - Pot Licker Blues (2:55)
05. El Watson - Narrow Gauge Blues (3:02)
06. El Watson - El Watson's Fox Chase (2:55)
07. El Watson - Bay Rum Blues (2:56)
08. El Watson - Sweet Bunch of Daisies (2:48)
09. El Watson - One Sock Blues (2:54)
10. Palmer McAbee - Lost Boy Blues (3:32)
11. Palmer McAbee - McAbee's Railroad Piece (3:10)
12. George 'Bullet' Williams - Touch Me Light Mama (2:48)
13. George 'Bullet' Williams - Frisco Leaving Birmingham (2:46)
14. George 'Bullet' Williams - The Escaped Convict (2:58)
15. George 'Bullet' Williams - Middlin' Blues (2:47)
16. Blues Birdhead - Don't Mistreat Your Good Boy Friend (3:16)
17. Blues Birdhead - Get Up Off That Jazzophone (3:31)
18. Blues Birdhead - Mean Low Blues (3:24)
19. Blues Birdhead - Harmonica Blues (3:50)
20. Ellis Williams - Buttermilk Blues (3:12)
21. Ellis Williams - Smokey Blues (3:06)
22. Alfred Lewis - Mississippi Swamp Blues (3:25)
23. Alfred Lewis - Friday Moan Blues (3:14)
24. Smith and Harper - Poor Girl (2:32)
25. Smith and Harper - Insurance Policy Blues (2:39)


Exact Audio Copy V1.0 beta 3 from 29. August 2011

EAC extraction logfile from 6. October 2014, 19:45

Various Artists / Great Harp Players (1927-1936)

Used drive : HL-DT-STDVD+-RW GHA2N Adapter: 0 ID: 0

Read mode : Secure
Utilize accurate stream : Yes
Defeat audio cache : Yes
Make use of C2 pointers : No

Read offset correction : 667
Overread into Lead-In and Lead-Out : No
Fill up missing offset samples with silence : Yes
Delete leading and trailing silent blocks : No
Null samples used in CRC calculations : Yes
Used interface : Native Win32 interface for Win NT & 2000
Gap handling : Appended to previous track

Used output format : User Defined Encoder
Selected bitrate : 896 kBit/s
Quality : High
Add ID3 tag : No
Command line compressor : C:\Program Files (x86)\Exact Audio Copy\Flac\flac.exe
Additional command line options : -8 -V -T "ARTIST=%artist%" -T "TITLE=%title%" -T "ALBUM=%albumtitle%" -T "DATE=%year%" -T "TRACKNUMBER=%tracknr%" -T "GENRE=%genre%" -T "PERFORMER=%albuminterpret%" -T "COMPOSER=%composer%" %haslyrics%–tag-from-file=LYRICS="%lyricsfile%"%haslyrics% -T "ALBUMARTIST=%albumartist%" -T "DISCNUMBER=%cdnumber%" -T "TOTALDISCS=%totalcds%" -T "TOTALTRACKS=%numtracks%" -T "COMMENT=%comment%" %source% -o %dest%


TOC of the extracted CD

Track | Start | Length | Start sector | End sector
––––––––––––––––––––––––––––-
1 | 0:00.00 | 3:03.47 | 0 | 13771
2 | 3:03.47 | 3:07.20 | 13772 | 27816
3 | 6:10.67 | 3:01.70 | 27817 | 41461
4 | 9:12.62 | 2:55.20 | 41462 | 54606
5 | 12:08.07 | 3:02.00 | 54607 | 68256
6 | 15:10.07 | 2:54.65 | 68257 | 81371
7 | 18:04.72 | 2:56.23 | 81372 | 94594
8 | 21:01.20 | 2:48.07 | 94595 | 107201
9 | 23:49.27 | 2:54.15 | 107202 | 120266
10 | 26:43.42 | 3:32.18 | 120267 | 136184
11 | 30:15.60 | 3:10.37 | 136185 | 150471
12 | 33:26.22 | 2:47.65 | 150472 | 163061
13 | 36:14.12 | 2:45.53 | 163062 | 175489
14 | 38:59.65 | 2:57.57 | 175490 | 188821
15 | 41:57.47 | 2:46.58 | 188822 | 201329
16 | 44:44.30 | 3:16.22 | 201330 | 216051
17 | 48:00.52 | 3:30.53 | 216052 | 231854
18 | 51:31.30 | 3:23.62 | 231855 | 247141
19 | 54:55.17 | 3:49.43 | 247142 | 264359
20 | 58:44.60 | 3:11.67 | 264360 | 278751
21 | 61:56.52 | 3:06.08 | 278752 | 292709
22 | 65:02.60 | 3:25.05 | 292710 | 308089
23 | 68:27.65 | 3:14.30 | 308090 | 322669
24 | 71:42.20 | 2:31.60 | 322670 | 334054
25 | 74:14.05 | 2:39.25 | 334055 | 346004


Track 1

Filename C:\What CD\European Episode\01 William Francis & Richard Sowell - John Henry Blues.wav

Pre-gap length 0:00:02.00

Peak level 93.6 %
Extraction speed 1.7 X
Track quality 100.0 %
Test CRC C5910162
Copy CRC C5910162
Cannot be verified as accurate (confidence 1) [476BC4C0], AccurateRip returned [4E925B75] (AR v2)
Copy OK

Track 2

Filename C:\What CD\European Episode\02 William Francis & Richard Sowell - Roubin Blues.wav

Peak level 93.9 %
Extraction speed 1.9 X
Track quality 100.0 %
Test CRC A89EF270
Copy CRC A89EF270
Cannot be verified as accurate (confidence 1) [61AF14EA], AccurateRip returned [1224DC7B] (AR v2)
Copy OK

Track 3

Filename C:\What CD\European Episode\03 Ollis Martin - Police and High Sheriff Come Ridin' Down.wav

Peak level 85.9 %
Extraction speed 1.7 X
Track quality 99.9 %
Test CRC FD4F1031
Copy CRC FD4F1031
Cannot be verified as accurate (confidence 1) [53401E0D], AccurateRip returned [3F02992B] (AR v2)
Copy OK

Track 4

Filename C:\What CD\European Episode\04 El Watson - Pot Licker Blues.wav

Peak level 89.6 %
Extraction speed 1.7 X
Track quality 99.9 %
Test CRC A6760CF6
Copy CRC A6760CF6
Cannot be verified as accurate (confidence 1) [3AC311C7], AccurateRip returned [33F202F6] (AR v2)
Copy OK

Track 5

Filename C:\What CD\European Episode\05 El Watson - Narrow Gauge Blues.wav

Peak level 90.1 %
Extraction speed 2.2 X
Track quality 100.0 %
Test CRC EF12E700
Copy CRC EF12E700
Cannot be verified as accurate (confidence 1) [A5C9117C], AccurateRip returned [28E00579] (AR v2)
Copy OK

Track 6

Filename C:\What CD\European Episode\06 El Watson - El Watson's Fox Chase.wav

Peak level 77.9 %
Extraction speed 2.3 X
Track quality 100.0 %
Test CRC 3F63D022
Copy CRC 3F63D022
Cannot be verified as accurate (confidence 1) [56C87751], AccurateRip returned [859A8781] (AR v2)
Copy OK

Track 7

Filename C:\What CD\European Episode\07 El Watson - Bay Rum Blues.wav

Peak level 99.9 %
Extraction speed 2.0 X
Track quality 99.9 %
Test CRC 3CB8B3A3
Copy CRC 3CB8B3A3
Cannot be verified as accurate (confidence 1) [0C1913EF], AccurateRip returned [740269A4] (AR v2)
Copy OK

Track 8

Filename C:\What CD\European Episode\08 El Watson - Sweet Bunch of Daisies.wav

Peak level 87.4 %
Extraction speed 2.5 X
Track quality 100.0 %
Test CRC DDCCC767
Copy CRC DDCCC767
Cannot be verified as accurate (confidence 1) [74EDD0A6], AccurateRip returned [5255E713] (AR v2)
Copy OK

Track 9

Filename C:\What CD\European Episode\09 El Watson - One Sock Blues.wav

Peak level 70.5 %
Extraction speed 2.5 X
Track quality 100.0 %
Test CRC 86DB7B14
Copy CRC 86DB7B14
Cannot be verified as accurate (confidence 1) [0EA4FF80], AccurateRip returned [ED4A94C9] (AR v2)
Copy OK

Track 10

Filename C:\What CD\European Episode\10 Palmer McAbee - Lost Boy Blues.wav

Peak level 65.4 %
Extraction speed 2.8 X
Track quality 100.0 %
Test CRC 799D688D
Copy CRC 799D688D
Cannot be verified as accurate (confidence 1) [70C8ABCB], AccurateRip returned [3BFB7631] (AR v2)
Copy OK

Track 11

Filename C:\What CD\European Episode\11 Palmer McAbee - McAbee's Railroad Piece.wav

Peak level 100.0 %
Extraction speed 2.8 X
Track quality 100.0 %
Test CRC C1491A10
Copy CRC C1491A10
Cannot be verified as accurate (confidence 1) [E470E506], AccurateRip returned [28730726] (AR v2)
Copy OK

Track 12

Filename C:\What CD\European Episode\12 George ''Bullet'' Williams - Touch Me Light Mama.wav

Peak level 54.8 %
Extraction speed 2.7 X
Track quality 100.0 %
Test CRC 8AA2AF5D
Copy CRC 8AA2AF5D
Cannot be verified as accurate (confidence 1) [C12F9833], AccurateRip returned [6A8BE0D7] (AR v2)
Copy OK

Track 13

Filename C:\What CD\European Episode\13 George ''Bullet'' Williams - Frisco Leaving Birmingham.wav

Peak level 52.6 %
Extraction speed 2.9 X
Track quality 100.0 %
Test CRC 0C528C18
Copy CRC 0C528C18
Cannot be verified as accurate (confidence 1) [F5F818E5], AccurateRip returned [AB71219A] (AR v2)
Copy OK

Track 14

Filename C:\What CD\European Episode\14 George ''Bullet'' Williams - The Escaped Convict.wav

Peak level 79.0 %
Extraction speed 3.0 X
Track quality 100.0 %
Test CRC 24BA981D
Copy CRC 24BA981D
Cannot be verified as accurate (confidence 1) [3AA0F176], AccurateRip returned [FC559D10] (AR v2)
Copy OK

Track 15

Filename C:\What CD\European Episode\15 George ''Bullet'' Williams - Middlin' Blues.wav

Peak level 61.5 %
Extraction speed 3.0 X
Track quality 100.0 %
Test CRC 86EB9483
Copy CRC 86EB9483
Cannot be verified as accurate (confidence 1) [AD343E1D], AccurateRip returned [F4AF5CCA] (AR v2)
Copy OK

Track 16

Filename C:\What CD\European Episode\16 Blues Birdhead - Don't Mistreat Your Good Boy Friend.wav

Peak level 72.5 %
Extraction speed 3.2 X
Track quality 100.0 %
Test CRC 807FA8F6
Copy CRC 807FA8F6
Cannot be verified as accurate (confidence 1) [7588C872], AccurateRip returned [1F7FB4DF] (AR v2)
Copy OK

Track 17

Filename C:\What CD\European Episode\17 Blues Birdhead - Get Up Off That Jazzophone.wav

Peak level 75.6 %
Extraction speed 3.3 X
Track quality 100.0 %
Test CRC 68847618
Copy CRC 68847618
Cannot be verified as accurate (confidence 1) [DB17FAB1], AccurateRip returned [859B9203] (AR v2)
Copy OK

Track 18

Filename C:\What CD\European Episode\18 Blues Birdhead - Mean Low Blues.wav

Peak level 64.3 %
Extraction speed 2.8 X
Track quality 99.9 %
Test CRC 484EF92C
Copy CRC 484EF92C
Cannot be verified as accurate (confidence 1) [5335AE38], AccurateRip returned [A638A42B] (AR v2)
Copy OK

Track 19

Filename C:\What CD\European Episode\19 Blues Birdhead - Harmonica Blues.wav

Peak level 84.3 %
Extraction speed 3.5 X
Track quality 100.0 %
Test CRC 40B3CFC1
Copy CRC 40B3CFC1
Cannot be verified as accurate (confidence 1) [1C16DE2F], AccurateRip returned [933A3FE3] (AR v2)
Copy OK

Track 20

Filename C:\What CD\European Episode\20 Ellis Williams - Buttermilk Blues.wav

Peak level 100.0 %
Extraction speed 2.9 X
Track quality 99.9 %
Test CRC 0BE87B7B
Copy CRC 0BE87B7B
Cannot be verified as accurate (confidence 1) [AA7849FA], AccurateRip returned [3D3AF54A] (AR v2)
Copy OK

Track 21

Filename C:\What CD\European Episode\21 Ellis Williams - Smokey Blues.wav

Peak level 73.2 %
Extraction speed 3.4 X
Track quality 100.0 %
Test CRC E83E4220
Copy CRC E83E4220
Cannot be verified as accurate (confidence 1) [6F50BDE0], AccurateRip returned [690DB788] (AR v2)
Copy OK

Track 22

Filename C:\What CD\European Episode\22 Alfred Lewis - Mississippi Swamp Blues.wav

Peak level 59.0 %
Extraction speed 3.6 X
Track quality 100.0 %
Test CRC C0278A8B
Copy CRC C0278A8B
Cannot be verified as accurate (confidence 1) [15A61760], AccurateRip returned [8450447D] (AR v2)
Copy OK

Track 23

Filename C:\What CD\European Episode\23 Alfred Lewis - Friday Moan Blues.wav

Peak level 69.6 %
Extraction speed 3.6 X
Track quality 100.0 %
Test CRC E2E7F862
Copy CRC E2E7F862
Cannot be verified as accurate (confidence 1) [E941AA81], AccurateRip returned [7D1DFA90] (AR v2)
Copy OK

Track 24

Filename C:\What CD\European Episode\24 Smith and Harper - Poor Girl.wav

Peak level 99.5 %
Extraction speed 3.7 X
Track quality 100.0 %
Test CRC 61059065
Copy CRC 61059065
Cannot be verified as accurate (confidence 1) [5D8F18B7], AccurateRip returned [C2A55CDD] (AR v2)
Copy OK

Track 25

Filename C:\What CD\European Episode\25 Smith and Harper - Insurance Policy Blues.wav

Peak level 77.0 %
Extraction speed 3.8 X
Track quality 100.0 %
Test CRC 00EA814C
Copy CRC 00EA814C
Cannot be verified as accurate (confidence 1) [DD028C83], AccurateRip returned [56660C17] (AR v2)
Copy OK


No tracks could be verified as accurate
You may have a different pressing from the one(s) in the database

No errors occurred

End of status report

==== Log checksum 30366CE7F7D9383041365C7E123F9E066820892EE5918B827ADB6250E12C5A5A ====

[CUETools log; Date: 31.03.2018 0:26:29; Version: 2.1.4]
[CTDB TOCID: cegT.4HbY8BGu8KccT5dDmepBVo-] found.
Track | CTDB Status
1 | (3/3) Accurately ripped
2 | (3/3) Accurately ripped
3 | (3/3) Accurately ripped
4 | (3/3) Accurately ripped
5 | (3/3) Accurately ripped
6 | (3/3) Accurately ripped
7 | (3/3) Accurately ripped
8 | (3/3) Accurately ripped
9 | (3/3) Accurately ripped
10 | (3/3) Accurately ripped
11 | (3/3) Accurately ripped
12 | (3/3) Accurately ripped
13 | (3/3) Accurately ripped
14 | (3/3) Accurately ripped
15 | (3/3) Accurately ripped
16 | (3/3) Accurately ripped
17 | (3/3) Accurately ripped
18 | (3/3) Accurately ripped
19 | (3/3) Accurately ripped
20 | (3/3) Accurately ripped
21 | (3/3) Accurately ripped
22 | (3/3) Accurately ripped
23 | (3/3) Accurately ripped
24 | (3/3) Accurately ripped
25 | (3/3) Accurately ripped
[AccurateRip ID: 004426e3-04cf317f-64120519] found.
Track [ CRC | V2 ] Status
01 [8bdb1286|476bc4c0] (0+0/2) No match
02 [f7c8ad55|61af14ea] (0+0/2) No match
03 [d9e8596e|53401e0d] (0+0/2) No match
04 [4db320d0|3ac311c7] (0+0/2) No match
05 [bed5a091|a5c9117c] (0+0/2) No match
06 [2d0d25a8|56c87751] (0+0/2) No match
07 [3b54df05|0c1913ef] (0+0/2) No match
08 [b31eb949|74edd0a6] (0+0/2) No match
09 [f0311f88|0ea4ff80] (0+0/2) No match
10 [6964ea82|70c8abcb] (0+0/2) No match
11 [96f5323f|e470e506] (0+0/2) No match
12 [71747927|c12f9833] (0+0/2) No match
13 [005ae5be|f5f818e5] (0+0/2) No match
14 [09357810|3aa0f176] (0+0/2) No match
15 [d4b5e6ac|ad343e1d] (0+0/2) No match
16 [29346d69|7588c872] (0+0/2) No match
17 [8e4c0773|db17fab1] (0+0/2) No match
18 [3ba7e8bd|5335ae38] (0+0/2) No match
19 [d56b08c6|1c16de2f] (0+0/2) No match
20 [341f6c15|aa7849fa] (0+0/2) No match
21 [f9b14cd6|6f50bde0] (0+0/2) No match
22 [64051123|15a61760] (0+0/2) No match
23 [44d516c4|e941aa81] (0+0/2) No match
24 [6aa20ccb|5d8f18b7] (0+0/2) No match
25 [2e3bd271|dd028c83] (0+0/2) No match
Offsetted by 95:
01 [4e925b75] (1/2) Accurately ripped
02 [1224dc7b] (1/2) Accurately ripped
03 [3f02992b] (1/2) Accurately ripped
04 [33f202f6] (1/2) Accurately ripped
05 [28e00579] (1/2) Accurately ripped
06 [859a8781] (1/2) Accurately ripped
07 [740269a4] (1/2) Accurately ripped
08 [5255e713] (1/2) Accurately ripped
09 [ed4a94c9] (1/2) Accurately ripped
10 [3bfb7631] (1/2) Accurately ripped
11 [28730726] (1/2) Accurately ripped
12 [6a8be0d7] (1/2) Accurately ripped
13 [ab71219a] (1/2) Accurately ripped
14 [fc559d10] (1/2) Accurately ripped
15 [f4af5cca] (1/2) Accurately ripped
16 [1f7fb4df] (1/2) Accurately ripped
17 [859b9203] (1/2) Accurately ripped
18 [a638a42b] (1/2) Accurately ripped
19 [933a3fe3] (1/2) Accurately ripped
20 [3d3af54a] (1/2) Accurately ripped
21 [690db788] (1/2) Accurately ripped
22 [8450447d] (1/2) Accurately ripped
23 [7d1dfa90] (1/2) Accurately ripped
24 [c2a55cdd] (1/2) Accurately ripped
25 [56660c17] (1/2) Accurately ripped

Track Peak [ CRC32 ] [W/O NULL] [ LOG ]
– 100,0 [2CAAC3E0] [D03C82D5]
01 93,6 [C5910162] [CBC489E3] CRC32
02 93,9 [A89EF270] [F1E711D7] CRC32
03 85,9 [FD4F1031] [B2A78A5D] CRC32
04 89,6 [A6760CF6] [59A3E71A] CRC32
05 90,1 [EF12E700] [9BE1652A] CRC32
06 77,9 [3F63D022] [2E012B1E] CRC32
07 99,9 [3CB8B3A3] [43C59DE3] CRC32
08 87,4 [DDCCC767] [684FEDC2] CRC32
09 70,5 [86DB7B14] [36E3D4F9] CRC32
10 65,4 [799D688D] [A99DB0CF] CRC32
11 100,0 [C1491A10] [DD308F7F] CRC32
12 54,8 [8AA2AF5D] [673A2773] CRC32
13 52,6 [0C528C18] [9E957DA8] CRC32
14 79,0 [24BA981D] [1E318FE0] CRC32
15 61,5 [86EB9483] [A126B727] CRC32
16 72,5 [807FA8F6] [C59D41C4] CRC32
17 75,6 [68847618] [B4B0A19C] CRC32
18 64,3 [484EF92C] [F82E2942] CRC32
19 84,3 [40B3CFC1] [D34E776E] CRC32
20 100,0 [0BE87B7B] [4C065854] CRC32
21 73,2 [E83E4220] [EF9DA539] CRC32
22 59,0 [C0278A8B] [A2B03E5B] CRC32
23 69,6 [E2E7F862] [0CD1B8DF] CRC32
24 99,5 [61059065] [B208DB1F] CRC32
25 77,0 [00EA814C] [92D27E21] CRC32

foobar2000 1.2 / Dynamic Range Meter 1.1.1
log date: 2018-03-31 00:16:16

––––––––––––––––––––––––––––––––––––––––
Analyzed: Various Artists / Great Harp Players (1927-1936)
––––––––––––––––––––––––––––––––––––––––

DR Peak RMS Duration Track
––––––––––––––––––––––––––––––––––––––––
DR10 -0.57 dB -14.32 dB 3:04 01-William Francis & Richard Sowell - John Henry Blues
DR9 -0.54 dB -13.91 dB 3:07 02-William Francis & Richard Sowell - Roubin Blues
DR10 -1.32 dB -14.99 dB 3:02 03-Ollis Martin - Police and High Sheriff Come Ridin' Down
DR11 -0.95 dB -15.19 dB 2:55 04-El Watson - Pot Licker Blues
DR12 -0.91 dB -15.76 dB 3:02 05-El Watson - Narrow Gauge Blues
DR11 -2.17 dB -16.97 dB 2:55 06-El Watson - El Watson's Fox Chase
DR13 -0.01 dB -15.36 dB 2:56 07-El Watson - Bay Rum Blues
DR12 -1.17 dB -16.21 dB 2:48 08-El Watson - Sweet Bunch of Daisies
DR10 -3.02 dB -15.69 dB 2:54 09-El Watson - One Sock Blues
DR10 -3.68 dB -16.52 dB 3:32 10-Palmer McAbee - Lost Boy Blues
DR12 0.00 dB -14.68 dB 3:10 11-Palmer McAbee - McAbee's Railroad Piece
DR7 -5.22 dB -17.13 dB 2:48 12-George 'Bullet' Williams - Touch Me Light Mama
DR8 -5.57 dB -17.08 dB 2:46 13-George 'Bullet' Williams - Frisco Leaving Birmingham
DR10 -2.04 dB -16.47 dB 2:58 14-George 'Bullet' Williams - The Escaped Convict
DR10 -4.21 dB -19.42 dB 2:47 15-George 'Bullet' Williams - Middlin' Blues
DR14 -2.79 dB -20.67 dB 3:16 16-Blues Birdhead - Don't Mistreat Your Good Boy Friend
DR14 -2.42 dB -19.94 dB 3:31 17-Blues Birdhead - Get Up Off That Jazzophone
DR9 -3.82 dB -15.68 dB 3:24 18-Blues Birdhead - Mean Low Blues
DR10 -1.48 dB -14.78 dB 3:50 19-Blues Birdhead - Harmonica Blues
DR16 0.00 dB -17.27 dB 3:12 20-Ellis Williams - Buttermilk Blues
DR11 -2.70 dB -15.51 dB 3:06 21-Ellis Williams - Smokey Blues
DR8 -4.57 dB -15.85 dB 3:25 22-Alfred Lewis - Mississippi Swamp Blues
DR10 -3.15 dB -16.36 dB 3:14 23-Alfred Lewis - Friday Moan Blues
DR12 -0.04 dB -16.38 dB 2:32 24-Smith and Harper - Poor Girl
DR11 -2.26 dB -16.41 dB 2:39 25-Smith and Harper - Insurance Policy Blues
––––––––––––––––––––––––––––––––––––––––

Number of tracks: 25
Official DR value: DR11

Samplerate: 44100 Hz
Channels: 2
Bits per sample: 16
Bitrate: 470 kbps
Codec: FLAC
================================================================================

VA - The Great Harp Players 1927-1936 (1992) Reissue 2007

All thanks to original releaser

More interesting music in My Blog