Subcategories

Ultravox - Quartet (1982) Re-up

Posted By: v3122
Ultravox - Quartet (1982) Re-up

Ultravox - Quartet (1982)
EAC | Flac(Image) + Cue + Log & MP3 CBR 320Kbps
1988 | BMG Ariola, 610 010 | ~ 251 or 97 Mb | Scans(png) -> 28 Mb
New Wave, Pop Rock, Synth-pop

With the successes of Vienna and its follow-up, Rage in Eden, Ultravox's position in the music scene was unassailable, further fortified by frontman Midge Ure's foray into solo-dom with the summer 1982 hit cover of the Walker Brothers' "No Regrets." The band's "Reap the Wild Wind" followed it up the U.K. chart that fall, a taster for the band's sixth album. And what a portentous taste it was. While "Wind" buffeted and whooshed once again around nostalgia for a past never lived, "Hymn" (its melody lifted from "Mourning Star" by Ure's last band, the Zones) wrestled with faith in a faithless age and prayed its way up the chart later that fall, while the dirge "Visions in Blue" saw the spring caught in its icy grip. But it was the fourth song spun off the album, "We Came to Dance," that best defined the overall themes of the set. Having helped create a movement renowned for its fashion victims and superficiality, Ultravox recoiled from the Frankenstein they'd birthed. "The Song (We Go)" may have been a cry of welcome, but both "Dance" and "Serenade" make clear the music scene's terrifying capacity to unleash both Dionysian abandon and militaristic conformity. "When the Scream Subsides" further fuels the album's existential angst, which reaches its emotional nadir on the suicidal "Cut and Run." With their toe-tapping rhythms, billowing synths, and rousing melodies, one is often tempted to ignore the darkness of Ultravox's themes, but with Quartet, the band deliberately made that nigh on impossible.

by Dave Thompson, allmusic
Ultravox - Quartet (1982):

Ultravox - Quartet (1982) Re-up

Tracklist:

01. Reap The Wild Wind [03:50]
02. Serenade [05:07]
03. Mine For Life [04:46]
04. Hymn [05:50]
05. Visions In Blue [04:41]
06. When The Scream Subsides [04:19]
07. We Came To Dance [04:16]
08. Cut And Run [04:20]
09. The Song (We Go) [03:58]

Exact Audio Copy V0.99 prebeta 5 from 4. May 2009

EAC extraction logfile from 24. April 2015, 14:26

ULTRAVOX / Quartet ( 610 010 )

Used drive : ASUS DRW-24B3ST Adapter: 0 ID: 0

Read mode : Secure
Utilize accurate stream : Yes
Defeat audio cache : Yes
Make use of C2 pointers : No

Read offset correction : 6
Overread into Lead-In and Lead-Out : No
Fill up missing offset samples with silence : Yes
Delete leading and trailing silent blocks : No
Null samples used in CRC calculations : Yes
Used interface : Native Win32 interface for Win NT & 2000

Used output format : User Defined Encoder
Selected bitrate : 1024 kBit/s
Quality : High
Add ID3 tag : No
Command line compressor : C:\Program Files (x86)\EAC\WV\wavpack.exe
Additional command line options : -h -hh -m %s %d


TOC of the extracted CD

Track | Start | Length | Start sector | End sector
––––––––––––––––––––––––––––-
1 | 0:00.00 | 3:50.27 | 0 | 17276
2 | 3:50.27 | 5:07.63 | 17277 | 40364
3 | 8:58.15 | 4:46.65 | 40365 | 61879
4 | 13:45.05 | 5:50.70 | 61880 | 88199
5 | 19:36.00 | 4:41.62 | 88200 | 109336
6 | 24:17.62 | 4:19.05 | 109337 | 128766
7 | 28:36.67 | 4:16.28 | 128767 | 147994
8 | 32:53.20 | 4:20.35 | 147995 | 167529
9 | 37:13.55 | 3:58.12 | 167530 | 185391


Range status and errors

Selected range

Filename X:\ULTRAVOX - Quartet (1982) (DE 1988 BMG Ariola GmbH • 610 010)\ULTRAVOX - Quartet ( 610 010 ).wav

Peak level 86.4 %
Range quality 99.9 %
Test CRC 30650249
Copy CRC 30650249
Copy OK

No errors occurred


AccurateRip summary

Track 1 accurately ripped (confidence 3) [0E883F3C]
Track 2 accurately ripped (confidence 3) [3EACEBFB]
Track 3 accurately ripped (confidence 3) [932C9D16]
Track 4 accurately ripped (confidence 3) [7298A31E]
Track 5 accurately ripped (confidence 3) [EE810823]
Track 6 accurately ripped (confidence 3) [3582BE6E]
Track 7 accurately ripped (confidence 3) [98C7970D]
Track 8 accurately ripped (confidence 3) [1160046C]
Track 9 accurately ripped (confidence 4) [40EE739A]

All tracks accurately ripped

End of status report

foobar2000 1.2.9 / Dynamic Range Meter 1.1.1
log date: 2017-03-08 16:33:11

––––––––––––––––––––––––––––––––––––––––
Analyzed: ULTRAVOX / Quartet ( 610 010 )
––––––––––––––––––––––––––––––––––––––––

DR Peak RMS Duration Track
––––––––––––––––––––––––––––––––––––––––
DR14 -1.64 dB -17.59 dB 3:50 01-Reap The Wild Wind
DR13 -1.95 dB -17.50 dB 5:08 02-Serenade
DR13 -2.08 dB -17.28 dB 4:47 03-Mine For Life
DR12 -2.01 dB -17.41 dB 5:51 04-Hymn
DR13 -2.75 dB -20.99 dB 4:42 05-Visions In Blue
DR12 -2.41 dB -16.81 dB 4:19 06-When The Scream Subsides
DR13 -2.91 dB -18.18 dB 4:16 07-We Came To Dance
DR12 -2.27 dB -17.41 dB 4:20 08-Cut And Run
DR13 -1.26 dB -18.66 dB 3:58 09-The Song (We Go)
––––––––––––––––––––––––––––––––––––––––

Number of tracks: 9
Official DR value: DR13

Samplerate: 44100 Hz
Channels: 2
Bits per sample: 16
Bitrate: 827 kbps
Codec: FLAC

[CUETools log; Date: 08.03.2017 16:32:56; Version: 2.1.4]
[CTDB TOCID: NLkNTzPiBbgzDei9ir_pI9581fc-] found.
Track | CTDB Status
1 | (6/6) Accurately ripped
2 | (6/6) Accurately ripped
3 | (6/6) Accurately ripped
4 | (6/6) Accurately ripped
5 | (6/6) Accurately ripped
6 | (6/6) Accurately ripped
7 | (6/6) Accurately ripped
8 | (6/6) Accurately ripped
9 | (6/6) Accurately ripped
[AccurateRip ID: 000e7237-006a018b-7a09a709] found.
Track [ CRC | V2 ] Status
01 [0e883f3c|4e72e3ea] (03+09/12) Accurately ripped
02 [3eacebfb|111182ce] (03+09/12) Accurately ripped
03 [932c9d16|338ac419] (03+09/12) Accurately ripped
04 [7298a31e|add050b9] (03+09/12) Accurately ripped
05 [ee810823|42aa74bf] (03+09/12) Accurately ripped
06 [3582be6e|c00f26db] (03+09/12) Accurately ripped
07 [98c7970d|ad0607c3] (03+09/12) Accurately ripped
08 [1160046c|b6ba5285] (03+09/12) Accurately ripped
09 [40ee739a|8581d92d] (04+09/13) Accurately ripped

Track Peak [ CRC32 ] [W/O NULL] [ LOG ]
– 86,4 [30650249] [901A82C1] CRC32
01 82,7 [CA4BC04C] [C714F314]
02 79,8 [FE70B36C] [8D52BD5D]
03 78,7 [D13DDF72] [395AF00A]
04 79,3 [7B0E5899] [711E3B6F]
05 72,8 [63EF7A9B] [40B0A9EF]
06 75,7 [DBCA7FC2] [5B96F8FF]
07 71,5 [B3329B18] [63F9154A]
08 76,9 [7A54AAAA] [3277276A]
09 86,4 [C2F89FA1] [BFC8896C]

Ultravox - Quartet (1982) Re-up

All thanks go to the original releaser

Ultravox in my Blog

Download Ultravox - Quartet (1982):