Subcategories

Tom Petty & The Heartbreakers - Southern Accents In The Sunshine State (2015) Re-Up

Posted By: popsakov
Tom Petty & The Heartbreakers - Southern Accents In The Sunshine State (2015) Re-Up

Tom Petty & The Heartbreakers - Southern Accents In The Sunshine State (2015)
2CD | EAC Rip | FLAC (Img) + Cue + Log ~ 851 Mb | MP3 CBR320 ~ 338 Mb
Scans Included (JPG, 400 dpi) | RAR 5% Recovery
Classic Rock, Pop Rock, Southern Rock | Gossip #GOS018

2CD FM broadcast captures Tom Petty s complete 1993 homecoming concert, his first show in Gainesville, Florida for 20 years. Following the breakup of Heartbreakers Mudcrutch in 1975, Tom Petty and former band-mates Benmont Tench and Mike Campbell, joined up with some other Gainesville musicians, bassist Ron Blair and drummer Stan Lynch, to become Tom Petty and the Heartbreakers, in 1976. But, even then, success was not immediate, and they had many struggles ahead. When their first album was released in November 1976, it initially received little attention, selling only a few thousand copies over the `initial months. They released two singles, 'Breakdown' and 'American Girl', and both failed to chart in the US. Apparently, potential punters were confused; they looked like a new wave band (the album cover photo especially), but the music was pure rock n' roll with a definite 60's throwback style. Fortunately, however, the UK seemed to 'get it', and they became popular there, with the album climbing to #24 on the British charts. Slowly, after news of their success in Britain, the album began picking up interest in the US, finally entering the Billboard charts almost a full year after its initial release. 'Breakdown' was re-released too, and this time made it into the top 40. Back in Gainesville, the community was very supportive and proud of Petty's success. However, by the late 80's, there was also some growing resentment, that Tom had forsaken his hometown, that now that he had made it big, he rarely came back to his local fans and his roots there. Thus, the show presented here, from 1993, represented his homecoming to Gainesville, his first major concert there since packing up his van and leaving with Mudcrutch, almost 20 years before. This show was just prior to the release of his greatest hits album and while he was in the process of moving to a new label. The greatest hits album also included 2 new recently recorded songs ; 'Mary Jane's Last Dance' and a cover of Thunderclap Newman's 'Something in the Air', both of which are included in this show. And the show was broadcast on the radio nationwide, in superb FM quality. So, here is Tom Petty's triumphant, yet somewhat overdue, return to Gainesville. Although some of the circulating FM versions of the show are shortened substantially, this is the full show in all its glory.

***************

Tom Petty & The Heartbreakers - Southern Accents In The Sunshine State (2015) Re-Up

Tom Petty & The Heartbreakers - Southern Accents In The Sunshine State (2015) Re-Up

Track List CD1:

01. Love Is a Long Road [04:45]
02. Into The Great Wide Open [04:26]
03. Listen to Her Heart [04:26]
04. I Won't Back Down [05:00]
05. Free Fallin' [05:06]
06. Psychotic Reaction [06:52]
07. Ben's Boogie [03:58]
08. Don't Come Around Here No More [09:14]
09. Something in the Air [04:27]
10. Mary Jane's Last Dance [08:50]
11. King's Highway [03:41]
12. A Face in the Crowd [04:33]

Exact Audio Copy V0.99 prebeta 5 from 4. May 2009

EAC extraction logfile from 22. July 2015, 19:34

Tom Petty & The Heartbreakers / Southern Accents In The Sunshine State CD1

Used drive : ATAPI iHAS122 C Adapter: 1 ID: 1

Read mode : Secure
Utilize accurate stream : Yes
Defeat audio cache : Yes
Make use of C2 pointers : No

Read offset correction : 6
Overread into Lead-In and Lead-Out : No
Fill up missing offset samples with silence : Yes
Delete leading and trailing silent blocks : No
Null samples used in CRC calculations : Yes
Used interface : Native Win32 interface for Win NT & 2000

Used output format : Internal WAV Routines
Sample format : 44.100 Hz; 16 Bit; Stereo


TOC of the extracted CD

Track | Start | Length | Start sector | End sector
––––––––––––––––––––––––––––-
1 | 0:00.00 | 4:44.07 | 0 | 21306
2 | 4:44.07 | 4:25.31 | 21307 | 41212
3 | 9:09.38 | 4:25.23 | 41213 | 61110
4 | 13:34.61 | 4:59.09 | 61111 | 83544
5 | 18:33.70 | 5:05.26 | 83545 | 106445
6 | 23:39.21 | 6:51.18 | 106446 | 137288
7 | 30:30.39 | 3:57.24 | 137289 | 155087
8 | 34:27.63 | 9:13.50 | 155088 | 196612
9 | 43:41.38 | 4:26.62 | 196613 | 216624
10 | 48:08.25 | 8:49.45 | 216625 | 256344
11 | 56:57.70 | 3:40.30 | 256345 | 272874
12 | 60:38.25 | 4:32.50 | 272875 | 293324


Range status and errors

Selected range

Filename C:\Users\arthu\Desktop\Tom Petty & The Heartbreakers - Southern Accents In The Sunshine State CD1.wav

Peak level 100.0 %
Range quality 100.0 %
Test CRC 89DA667C
Copy CRC 89DA667C
Copy OK

No errors occurred


AccurateRip summary

Track 1 cannot be verified as accurate (confidence 2) [6F3D1037], AccurateRip returned [F7775BB6]
Track 2 cannot be verified as accurate (confidence 2) [946A17AA], AccurateRip returned [9EF652EF]
Track 3 cannot be verified as accurate (confidence 2) [EEA31E05], AccurateRip returned [F74B3458]
Track 4 cannot be verified as accurate (confidence 2) [D338D41F], AccurateRip returned [2B0ACA27]
Track 5 cannot be verified as accurate (confidence 2) [299462E6], AccurateRip returned [5D23F134]
Track 6 cannot be verified as accurate (confidence 2) [F842C196], AccurateRip returned [F4813C09]
Track 7 cannot be verified as accurate (confidence 2) [C1B2C1D8], AccurateRip returned [AA0984A0]
Track 8 cannot be verified as accurate (confidence 2) [12AD1C91], AccurateRip returned [DB46B275]
Track 9 cannot be verified as accurate (confidence 2) [3695368E], AccurateRip returned [E571F1E9]
Track 10 cannot be verified as accurate (confidence 2) [61630142], AccurateRip returned [E1B0D8D1]
Track 11 cannot be verified as accurate (confidence 2) [DD33D60E], AccurateRip returned [7628BDC1]
Track 12 cannot be verified as accurate (confidence 2) [74B9A867], AccurateRip returned [AD7F3C58]

No tracks could be verified as accurate
You may have a different pressing from the one(s) in the database

End of status report

foobar2000 1.2.6 / Dynamic Range Meter 1.1.1
log date: 2015-07-24 16:11:05

––––––––––––––––––––––––––––––––––––––––
Analyzed: Tom Petty & The Heartbreakers / Southern Accents In The Sunshine State CD1
––––––––––––––––––––––––––––––––––––––––

DR Peak RMS Duration Track
––––––––––––––––––––––––––––––––––––––––
DR8 0.00 dB -9.01 dB 4:44 01-Love Is a Long Road
DR9 0.00 dB -9.59 dB 4:25 02-Into The Great Wide Open
DR9 0.00 dB -9.64 dB 4:25 03-Listen to Her Heart
DR10 0.00 dB -10.98 dB 4:59 04-I Won't Back Down
DR10 0.00 dB -10.32 dB 5:05 05-Free Fallin'
DR10 0.00 dB -10.71 dB 6:51 06-Psychotic Reaction
DR9 0.00 dB -11.24 dB 3:57 07-Ben's Boogie
DR9 0.00 dB -10.25 dB 9:14 08-Don't Come Around Here No More
DR10 -0.03 dB -11.37 dB 4:27 09-Something in the Air
DR9 0.00 dB -10.50 dB 8:50 10-Mary Jane's Last Dance
DR10 0.00 dB -11.03 dB 3:40 11-King's Highway
DR9 0.00 dB -10.39 dB 4:33 12-A Face in the Crowd
––––––––––––––––––––––––––––––––––––––––

Number of tracks: 12
Official DR value: DR9

Samplerate: 44100 Hz
Channels: 2
Bits per sample: 16
Bitrate: 879 kbps
Codec: FLAC
================================================================================

[CUETools log; Date: 24.07.2015 16:11:04; Version: 2.1.5]
[CTDB TOCID: DwOruhFql2A6jKxauQSj313hAgg-] found.
Track | CTDB Status
1 | (1/1) Accurately ripped
2 | (1/1) Accurately ripped
3 | (1/1) Accurately ripped
4 | (1/1) Accurately ripped
5 | (1/1) Accurately ripped
6 | (1/1) Accurately ripped
7 | (1/1) Accurately ripped
8 | (1/1) Accurately ripped
9 | (1/1) Accurately ripped
10 | (1/1) Accurately ripped
11 | (1/1) Accurately ripped
12 | (1/1) Accurately ripped
[AccurateRip ID: 001c1a76-010b36b1-990f470c] found.
Track [ CRC | V2 ] Status
01 [6f3d1037|f7775bb6] (0+2/2) Accurately ripped
02 [946a17aa|9ef652ef] (0+2/2) Accurately ripped
03 [eea31e05|f74b3458] (0+2/2) Accurately ripped
04 [d338d41f|2b0aca27] (0+2/2) Accurately ripped
05 [299462e6|5d23f134] (0+2/2) Accurately ripped
06 [f842c196|f4813c09] (0+2/2) Accurately ripped
07 [c1b2c1d8|aa0984a0] (0+2/2) Accurately ripped
08 [12ad1c91|db46b275] (0+2/2) Accurately ripped
09 [3695368e|e571f1e9] (0+2/2) Accurately ripped
10 [61630142|e1b0d8d1] (0+2/2) Accurately ripped
11 [dd33d60e|7628bdc1] (0+2/2) Accurately ripped
12 [74b9a867|ad7f3c58] (0+2/2) Accurately ripped

Track Peak [ CRC32 ] [W/O NULL] [ LOG ]
– 100,0 [89DA667C] [2E3262E2] CRC32
01 100,0 [4E2962B3] [FC95C9DB]
02 100,0 [6EA49146] [58284C16]
03 100,0 [D37542CD] [1239D997]
04 100,0 [53E1A7D2] [E8B095C8]
05 100,0 [AC4BBA54] [E6EFD11A]
06 100,0 [A6B140D3] [E0711458]
07 100,0 [434F830B] [10F8FE86]
08 100,0 [40E3DD95] [7ED57D79]
09 99,6 [D5397D65] [6CBE822C]
10 100,0 [E6268063] [17EB35C3]
11 100,0 [EA27FD82] [FEC83729]
12 100,0 [051E14A4] [1F64F92A]

Tom Petty & The Heartbreakers - Southern Accents In The Sunshine State (2015) Re-Up

Track List CD2:

01. Ballad of Easy Rider [04:09]
02. Take Out Some Insurance [05:45]
03. Thirteen Days [04:59]
04. Southern Accents [05:23]
05. Yer So Bad [03:28]
06. Driving Down To Georgia [06:31]
07. Lost Without You [06:53]
08. Refugee [04:39]
09. Running Down A Dream [05:12]
10. Learning To Fly [04:57]
11. Rainy Day Women #12 & 35 [04:21]
12. American Girl [04:44]
13. Alright For Now [02:42]

Exact Audio Copy V0.99 prebeta 5 from 4. May 2009

EAC extraction logfile from 22. July 2015, 21:21

Tom Petty & The Heartbreakers / Southern Accents In The Sunshine State CD2

Used drive : ATAPI iHAS122 C Adapter: 1 ID: 1

Read mode : Secure
Utilize accurate stream : Yes
Defeat audio cache : Yes
Make use of C2 pointers : No

Read offset correction : 6
Overread into Lead-In and Lead-Out : No
Fill up missing offset samples with silence : Yes
Delete leading and trailing silent blocks : No
Null samples used in CRC calculations : Yes
Used interface : Native Win32 interface for Win NT & 2000

Used output format : Internal WAV Routines
Sample format : 44.100 Hz; 16 Bit; Stereo


TOC of the extracted CD

Track | Start | Length | Start sector | End sector
––––––––––––––––––––––––––––-
1 | 0:00.00 | 4:08.34 | 0 | 18633
2 | 4:08.34 | 5:44.27 | 18634 | 44460
3 | 9:52.61 | 4:58.74 | 44461 | 66884
4 | 14:51.60 | 5:22.06 | 66885 | 91040
5 | 20:13.66 | 3:27.38 | 91041 | 106603
6 | 23:41.29 | 6:30.27 | 106604 | 135880
7 | 30:11.56 | 6:52.71 | 135881 | 166851
8 | 37:04.52 | 4:38.64 | 166852 | 187765
9 | 41:43.41 | 5:11.62 | 187766 | 211152
10 | 46:55.28 | 4:56.19 | 211153 | 233371
11 | 51:51.47 | 4:20.47 | 233372 | 252918
12 | 56:12.19 | 4:43.69 | 252919 | 274212
13 | 60:56.13 | 2:41.62 | 274213 | 286349


Range status and errors

Selected range

Filename C:\Users\arthu\Desktop\Tom Petty & The Heartbreakers - Southern Accents In The Sunshine State CD2.wav

Peak level 98.2 %
Range quality 100.0 %
Test CRC F5417B08
Copy CRC F5417B08
Copy OK

No errors occurred


AccurateRip summary

Track 1 not present in database
Track 2 not present in database
Track 3 not present in database
Track 4 not present in database
Track 5 not present in database
Track 6 not present in database
Track 7 not present in database
Track 8 not present in database
Track 9 not present in database
Track 10 not present in database
Track 11 not present in database
Track 12 not present in database
Track 13 not present in database

None of the tracks are present in the AccurateRip database

End of status report

foobar2000 1.2.6 / Dynamic Range Meter 1.1.1
log date: 2015-07-24 16:13:18

––––––––––––––––––––––––––––––––––––––––
Analyzed: Tom Petty & The Heartbreakers / Southern Accents In The Sunshine State CD2
––––––––––––––––––––––––––––––––––––––––

DR Peak RMS Duration Track
––––––––––––––––––––––––––––––––––––––––
DR10 -0.38 dB -11.67 dB 4:08 01-Ballad of Easy Rider
DR10 -0.56 dB -11.74 dB 5:44 02-Take Out Some Insurance
DR10 -0.15 dB -11.08 dB 4:59 03-Thirteen Days
DR10 -0.30 dB -12.71 dB 5:22 04-Southern Accents
DR10 -0.18 dB -11.51 dB 3:28 05-Yer So Bad
DR10 -1.24 dB -12.84 dB 6:30 06-Driving Down To Georgia
DR10 -1.43 dB -13.81 dB 6:53 07-Lost Without You
DR10 -3.11 dB -13.93 dB 4:39 08-Refugee
DR9 -3.50 dB -13.59 dB 5:12 09-Running Down A Dream
DR10 -1.45 dB -12.21 dB 4:56 10-Learning To Fly
DR9 -1.29 dB -11.54 dB 4:21 11-Rainy Day Women #12 & 35
DR9 -1.61 dB -11.90 dB 4:44 12-American Girl
DR10 -1.51 dB -13.14 dB 2:42 13-Alright For Now
––––––––––––––––––––––––––––––––––––––––

Number of tracks: 13
Official DR value: DR10

Samplerate: 44100 Hz
Channels: 2
Bits per sample: 16
Bitrate: 818 kbps
Codec: FLAC
================================================================================

[CUETools log; Date: 24.07.2015 16:13:21; Version: 2.1.5]
[CTDB TOCID: vh9DOQymRP0dT7FNxTqRzsk7OAk-] found.
Track | CTDB Status
1 | (1/1) Accurately ripped
2 | (1/1) Accurately ripped
3 | (1/1) Accurately ripped
4 | (1/1) Accurately ripped
5 | (1/1) Accurately ripped
6 | (1/1) Accurately ripped
7 | (1/1) Accurately ripped
8 | (1/1) Accurately ripped
9 | (1/1) Accurately ripped
10 | (1/1) Accurately ripped
11 | (1/1) Accurately ripped
12 | (1/1) Accurately ripped
13 | (1/1) Accurately ripped
[AccurateRip ID: 001fade3-013d5339-a80eea0d] disk not present in database.

Track Peak [ CRC32 ] [W/O NULL] [ LOG ]
– 98,2 [F5417B08] [5459CE9B] CRC32
01 95,7 [8CAC069A] [CCD47DA1]
02 93,7 [BC51D655] [2C0CC3AB]
03 98,2 [73AFC76B] [9B6D7B30]
04 96,5 [C3B9C75D] [B8B219B6]
05 97,9 [B0C09CC8] [524EDB24]
06 86,7 [37A0CE44] [1B071CEF]
07 84,8 [AC23B7F2] [E217235C]
08 69,8 [60D987A5] [27438E2A]
09 66,8 [09596A2B] [91666372]
10 84,6 [E78704CC] [550658DB]
11 86,2 [3AEE5C27] [5D96A8BA]
12 83,1 [265C2F20] [2F08D789]
13 84,0 [015E07C1] [9E64F3C9]

Tom Petty & The Heartbreakers - Southern Accents In The Sunshine State (2015) Re-Up

All thanks go to London

>>> Tom Petty & The Heartbreakers in my Blog <<<

Download from icerbox.com: