Subcategories

The Bob Florence Limited Edition - 4 Albums (1983-1998)

Posted By: gribovar
The Bob Florence Limited Edition - 4 Albums (1983-1998)

The Bob Florence Limited Edition - 4 Albums (1983-1998)
EAC Rip | FLAC (tracks+.cue+log) - 1,46 GB | MP3 CBR 320 kbps (LAME 3.93) - 572 MB | Covers - 85 MB
Genre: Jazz, Big Band | RAR 3% Rec. | Label: Sea Breeze, BBC Enterprises, MAMA Foundation

As a longtime staff arranger for Liberty Records, Bob Florence wrote some of the most innovative and challenging charts in postwar jazz - in many respects a man out of time, he possessed a particular brilliance for large-ensemble arrangements in the tradition of Duke Ellington, although the commercial vogue for big-band jazz had long since passed.
Over the years the group (dubbed the Limited Edition in 1982) served as a launching pad for a number of first-call L.A. session players, and in 2000 the LP Serendipity 18 won the Grammy for Best Jazz Performance by a Large Ensemble. Florence died of pneumonia on May 15, 2008, two weeks shy of his 76th birthday.

The Bob Florence Limited Edition - 4 Albums (1983-1998)

The Bob Florence Limited Edition - Soaring (1983) [Reissue 1996]
EAC Rip | FLAC (tracks+.cue+log) - 296 MB | MP3 CBR 320 kbps (LAME 3.93) - 109 MB | Covers - 11 MB
Genre: Jazz, Big Band | RAR 3% Rec. | Label: Sea Breeze (SB-2082)

Tracklist:
01. Afternoon Of A Prawn
02. Jeff N' Jeff
03. Soaring
04. Nobody's Human
05. A Soundsketch
06. Misbehavin'

Total time: 46:30

Exact Audio Copy V0.99 prebeta 4 from 23. January 2008

EAC extraction logfile from 7. November 2009, 16:53

Bob Florence / Soaring

Used drive : HL-DT-STDVD-RAM GH22NP20 Adapter: 0 ID: 0

Read mode : Secure
Utilize accurate stream : Yes
Defeat audio cache : Yes
Make use of C2 pointers : No

Read offset correction : 102
Overread into Lead-In and Lead-Out : No
Fill up missing offset samples with silence : Yes
Delete leading and trailing silent blocks : No
Null samples used in CRC calculations : Yes
Used interface : Installed external ASPI interface
Gap handling : Appended to previous track

Used output format : User Defined Encoder
Selected bitrate : 320 kBit/s
Quality : High
Add ID3 tag : No
Command line compressor : C:\Program Files\Exact Audio Copy\Flac\flac.exe
Additional command line options : -V -8 -T "artist=%a" -T "title=%t" -T "album=%g" -T "date=%y" -T "tracknumber=%n" -T "genre=%m" %s


TOC of the extracted CD

Track | Start | Length | Start sector | End sector
––––––––––––––––––––––––––––-
1 | 0:00.00 | 6:18.27 | 0 | 28376
2 | 6:18.27 | 7:19.48 | 28377 | 61349
3 | 13:38.00 | 7:48.25 | 61350 | 96474
4 | 21:26.25 | 7:19.55 | 96475 | 129454
5 | 28:46.05 | 10:25.47 | 129455 | 176376
6 | 39:11.52 | 7:18.43 | 176377 | 209269


Track 1

Filename D:\music\Musicgate's rips\Bob Florence - Soaring (1983) {1996 Sea Breeze Rec.}\01 - Afternoon of a Prawn.wav

Pre-gap length 0:00:02.00

Peak level 98.8 %
Track quality 100.0 %
Test CRC BC676848
Copy CRC BC676848
Track not present in AccurateRip database
Copy OK

Track 2

Filename D:\music\Musicgate's rips\Bob Florence - Soaring (1983) {1996 Sea Breeze Rec.}\02 - Jeff N' Jeff.wav

Pre-gap length 0:00:01.89

Peak level 83.9 %
Track quality 99.9 %
Test CRC 795BFE80
Copy CRC 795BFE80
Track not present in AccurateRip database
Copy OK

Track 3

Filename D:\music\Musicgate's rips\Bob Florence - Soaring (1983) {1996 Sea Breeze Rec.}\03 - Soaring.wav

Pre-gap length 0:00:01.73

Peak level 100.0 %
Track quality 100.0 %
Test CRC CF145B86
Copy CRC CF145B86
Track not present in AccurateRip database
Copy OK

Track 4

Filename D:\music\Musicgate's rips\Bob Florence - Soaring (1983) {1996 Sea Breeze Rec.}\04 - Nobody's Human.wav

Pre-gap length 0:00:02.57

Peak level 100.0 %
Track quality 100.0 %
Test CRC DAF5C9C9
Copy CRC DAF5C9C9
Track not present in AccurateRip database
Copy OK

Track 5

Filename D:\music\Musicgate's rips\Bob Florence - Soaring (1983) {1996 Sea Breeze Rec.}\05 - A Soundsketch.wav

Pre-gap length 0:00:01.64

Peak level 100.0 %
Track quality 99.9 %
Test CRC 667428D9
Copy CRC 667428D9
Track not present in AccurateRip database
Copy OK

Track 6

Filename D:\music\Musicgate's rips\Bob Florence - Soaring (1983) {1996 Sea Breeze Rec.}\06 - Misbehavin'.wav

Pre-gap length 0:00:01.80

Peak level 99.9 %
Track quality 100.0 %
Test CRC 473D5A24
Copy CRC 473D5A24
Track not present in AccurateRip database
Copy OK


None of the tracks are present in the AccurateRip database

No errors occurred

End of status report

[CUETools log; Date: 01.08.2020 10:26:26; Version: 2.1.4]
[CTDB TOCID: KzIP.cDk99FVJTkfjixtFOLLuN0-] found.
Track | CTDB Status
1 | (4/4) Accurately ripped
2 | (4/4) Accurately ripped
3 | (4/4) Accurately ripped
4 | (4/4) Accurately ripped
5 | (4/4) Accurately ripped
6 | (4/4) Accurately ripped
[AccurateRip ID: 000ab378-0039f08c-490ae606] found.
Track [ CRC | V2 ] Status
01 [ec538be2|007eb17e] (1+0/3) Accurately ripped
02 [59964a0f|ddaa19f9] (1+1/3) Accurately ripped
03 [3ef9b83a|757c0c9b] (1+1/3) Accurately ripped
04 [357dc33e|f8abbc00] (1+1/3) Accurately ripped
05 [5a24180e|3c2ed90e] (1+1/3) Accurately ripped
06 [17b32f77|8a5a3f34] (1+1/3) Accurately ripped

Track Peak [ CRC32 ] [W/O NULL] [ LOG ]
– 99,9 [3C777BDD] [E8F0234D]
01 98,8 [BC676848] [9F0E8042] CRC32
02 83,9 [795BFE80] [938BC748] CRC32
03 99,9 [CF145B86] [4678EED7] CRC32
04 99,9 [DAF5C9C9] [57CD5E3E] CRC32
05 99,9 [667428D9] [0FA367C3] CRC32
06 99,9 [473D5A24] [CC46CC19] CRC32

The Bob Florence Limited Edition - 4 Albums (1983-1998)

Bob Florence The Limited Edition - State Of The Art (1988) [Reissue 1990]
EAC Rip | FLAC (tracks+.cue+log) - 334 MB | MP3 CBR 320 kbps (LAME 3.93) - 131 MB | Covers - 9 MB
Genre: Jazz, Big Band | RAR 3% Rec. | Label: BBC Enterprises (CDPC 797)

Tracklist:
01. Just Friends
02. Moonlight Serenade
03. Silky
04. The Crunch
05. Stella By Starlight
06. All The Things You Are
07. Mr Paddington
08. BBC
09. Auld Lang Syne

Total time: 55:38

Exact Audio Copy V0.99 prebeta 4 from 23. January 2008

EAC extraction logfile from 7. November 2009, 15:59

Bob Florence / State of the Art (Limited Edition)

Used drive : HL-DT-STDVD-RAM GH22NP20 Adapter: 0 ID: 0

Read mode : Secure
Utilize accurate stream : Yes
Defeat audio cache : Yes
Make use of C2 pointers : No

Read offset correction : 102
Overread into Lead-In and Lead-Out : No
Fill up missing offset samples with silence : Yes
Delete leading and trailing silent blocks : No
Null samples used in CRC calculations : Yes
Used interface : Installed external ASPI interface
Gap handling : Appended to previous track

Used output format : User Defined Encoder
Selected bitrate : 320 kBit/s
Quality : High
Add ID3 tag : No
Command line compressor : C:\Program Files\Exact Audio Copy\Flac\flac.exe
Additional command line options : -V -8 -T "artist=%a" -T "title=%t" -T "album=%g" -T "date=%y" -T "tracknumber=%n" -T "genre=%m" %s


TOC of the extracted CD

Track | Start | Length | Start sector | End sector
––––––––––––––––––––––––––––-
1 | 0:00.20 | 6:22.52 | 20 | 28721
2 | 6:22.72 | 5:13.18 | 28722 | 52214
3 | 11:36.15 | 6:55.20 | 52215 | 83359
4 | 18:31.35 | 7:05.55 | 83360 | 115289
5 | 25:37.15 | 4:05.07 | 115290 | 133671
6 | 29:42.22 | 8:46.13 | 133672 | 173134
7 | 38:28.35 | 6:04.00 | 173135 | 200434
8 | 44:32.35 | 5:42.02 | 200435 | 226086
9 | 50:14.37 | 5:23.58 | 226087 | 250369


Track 1

Filename D:\music\Musicgate's rips\Bob Florence - State of the Art (Limited Edition) (1989)\01 - Just Friends.wav

Pre-gap length 0:00:02.26

Peak level 76.3 %
Track quality 100.0 %
Test CRC 04594706
Copy CRC 04594706
Track not present in AccurateRip database
Copy OK

Track 2

Filename D:\music\Musicgate's rips\Bob Florence - State of the Art (Limited Edition) (1989)\02 - Moonlight Serenade.wav

Pre-gap length 0:00:02.00

Peak level 85.8 %
Track quality 100.0 %
Test CRC 228CB7DD
Copy CRC 228CB7DD
Track not present in AccurateRip database
Copy OK

Track 3

Filename D:\music\Musicgate's rips\Bob Florence - State of the Art (Limited Edition) (1989)\03 - Silky.wav

Pre-gap length 0:00:02.00

Peak level 74.9 %
Track quality 100.0 %
Test CRC 116C4650
Copy CRC 116C4650
Track not present in AccurateRip database
Copy OK

Track 4

Filename D:\music\Musicgate's rips\Bob Florence - State of the Art (Limited Edition) (1989)\04 - The Crunch.wav

Pre-gap length 0:00:03.00

Peak level 95.7 %
Track quality 99.9 %
Test CRC AC1E2F20
Copy CRC AC1E2F20
Track not present in AccurateRip database
Copy OK

Track 5

Filename D:\music\Musicgate's rips\Bob Florence - State of the Art (Limited Edition) (1989)\05 - Stella by Starlight.wav

Pre-gap length 0:00:04.00

Peak level 94.3 %
Track quality 100.0 %
Test CRC 3DC5C8F9
Copy CRC 3DC5C8F9
Track not present in AccurateRip database
Copy OK

Track 6

Filename D:\music\Musicgate's rips\Bob Florence - State of the Art (Limited Edition) (1989)\06 - All the Things You Are.wav

Pre-gap length 0:00:02.00

Peak level 100.0 %
Track quality 100.0 %
Test CRC CFB4A19B
Copy CRC CFB4A19B
Track not present in AccurateRip database
Copy OK

Track 7

Filename D:\music\Musicgate's rips\Bob Florence - State of the Art (Limited Edition) (1989)\07 - Mr. Paddington.wav

Pre-gap length 0:00:05.00

Peak level 86.1 %
Track quality 100.0 %
Test CRC 51D3AD2B
Copy CRC 51D3AD2B
Track not present in AccurateRip database
Copy OK

Track 8

Filename D:\music\Musicgate's rips\Bob Florence - State of the Art (Limited Edition) (1989)\08 - BBC.wav

Pre-gap length 0:00:03.00

Peak level 96.2 %
Track quality 99.9 %
Test CRC 854D9001
Copy CRC 854D9001
Track not present in AccurateRip database
Copy OK

Track 9

Filename D:\music\Musicgate's rips\Bob Florence - State of the Art (Limited Edition) (1989)\09 - Auld Lang Syne.wav

Pre-gap length 0:00:04.00

Peak level 100.0 %
Track quality 99.9 %
Test CRC 504FD03F
Copy CRC 504FD03F
Track not present in AccurateRip database
Copy OK


None of the tracks are present in the AccurateRip database

No errors occurred

End of status report

[CUETools log; Date: 01.08.2020 10:26:55; Version: 2.1.4]
Pregap length 00:00:20.
[CTDB TOCID: mNzYuhGb7pr9vtkOgKciKGp8HNM-] disk not present in database.
[AccurateRip ID: 001346ca-008d99c3-770d0a09] disk not present in database.

Track Peak [ CRC32 ] [W/O NULL] [ LOG ]
– 100,0 [95D0D069] [43FB53C2]
01 76,3 [04594706] [04594706] CRC32
02 85,8 [228CB7DD] [228CB7DD] CRC32
03 74,9 [116C4650] [116C4650] CRC32
04 95,7 [AC1E2F20] [AC1E2F20] CRC32
05 94,3 [3DC5C8F9] [3DC5C8F9] CRC32
06 100,0 [CFB4A19B] [CFB4A19B] CRC32
07 86,1 [51D3AD2B] [DE2FC4F8] CRC32
08 96,2 [854D9001] [854D9001] CRC32
09 100,0 [504FD03F] [E6AE65FB] CRC32

The Bob Florence Limited Edition - 4 Albums (1983-1998)

The Bob Florence Limited Edition - Funupsmanship (1993)
EAC Rip | FLAC (tracks+.cue+log) - 371 MB | MP3 CBR 320 kbps (LAME 3.93) - 160 MB | Covers - 27 MB
Genre: Jazz, Big Band | RAR 3% Rec. | Label: MAMA Foundation (MMF 1006)

Tracklist:
01. Slimehouse
02. Funupsmanship
03. The Cats' Waltzes (Blues For Soatsi, Blues For Yna Yna)
04. Come Rain Or Come Shine
05. Leicester (Lester) Leaps In
06. Lester Left Town
07. Moonbows
08. The Tailor
09. All Blues

Total time: 01:08:14

Exact Audio Copy V0.99 prebeta 4 from 23. January 2008

EAC extraction logfile from 7. November 2009, 19:14

Bob Florence - Limited Edition / Funupsmanship

Used drive : HL-DT-STDVD-RAM GH22NP20 Adapter: 0 ID: 0

Read mode : Secure
Utilize accurate stream : Yes
Defeat audio cache : Yes
Make use of C2 pointers : No

Read offset correction : 102
Overread into Lead-In and Lead-Out : No
Fill up missing offset samples with silence : Yes
Delete leading and trailing silent blocks : No
Null samples used in CRC calculations : Yes
Used interface : Installed external ASPI interface
Gap handling : Appended to previous track

Used output format : User Defined Encoder
Selected bitrate : 320 kBit/s
Quality : High
Add ID3 tag : No
Command line compressor : C:\Program Files\Exact Audio Copy\Flac\flac.exe
Additional command line options : -V -8 -T "artist=%a" -T "title=%t" -T "album=%g" -T "date=%y" -T "tracknumber=%n" -T "genre=%m" %s


TOC of the extracted CD

Track | Start | Length | Start sector | End sector
––––––––––––––––––––––––––––-
1 | 0:00.00 | 4:47.20 | 0 | 21544
2 | 4:47.20 | 6:31.72 | 21545 | 50941
3 | 11:19.17 | 7:35.15 | 50942 | 85081
4 | 18:54.32 | 6:38.55 | 85082 | 114986
5 | 25:33.12 | 6:04.00 | 114987 | 142286
6 | 31:37.12 | 8:33.73 | 142287 | 180834
7 | 40:11.10 | 7:04.20 | 180835 | 212654
8 | 47:15.30 | 8:50.72 | 212655 | 252476
9 | 56:06.27 | 12:07.38 | 252477 | 307039


Track 1

Filename D:\music\Musicgate's rips\Bob Florence - Funupsmanship (1993)\01 - Slimehouse.wav

Pre-gap length 0:00:02.00

Peak level 87.5 %
Track quality 100.0 %
Test CRC BA4305F8
Copy CRC BA4305F8
Accurately ripped (confidence 1) [E616D7BF]
Copy OK

Track 2

Filename D:\music\Musicgate's rips\Bob Florence - Funupsmanship (1993)\02 - Funupsmanship.wav

Pre-gap length 0:00:02.80

Peak level 70.0 %
Track quality 100.0 %
Test CRC CB8E88A6
Copy CRC CB8E88A6
Accurately ripped (confidence 1) [765D1B8A]
Copy OK

Track 3

Filename D:\music\Musicgate's rips\Bob Florence - Funupsmanship (1993)\03 - The Cats' Waltzws.wav

Pre-gap length 0:00:02.40

Peak level 85.0 %
Track quality 100.0 %
Test CRC 4168FFD2
Copy CRC 4168FFD2
Accurately ripped (confidence 1) [D2D5DD12]
Copy OK

Track 4

Filename D:\music\Musicgate's rips\Bob Florence - Funupsmanship (1993)\04 - Come Rain or Come Shine.wav

Pre-gap length 0:00:03.00

Peak level 97.1 %
Track quality 100.0 %
Test CRC 920572B4
Copy CRC 920572B4
Accurately ripped (confidence 1) [FAED5BB0]
Copy OK

Track 5

Filename D:\music\Musicgate's rips\Bob Florence - Funupsmanship (1993)\05 - Leicester (Lester) Leaps In.wav

Pre-gap length 0:00:02.86

Peak level 74.2 %
Track quality 100.0 %
Test CRC CE9001D4
Copy CRC CE9001D4
Accurately ripped (confidence 1) [3461B109]
Copy OK

Track 6

Filename D:\music\Musicgate's rips\Bob Florence - Funupsmanship (1993)\06 - Lester Left Town.wav

Pre-gap length 0:00:01.96

Peak level 80.0 %
Track quality 100.0 %
Test CRC 2CC83896
Copy CRC 2CC83896
Accurately ripped (confidence 1) [CDDCEA1F]
Copy OK

Track 7

Filename D:\music\Musicgate's rips\Bob Florence - Funupsmanship (1993)\07 - Moonbows.wav

Pre-gap length 0:00:01.77

Peak level 56.9 %
Track quality 100.0 %
Test CRC D54B75D7
Copy CRC D54B75D7
Accurately ripped (confidence 1) [0C6EB0DB]
Copy OK

Track 8

Filename D:\music\Musicgate's rips\Bob Florence - Funupsmanship (1993)\08 - The Tailor.wav

Pre-gap length 0:00:02.40

Peak level 85.6 %
Track quality 99.9 %
Test CRC CB71D5EF
Copy CRC CB71D5EF
Accurately ripped (confidence 1) [610AFCBD]
Copy OK

Track 9

Filename D:\music\Musicgate's rips\Bob Florence - Funupsmanship (1993)\09 - All Blues.wav

Pre-gap length 0:00:01.86

Peak level 75.6 %
Track quality 100.0 %
Test CRC 17955296
Copy CRC 17955296
Accurately ripped (confidence 1) [EE1A7199]
Copy OK


All tracks accurately ripped

No errors occurred

End of status report

[CUETools log; Date: 01.08.2020 10:25:26; Version: 2.1.4]
[CTDB TOCID: 6CzkIM8QVuXQ3b71F2fgq3DXPW4-] found.
Track | CTDB Status
1 | (2/2) Accurately ripped
2 | (2/2) Accurately ripped
3 | (2/2) Accurately ripped
4 | (2/2) Accurately ripped
5 | (2/2) Accurately ripped
6 | (2/2) Accurately ripped
7 | (2/2) Accurately ripped
8 | (2/2) Accurately ripped
9 | (2/2) Accurately ripped
[AccurateRip ID: 0014df2a-009cc778-8a0ffd09] found.
Track [ CRC | V2 ] Status
01 [e616d7bf|50e966e6] (0+3/3) Accurately ripped
02 [765d1b8a|b92b6004] (0+3/3) Accurately ripped
03 [d2d5dd12|6b848c46] (0+3/3) Accurately ripped
04 [faed5bb0|88aa8aa5] (0+3/3) Accurately ripped
05 [3461b109|0e466a67] (0+3/3) Accurately ripped
06 [cddcea1f|f5fe0da8] (0+3/3) Accurately ripped
07 [0c6eb0db|1387a5bb] (0+3/3) Accurately ripped
08 [610afcbd|58b8fbd9] (0+3/3) Accurately ripped
09 [ee1a7199|edbe75db] (0+3/3) Accurately ripped

Track Peak [ CRC32 ] [W/O NULL] [ LOG ]
– 97,1 [646879C7] [A2CCCC65]
01 87,5 [BA4305F8] [056825A0] CRC32
02 70,0 [CB8E88A6] [930B1759] CRC32
03 85,0 [4168FFD2] [D16A2D6A] CRC32
04 97,1 [920572B4] [772F9504] CRC32
05 74,2 [CE9001D4] [4CE37717] CRC32
06 80,0 [2CC83896] [41A07397] CRC32
07 56,9 [D54B75D7] [60217431] CRC32
08 85,6 [CB71D5EF] [4EED0073] CRC32
09 75,6 [17955296] [7D8EF0B6] CRC32

The Bob Florence Limited Edition - 4 Albums (1983-1998)

The Bob Florence Limited Edition - Serendipity 18 (1998)
EAC Rip | FLAC (tracks+.cue+log) - 457 MB | MP3 CBR 320 kbps (LAME 3.93) - 172 MB | Covers - 38 MB
Genre: Jazz, Big Band | RAR 3% Rec. | Label: MAMA Foundation (MMF 1025)

Tracklist:
01. Serendipity 18
02. Sugar
03. Tres Palabras
04. Now Playing
05. Bimbosity
06. Evelyn
E-Motions:
07. Part 1
08. Part 2
09. Part 3

Total time: 01:13:09

Exact Audio Copy V0.99 prebeta 4 from 23. January 2008

EAC extraction logfile from 7. November 2009, 18:12

Bob Florence / Serendipity 18

Used drive : HL-DT-STDVD-RAM GH22NP20 Adapter: 0 ID: 0

Read mode : Secure
Utilize accurate stream : Yes
Defeat audio cache : Yes
Make use of C2 pointers : No

Read offset correction : 102
Overread into Lead-In and Lead-Out : No
Fill up missing offset samples with silence : Yes
Delete leading and trailing silent blocks : No
Null samples used in CRC calculations : Yes
Used interface : Installed external ASPI interface
Gap handling : Appended to previous track

Used output format : User Defined Encoder
Selected bitrate : 320 kBit/s
Quality : High
Add ID3 tag : No
Command line compressor : C:\Program Files\Exact Audio Copy\Flac\flac.exe
Additional command line options : -V -8 -T "artist=%a" -T "title=%t" -T "album=%g" -T "date=%y" -T "tracknumber=%n" -T "genre=%m" %s


TOC of the extracted CD

Track | Start | Length | Start sector | End sector
––––––––––––––––––––––––––––-
1 | 0:00.00 | 9:24.07 | 0 | 42306
2 | 9:24.07 | 7:52.24 | 42307 | 77730
3 | 17:16.31 | 10:31.34 | 77731 | 125089
4 | 27:47.65 | 9:38.28 | 125090 | 168467
5 | 37:26.18 | 8:47.31 | 168468 | 208023
6 | 46:13.49 | 7:55.19 | 208024 | 243667
7 | 54:08.68 | 6:27.00 | 243668 | 272692
8 | 60:35.68 | 8:06.64 | 272693 | 309206
9 | 68:42.57 | 4:26.42 | 309207 | 329198


Track 1

Filename D:\music\Musicgate's rips\Bob Florence - Serendipity 18 (1998)\01 - Serendipity 18.wav

Pre-gap length 0:00:02.00

Peak level 94.4 %
Track quality 100.0 %
Test CRC C48AC5F0
Copy CRC C48AC5F0
Accurately ripped (confidence 1) [3298D553]
Copy OK

Track 2

Filename D:\music\Musicgate's rips\Bob Florence - Serendipity 18 (1998)\02 - Sugar.wav

Peak level 94.4 %
Track quality 100.0 %
Test CRC 7CA4E7CE
Copy CRC 7CA4E7CE
Accurately ripped (confidence 1) [7A94E5C0]
Copy OK

Track 3

Filename D:\music\Musicgate's rips\Bob Florence - Serendipity 18 (1998)\03 - Tres Palabras.wav

Peak level 94.4 %
Track quality 100.0 %
Test CRC C6E72FDC
Copy CRC C6E72FDC
Accurately ripped (confidence 1) [0D48E9ED]
Copy OK

Track 4

Filename D:\music\Musicgate's rips\Bob Florence - Serendipity 18 (1998)\04 - Now Playing.wav

Peak level 94.4 %
Track quality 100.0 %
Test CRC 856FD3EA
Copy CRC 856FD3EA
Accurately ripped (confidence 1) [AAC55F80]
Copy OK

Track 5

Filename D:\music\Musicgate's rips\Bob Florence - Serendipity 18 (1998)\05 - Bimbosity.wav

Peak level 94.4 %
Track quality 100.0 %
Test CRC F1E8DB40
Copy CRC F1E8DB40
Accurately ripped (confidence 1) [3BEAE0D2]
Copy OK

Track 6

Filename D:\music\Musicgate's rips\Bob Florence - Serendipity 18 (1998)\06 - Evelyn.wav

Peak level 94.4 %
Track quality 100.0 %
Test CRC 155CB6B8
Copy CRC 155CB6B8
Accurately ripped (confidence 1) [AC304180]
Copy OK

Track 7

Filename D:\music\Musicgate's rips\Bob Florence - Serendipity 18 (1998)\07 - E-Motions, Pt. 1.wav

Peak level 94.4 %
Track quality 100.0 %
Test CRC 6330BD81
Copy CRC 6330BD81
Accurately ripped (confidence 1) [A0C5EAE5]
Copy OK

Track 8

Filename D:\music\Musicgate's rips\Bob Florence - Serendipity 18 (1998)\08 - E-Motions, Pt. 2.wav

Peak level 94.4 %
Track quality 100.0 %
Test CRC 7DF85C27
Copy CRC 7DF85C27
Accurately ripped (confidence 1) [A053808C]
Copy OK

Track 9

Filename D:\music\Musicgate's rips\Bob Florence - Serendipity 18 (1998)\09 - E-Motions, Pt. 3.wav

Peak level 94.4 %
Track quality 100.0 %
Test CRC 8960A51E
Copy CRC 8960A51E
Accurately ripped (confidence 1) [0E07B59D]
Copy OK


All tracks accurately ripped

No errors occurred

End of status report

[CUETools log; Date: 01.08.2020 10:25:55; Version: 2.1.4]
[CTDB TOCID: q1UuusGGouOPLqCPnQEXCra37Qc-] found.
Track | CTDB Status
1 | (3/3) Accurately ripped
2 | (3/3) Accurately ripped
3 | (3/3) Accurately ripped
4 | (3/3) Accurately ripped
5 | (3/3) Accurately ripped
6 | (3/3) Accurately ripped
7 | (3/3) Accurately ripped
8 | (3/3) Accurately ripped
9 | (3/3) Accurately ripped
[AccurateRip ID: 001b1b03-00c46445-82112509] found.
Track [ CRC | V2 ] Status
01 [3298d553|4a86c81c] (0+6/6) Accurately ripped
02 [7a94e5c0|6de39bed] (0+6/6) Accurately ripped
03 [0d48e9ed|cf40dfc9] (0+6/6) Accurately ripped
04 [aac55f80|8e0335c9] (0+6/6) Accurately ripped
05 [3beae0d2|785d4ce7] (0+6/6) Accurately ripped
06 [ac304180|e1d180fe] (0+6/6) Accurately ripped
07 [a0c5eae5|74bb443f] (0+6/6) Accurately ripped
08 [a053808c|f7301936] (0+6/6) Accurately ripped
09 [0e07b59d|e002a80f] (0+5/5) Accurately ripped

Track Peak [ CRC32 ] [W/O NULL] [ LOG ]
– 94,4 [FDCD3B35] [A4AE5F21]
01 94,4 [C48AC5F0] [7011E23F] CRC32
02 94,4 [7CA4E7CE] [205F5F9D] CRC32
03 94,4 [C6E72FDC] [CDC9A9AE] CRC32
04 94,4 [856FD3EA] [B8032007] CRC32
05 94,4 [F1E8DB40] [53EC8A95] CRC32
06 94,4 [155CB6B8] [23513C16] CRC32
07 94,4 [6330BD81] [5487C580] CRC32
08 94,4 [7DF85C27] [2C4C9224] CRC32
09 94,4 [8960A51E] [B5368F03] CRC32

Thanks to Musicgate