Subcategories
Please register here if you want to download anything!

If domain in your address bar is different from the list below
PLEASE LEAVE THAT SITE IMMEDIATELY
❗IT'S A DANGEROUS FAKE❗



Spicy Magazines for Men! ;-)

The Sonny Moorman Group - Lucky 13 (2014)

Posted By: popsakov
The Sonny Moorman Group - Lucky 13 (2014)

The Sonny Moorman Group - Lucky 13 (2014)
EAC Rip | FLAC (Img) + Cue + Log ~ 498 Mb | MP3 CBR320 ~ 174 Mb
Scans Included | RAR 5% Recovery
Electric Blues, Blues Rock | Atlas Records #ATLAS0013

Moorman and his band take the blues ethos, plant it in the garden of their own experience, and let it grow into something which is natural, unforced, blues-drenched, and rocks like crazy. More than just a Blues-Rock artist, award-winning guitar player Sonny Moorman balances his signature smoking-hot riffs with a hard-rocking precision and feel born deep in the Blues ethos. Seeming to channel inspiration from elsewhere, his world-class playing is at once both transcendental and firmly grounded in reality, captivating audiences nationwide. The music is original, complex and never stale, with relatable lyrics and a sound that conjures up masters like Duane Allman, Lonnie Mack, and Freddy King. Still, Moorman has forged his own intoxicating style throughout his decades-long career, which firmly establishes him as one of the last great authentic roadhouse players.

Moorman and his band headlined 2012 GABBAfest (where he played Duane Allman’s Guitar!) and the Blues stage at the 2010 Montreal Jazz Fest. He appeared as a Band Finalist at the 2010 International Blues Challenge and won 2nd place in the IBC Solo/Duo competition in 2007. Moorman has released a number of CDs throughout his career, garnering critical acclaim and commercial success – including an excellent review of his latest release, More Live As Hell, by Blues Revue Magazine. Other accolades include being selected 2008 Blues Artist on the Rise by Blues Festival Guide Magazine. Now, after being a Power Trio for two decades, the Sonny Moorman Group is proud to announce the addition of Mike Sonderman on Hammond B-3 organ. Along with the rhythm section that has powered the SMG for many years – Dave Fair on Drums and Chris Perreault on Bass, the band is back on Atlas Records and has a new release, "Lucky 13"!

***************

The Sonny Moorman Group - Lucky 13 (2014)

Track List:

01. Ol' Gunslinger [03:56]
02. Deal With The Devil [05:06]
03. You Quit On Me, Baby [06:22]
04. Go Updated [05:57]
05. Macon [04:23]
06. Winter [04:20]
07. I Am [04:08]
08. Half The Money [04:19]
09. Tore Up [03:51]
10. Cherokee Rose [03:52]
11. Tell Mama [07:33]
12. Take The Motorway [04:01]
13. Statesboro Blues [05:48]

Exact Audio Copy V1.0 beta 3 from 29. August 2011

Отчёт EAC об извлечении, выполненном 26. октября 2014, 11:04

The Sonny Moorman Group / Lucky 13

Дисковод: PLEXTOR DVDR PX-880SA Adapter: 1 ID: 0

Режим чтения : Достоверность
Использование точного потока : Да
Отключение кэша аудио : Да
Использование указателей C2 : Нет

Коррекция смещения при чтении : 6
Способность читать области Lead-in и Lead-out : Нет
Заполнение пропущенных сэмплов тишиной : Да
Удаление блоков с тишиной в начале и конце : Нет
При вычислениях CRC использовались нулевые сэмплы : Да
Интерфейс : Установленный внешний ASPI-интерфейс

Выходной формат : Пользовательский кодировщик
Выбранный битрейт : 1024 kBit/s
Качество : Высокий
Добавление ID3-тега : Нет
Утилита сжатия : C:\Program Files\Exact Audio Copy\FLAC\FLAC.EXE
Дополнительные параметры : -10 -V -T "ARTIST=%artist%" -T "ALBUM=%albumtitle%" -T "DATE=%year%" -T "GENRE=%genre%" -T "COMMENT=ripped by izia1956" %source%


TOC извлечённого CD

Трек | Старт | Длительность | Начальный сектор | Конечный сектор
––––––––––––––––––––––––––––––––––-
1 | 0:00.00 | 3:55.61 | 0 | 17685
2 | 3:55.61 | 5:05.38 | 17686 | 40598
3 | 9:01.24 | 6:21.13 | 40599 | 69186
4 | 15:22.37 | 5:56.07 | 69187 | 95893
5 | 21:18.44 | 4:22.12 | 95894 | 115555
6 | 25:40.56 | 4:19.39 | 115556 | 135019
7 | 30:00.20 | 4:07.19 | 135020 | 153563
8 | 34:07.39 | 4:18.37 | 153564 | 172950
9 | 38:26.01 | 3:50.07 | 172951 | 190207
10 | 42:16.08 | 3:51.24 | 190208 | 207556
11 | 46:07.32 | 7:32.15 | 207557 | 241471
12 | 53:39.47 | 4:00.68 | 241472 | 259539
13 | 57:40.40 | 5:47.68 | 259540 | 285632


Характеристики диапазона извлечения и сообщения об ошибках

Выбранный диапазон

Имя файла D:\BitComet\Sonny Moorman (flac)\2014 - Lucky 13\The Sonny Moorman Group - Lucky 13.wav

Пиковый уровень 98.8 %
Скорость извлечения 8.6 X
Качество диапазона 100.0 %
CRC теста 22BBA5C2
CRC копии 22BBA5C2
Копирование… OK

Ошибок не произошло


AccurateRip: сводка

Трек 1 отсутствует в базе данных
Трек 2 отсутствует в базе данных
Трек 3 отсутствует в базе данных
Трек 4 отсутствует в базе данных
Трек 5 отсутствует в базе данных
Трек 6 отсутствует в базе данных
Трек 7 отсутствует в базе данных
Трек 8 отсутствует в базе данных
Трек 9 отсутствует в базе данных
Трек 10 отсутствует в базе данных
Трек 11 отсутствует в базе данных
Трек 12 отсутствует в базе данных
Трек 13 отсутствует в базе данных

Ни одного трека нет в базе AccurateRip

Конец отчёта

==== Контрольная сумма отчёта 109E23280E372D0783315A56080463C73093362FC902C5DDCD0EBFC925CD82AA ====

The Sonny Moorman Group - Lucky 13 (2014)

All thanks go to izia1956

>>> My Blog <<<

Download from icerbox.com: