Subcategories

The Singers Unlimited - Magic Voices (1998) 7 CD Box Set [Re-Up]

Posted By: Designol
The Singers Unlimited - Magic Voices (1998) 7 CD Box Set [Re-Up]

The Singers Unlimited - Magic Voices (1998) 7 CD Box Set
EAC | FLAC | Tracks (Cue&Log) ~ 2.45 Gb | Mp3 (CBR320) ~ 1.18 Gb | Scans ~ 1 Gb
Vocal Jazz, Acapella, Harmony Vocal Group | Label: MPS | # 539 131/137 | Time: 08:45:50

This vocal quartet originally started life as an extension of jazz band the Hi-Lo’s. From that prominent '50s band came Don Shelton, who decided to form Singers Unlimited after the Hi-Lo’s broke up in 1964. After retreating to Chicago, Illinois, where he worked on a series of television commercials, he enlisted fellow Hi-Lo’s veteran Gene Puerling of Milwaukee, Wisconsin, to join him in the city in 1967. The group was formed along with Len Dresslar and Bonnie Herman, with the express intention of recording commercials in the doo wop/vocal group idiom. Shelton’s connections in the industry ensured the group was able to exploit the market successfully, and lucrative work rolled in. However, the 30-second snatches of songs hardly satisfied their artistic ambitions, and when they found themselves with studio time left over after one session, they recorded a take on the Beatles' "The Fool on the Hill." Through visiting jazz pianist Oscar Peterson, the demo of the a cappella recording was passed to MPS Records in Germany. As a consequence, the Singers Unlimited, as the group had named themselves, found themselves with their own recording contract. An album of standards followed in 1972, with more John Lennon/Paul McCartney compositions, plus material plucked from Joni Mitchell's back catalog, all performed in a technically precise but spirited doo wop/a cappella idiom. While it hardly set the pop charts alight, the collection did receive one notable accolade, the German Record Grand Prix of 1973. A steady stream of albums were issued during the '70s to a loyal following.

Allmusic.com

This is indeed a magical collection of the complete recordings of Singers Unlimited for MPS, a German record company that produced LPs and CDs for about 15 years from 1968. The set comprises 7 CDs, each of which contains the music from two LPs: 141 tracks in all. The only record that doesn't appear here is the Singers Unlimited Christmas album.

CD1 contains an LP with Oscar Peterson and the first of the a cappella albums. CD2 features Art van Damme on accordion in one of the LPs. CD3 has backings by the Robert Farnon on the first release (LP: Sentimental Journey) and the second LP is A Cappella II. CD4 has small orchestral combos conducted by Pat Williams (LP: Feeling Free) and by Clare Fischer (LP: A Special Blend). CD5 is a reworking of the LPs Friends (orchestra arranged and conducted by Patrick Wiliams) and Eventide (orchestra conducted by Robert Farnon).

CD6 combines the LPs Four Of Us (orchestral arrangements by Les Hooper) and Singers Unlimited with the Rob McConnell and the Boss Brass. CD7 is the final a cappella album (A Cappella III) with another album (Easy to Love) directed by Les Hooper.

If you liked the HiLos, you'll like Singers Unlimited even more for their beautiful harmonies, made more mellow by the combination of three male voices with that of Bonnie Herman. Both vocal quartets were under the direction of Gene Puerling. This is one CD set I could not do without on my desert island!

Review by Dr. H. A. Jones, Amazon.com

The Singers Unlimited - Magic Voices (1998) 7 CD Box Set [Re-Up]

The Singers Unlimited - Magic Voices (1998) 7 CD Box Set [Re-Up]




Tracklist:

CD1: In Tune (1971) & A Cappella (1971):

01. Sesame Street (2:55)
02. It Never Entered My Mind (4:03)
03. Children's Games (2:41)
04. The Gentle Rain (3:24)
05. A Child Is Born (3:44)
06. The Shadow of Your Smile (4:32)
07. Catherine (3:02)
08. Once Upon a Summertime (3:28)
09. Here's That Rainy Day (4:41)
10. Both Sides Now (3:03)
11. London by Night (3:31)
12. Here, There and Everywhere (2:55)
13. Lullaby (1:35)
14. Michelle (3:50)
15. The Fool on the Hill (4:16)
16. Emily (4:01)
17. Since You Asked (2:59)
18. More I Can Not Wish You (3:35)
19. Try to Remember (3:58)

CD2: Just in Time (1977) & Invitation (1974):

01. Just in Time (3:29)
02. My Foolish Heart (4:06)
03. Stone Ground Seven (5:16)
04. Sleep Loved (3:53)
05. Someone to Watch Over Me (4:43)
06. Honeysuckle Rose (4:17)
07. Zip-A-Dee Doo-Dah (4:15)
08. Prelude to a Kiss (4:19)
09. It Had to Be You (3:27)
10. Impossible (3:51)
11. Spring Is Here (2:30)
12. But Beautiful (3:01)
13. We Could Be Flying (4:24)
14. Violets for Your Furs (4:21)
15. Invitation (4:05)
16. Cherry (2:22)
17. Ecstasy (3:29)
18. Let There Be Love (2:35)
19. My One and Only Love (3:45)
20. Wave (3:15)
21. Goodbye (2:56)

CD3: Sentimental Journey (1976) & A Cappella II (1975):

01. The More I See You (4:07)
02. Sleepy Time Gal (3:11)
03. I Get Along Without You Very Well (3:55)
04. Angel Eyes (5:36)
05. As Time Goes By (3:54)
06. I'll Remember April (4:51)
07. If I Didn't Care (4:17)
08. Sentimental Journey (4:35)
09. In the Still of the Night (3:44)
10. Clair (2:35)
11. Killing Me Softly With His Song (4:21)
12. Yesterday (3:23)
13. My Romance (2:36)
14. Lost in the Stars (3:18)
15. April in Paris (3:11)
16. Girl Talk (2:40)
17. Nature Boy (3:27)
18. I Don't Know Where I Stand (3:29)
19. Autumn in New York (2:50)
20. Like Someone in Love (3:34)
21. Indian Summer (2:54)

CD4: Feeling Free (1975) & A Special Blend (1976):

01. You Are the Sunshine of My Life (2:52)
02. A Time for Love (4:08)
03. On Green Dolphin Street (4:02)
04. So Many Stars (3:40)
05. Feeling Free With Patric B. (4:52)
06. Ja-Da (4:03)
07. Skylark (4:27)
08. On a Clear Day (3:07)
09. I'm Shadowing You (3:45)
10. Where Is the Love (3:29)
11. Bye Bye Blues (4:11)
12. 'Round Midnight (3:27)
13. Cry Me a River (4:00)
14. Born to Be Blue (3:39)
15. I Left My Heart in San Francisco (4:28)
16. Mood Indigo (4:28)
17. Gotcha (4:20)
18. Why Don't You Do Right? (4:23)
19. When I Fall in Love (4:36)

CD5: Friends (1977) & Eventide (1979):

01. Sweet Georgia Brown (3:13)
02. When April Comes Again (3:27)
03. Just Friends (3:38)
04. The Trouble With Hello Is Goodbye (3:46)
05. I Got Rhythm (4:13)
06. Don't Get Around Much Anymore (4:10)
07. When the Sun Comes Out (3:45)
08. Eleanor Rigby (5:23)
09. She Was Too Good to Me (3:58)
10. I'm Gonna Go Fishin' (3:37)
11. Deep Purple (3:47)
12. Put Your Dreams Away (For Another Day) (3:45)
13. I Loved You (3:31)
14. Mona Lisa (3:58)
15. Feelings (4:59)
16. Gymnopédies I (4:18)
17. Yours Truly, Rosa (3:12)
18. Marlies (2:51)
19. How Beautiful Is Night (3:27)
20. Eventide (3:12)

CD6: Four of Us (1973) & With Rob McConnell (1979):

01. We've Only Just Begun (3:58)
02. It Could Happen to You (2:46)
03. Soon It's Gonna Rain (2:56)
04. Where Is Love (2:57)
05. My Ship (3:55)
06. You've Got a Friend (4:04)
07. Jennifer's Rabbit (2:05)
08. Look Around (3:42)
09. Snowfall (3:15)
10. If (4:03)
11. Air (From the Suite in D) (4:11)
12. Tangerine (3:14)
13. Laura (4:01)
14. Lullaby of the Leaves (4:15)
15. You Are My Sunshine (2:31)
16. Sophisticated Lady (5:07)
17. (This Is the End of) A Beautiful Friendship (2:20)
18. It Might as Well Be Spring (6:07)
19. Chelsea Morning (3:32)
20. Dindi (3:22)
21. Pieces of Dreams (4:23)

CD7: A Cappella III (1980) & Easy to Love (1982):

01. Anything Goes (3:34)
02. The Way We Were (3:11)
03. One More Time, Chick Corea (3:23)
04. Sweet Lorraine (3:28)
05. Jeanie With the Light Brown Hair (2:38)
06. Someone to Light Up My Life (3:25)
07. Love Is Here to Stay (3:23)
08. The Entertainer (3:11)
09. All the Things You Are (3:47)
10. Sometimes I Feel Like a Motherless Child (4:33)
11. I Wish You Love (3:22)
12. Easy to Love (3:16)
13. Where or When (4:16)
14. Close Enough for Love (4:44)
15. Mountain Greenery (4:19)
16. Lullaby of Birdland (4:13)
17. Fallin' in Love With Love (3:56)
18. Nina Never Knew (4:40)
19. Bass-Ically Speaking (3:12)
20. Willow Weep for Me (5:24)


Exact Audio Copy V1.1 from 23. June 2015

EAC extraction logfile from 26. March 2016, 12:12

The Singers Unlimited / Magic Voices

Used drive : TSSTcorpCDDVDW TS-U633J Adapter: 1 ID: 0

Read mode : Secure
Utilize accurate stream : Yes
Defeat audio cache : Yes
Make use of C2 pointers : No

Read offset correction : 6
Overread into Lead-In and Lead-Out : No
Fill up missing offset samples with silence : Yes
Delete leading and trailing silent blocks : No
Null samples used in CRC calculations : Yes
Used interface : Native Win32 interface for Win NT & 2000
Gap handling : Appended to previous track

Used output format : User Defined Encoder
Selected bitrate : 1024 kBit/s
Quality : High
Add ID3 tag : No
Command line compressor : C:\Program Files (x86)\Exact Audio Copy\Flac\flac.exe
Additional command line options : -8 -e -V -T "ARTIST=%artist%" -T "TITLE=%title%" -T "ALBUM=%albumtitle%" -T "DATE=%year%" -T "TRACKNUMBER=%tracknr%" -T "GENRE=%genre%" -T "PERFORMER=%albuminterpret%" -T "COMPOSER=%composer%" %haslyrics%–tag-from-file=LYRICS="%lyricsfile%"%haslyrics% -T "ALBUMARTIST=%albumartist%" -T "DISCNUMBER=%cdnumber%" -T "TOTALDISCS=%totalcds%" -T "TOTALTRACKS=%numtracks%" -T "COMMENT=%comment%" %source% -o %dest%


TOC of the extracted CD

Track | Start | Length | Start sector | End sector
––––––––––––––––––––––––––––-
1 | 0:00.00 | 2:54.52 | 0 | 13101
2 | 2:54.52 | 4:02.65 | 13102 | 31316
3 | 6:57.42 | 2:40.63 | 31317 | 43379
4 | 9:38.30 | 3:23.45 | 43380 | 58649
5 | 13:02.00 | 3:43.47 | 58650 | 75421
6 | 16:45.47 | 4:31.53 | 75422 | 95799
7 | 21:17.25 | 3:02.05 | 95800 | 109454
8 | 24:19.30 | 3:28.30 | 109455 | 125084
9 | 27:47.60 | 4:40.72 | 125085 | 146156
10 | 32:28.57 | 3:03.28 | 146157 | 159909
11 | 35:32.10 | 3:31.10 | 159910 | 175744
12 | 39:03.20 | 2:55.15 | 175745 | 188884
13 | 41:58.35 | 1:35.15 | 188885 | 196024
14 | 43:33.50 | 3:49.67 | 196025 | 213266
15 | 47:23.42 | 4:16.35 | 213267 | 232501
16 | 51:40.02 | 4:01.28 | 232502 | 250604
17 | 55:41.30 | 2:59.30 | 250605 | 264059
18 | 58:40.60 | 3:35.22 | 264060 | 280206
19 | 62:16.07 | 3:57.70 | 280207 | 298051


Track 1

Filename C:\EAC Rips\The Singers Unlimited - Magic Voices (1998) [FLAC] {7CD Box}\Disc 1 - In Tune (1971) & A Cappella (1971)\01 - Sesame Street.wav

Pre-gap length 0:00:02.00

Peak level 99.8 %
Extraction speed 2.7 X
Track quality 100.0 %
Test CRC B3312AB9
Copy CRC B3312AB9
Accurately ripped (confidence 4) [03FF6019] (AR v2)
Copy OK

Track 2

Filename C:\EAC Rips\The Singers Unlimited - Magic Voices (1998) [FLAC] {7CD Box}\Disc 1 - In Tune (1971) & A Cappella (1971)\02 - It Never Entered My Mind.wav

Pre-gap length 0:00:01.62

Peak level 99.8 %
Extraction speed 3.1 X
Track quality 100.0 %
Test CRC 42E3B525
Copy CRC 42E3B525
Accurately ripped (confidence 4) [BDAADF6D] (AR v2)
Copy OK

Track 3

Filename C:\EAC Rips\The Singers Unlimited - Magic Voices (1998) [FLAC] {7CD Box}\Disc 1 - In Tune (1971) & A Cappella (1971)\03 - Children's Games.wav

Pre-gap length 0:00:01.62

Peak level 99.8 %
Extraction speed 3.1 X
Track quality 100.0 %
Test CRC 428AF81C
Copy CRC 428AF81C
Accurately ripped (confidence 4) [37EBD5A8] (AR v2)
Copy OK

Track 4

Filename C:\EAC Rips\The Singers Unlimited - Magic Voices (1998) [FLAC] {7CD Box}\Disc 1 - In Tune (1971) & A Cappella (1971)\04 - The Gentle Rain.wav

Pre-gap length 0:00:01.64

Peak level 99.8 %
Extraction speed 3.5 X
Track quality 100.0 %
Test CRC 058225B9
Copy CRC 058225B9
Accurately ripped (confidence 4) [AC05FF6C] (AR v2)
Copy OK

Track 5

Filename C:\EAC Rips\The Singers Unlimited - Magic Voices (1998) [FLAC] {7CD Box}\Disc 1 - In Tune (1971) & A Cappella (1971)\05 - A Child Is Born.wav

Pre-gap length 0:00:01.64

Peak level 99.8 %
Extraction speed 3.7 X
Track quality 100.0 %
Test CRC AF063ABD
Copy CRC AF063ABD
Accurately ripped (confidence 4) [4DCABE98] (AR v2)
Copy OK

Track 6

Filename C:\EAC Rips\The Singers Unlimited - Magic Voices (1998) [FLAC] {7CD Box}\Disc 1 - In Tune (1971) & A Cappella (1971)\06 - The Shadow of Your Smile.wav

Pre-gap length 0:00:01.62

Peak level 99.8 %
Extraction speed 4.0 X
Track quality 100.0 %
Test CRC E3B8B425
Copy CRC E3B8B425
Accurately ripped (confidence 4) [852E2121] (AR v2)
Copy OK

Track 7

Filename C:\EAC Rips\The Singers Unlimited - Magic Voices (1998) [FLAC] {7CD Box}\Disc 1 - In Tune (1971) & A Cappella (1971)\07 - Catherine.wav

Pre-gap length 0:00:01.64

Peak level 99.8 %
Extraction speed 4.0 X
Track quality 100.0 %
Test CRC 334149C4
Copy CRC 334149C4
Accurately ripped (confidence 4) [33BAC98F] (AR v2)
Copy OK

Track 8

Filename C:\EAC Rips\The Singers Unlimited - Magic Voices (1998) [FLAC] {7CD Box}\Disc 1 - In Tune (1971) & A Cappella (1971)\08 - Once Upon a Summertime.wav

Pre-gap length 0:00:01.64

Peak level 99.7 %
Extraction speed 4.2 X
Track quality 100.0 %
Test CRC DDCF1952
Copy CRC DDCF1952
Accurately ripped (confidence 4) [734107C9] (AR v2)
Copy OK

Track 9

Filename C:\EAC Rips\The Singers Unlimited - Magic Voices (1998) [FLAC] {7CD Box}\Disc 1 - In Tune (1971) & A Cappella (1971)\09 - Here's That Rainy Day.wav

Pre-gap length 0:00:01.64

Peak level 99.8 %
Extraction speed 4.6 X
Track quality 100.0 %
Test CRC 0BE44601
Copy CRC 0BE44601
Accurately ripped (confidence 4) [66269F5C] (AR v2)
Copy OK

Track 10

Filename C:\EAC Rips\The Singers Unlimited - Magic Voices (1998) [FLAC] {7CD Box}\Disc 1 - In Tune (1971) & A Cappella (1971)\10 - Both Sides Now.wav

Pre-gap length 0:00:01.62

Peak level 99.8 %
Extraction speed 4.5 X
Track quality 100.0 %
Test CRC 4A799769
Copy CRC 4A799769
Accurately ripped (confidence 3) [FF46BDE3] (AR v2)
Copy OK

Track 11

Filename C:\EAC Rips\The Singers Unlimited - Magic Voices (1998) [FLAC] {7CD Box}\Disc 1 - In Tune (1971) & A Cappella (1971)\11 - London by Night.wav

Pre-gap length 0:00:01.64

Peak level 99.8 %
Extraction speed 3.6 X
Track quality 99.9 %
Test CRC DEEE4485
Copy CRC DEEE4485
Accurately ripped (confidence 4) [3425DBFF] (AR v2)
Copy OK

Track 12

Filename C:\EAC Rips\The Singers Unlimited - Magic Voices (1998) [FLAC] {7CD Box}\Disc 1 - In Tune (1971) & A Cappella (1971)\12 - Here, There and Everywhere.wav

Pre-gap length 0:00:01.64

Peak level 99.8 %
Extraction speed 4.5 X
Track quality 100.0 %
Test CRC 6278D92D
Copy CRC 6278D92D
Accurately ripped (confidence 4) [2D360CC3] (AR v2)
Copy OK

Track 13

Filename C:\EAC Rips\The Singers Unlimited - Magic Voices (1998) [FLAC] {7CD Box}\Disc 1 - In Tune (1971) & A Cappella (1971)\13 - Lullaby.wav

Pre-gap length 0:00:01.64

Peak level 99.7 %
Extraction speed 3.9 X
Track quality 100.0 %
Test CRC 7CB740AE
Copy CRC 7CB740AE
Accurately ripped (confidence 4) [5038B71A] (AR v2)
Copy OK

Track 14

Filename C:\EAC Rips\The Singers Unlimited - Magic Voices (1998) [FLAC] {7CD Box}\Disc 1 - In Tune (1971) & A Cappella (1971)\14 - Michelle.wav

Pre-gap length 0:00:01.64

Peak level 99.8 %
Extraction speed 4.9 X
Track quality 100.0 %
Test CRC B14BF809
Copy CRC B14BF809
Accurately ripped (confidence 4) [2E4F1528] (AR v2)
Copy OK

Track 15

Filename C:\EAC Rips\The Singers Unlimited - Magic Voices (1998) [FLAC] {7CD Box}\Disc 1 - In Tune (1971) & A Cappella (1971)\15 - The Fool on the Hill.wav

Pre-gap length 0:00:01.62

Peak level 99.8 %
Extraction speed 5.1 X
Track quality 100.0 %
Test CRC 797962D5
Copy CRC 797962D5
Accurately ripped (confidence 4) [AC1562FF] (AR v2)
Copy OK

Track 16

Filename C:\EAC Rips\The Singers Unlimited - Magic Voices (1998) [FLAC] {7CD Box}\Disc 1 - In Tune (1971) & A Cappella (1971)\16 - Emily.wav

Pre-gap length 0:00:01.62

Peak level 99.8 %
Extraction speed 4.2 X
Track quality 99.9 %
Test CRC E9F9991C
Copy CRC E9F9991C
Accurately ripped (confidence 4) [6A7391F3] (AR v2)
Copy OK

Track 17

Filename C:\EAC Rips\The Singers Unlimited - Magic Voices (1998) [FLAC] {7CD Box}\Disc 1 - In Tune (1971) & A Cappella (1971)\17 - Since You Asked.wav

Pre-gap length 0:00:01.64

Peak level 99.8 %
Extraction speed 5.0 X
Track quality 100.0 %
Test CRC E6475C70
Copy CRC E6475C70
Accurately ripped (confidence 4) [620B44A8] (AR v2)
Copy OK

Track 18

Filename C:\EAC Rips\The Singers Unlimited - Magic Voices (1998) [FLAC] {7CD Box}\Disc 1 - In Tune (1971) & A Cappella (1971)\18 - More I Can Not Wish You.wav

Pre-gap length 0:00:01.64

Peak level 99.8 %
Extraction speed 5.3 X
Track quality 100.0 %
Test CRC 343F3C59
Copy CRC 343F3C59
Accurately ripped (confidence 4) [27FD2E5A] (AR v2)
Copy OK

Track 19

Filename C:\EAC Rips\The Singers Unlimited - Magic Voices (1998) [FLAC] {7CD Box}\Disc 1 - In Tune (1971) & A Cappella (1971)\19 - Try to Remember.wav

Pre-gap length 0:00:01.62

Peak level 99.8 %
Extraction speed 5.4 X
Track quality 100.0 %
Test CRC BD691DC5
Copy CRC BD691DC5
Accurately ripped (confidence 4) [43F970A7] (AR v2)
Copy OK


All tracks accurately ripped

No errors occurred

End of status report

–– CUETools DB Plugin V2.1.6

[CTDB TOCID: j3I9_.PYQ_4.PDtzs0OcDjV6068-] found
Submit result: j3I9_.PYQ_4.PDtzs0OcDjV6068- has been confirmed
Track | CTDB Status
1 | (6/6) Accurately ripped
2 | (6/6) Accurately ripped
3 | (6/6) Accurately ripped
4 | (6/6) Accurately ripped
5 | (6/6) Accurately ripped
6 | (6/6) Accurately ripped
7 | (6/6) Accurately ripped
8 | (6/6) Accurately ripped
9 | (6/6) Accurately ripped
10 | (6/6) Accurately ripped
11 | (6/6) Accurately ripped
12 | (6/6) Accurately ripped
13 | (6/6) Accurately ripped
14 | (6/6) Accurately ripped
15 | (6/6) Accurately ripped
16 | (6/6) Accurately ripped
17 | (6/6) Accurately ripped
18 | (6/6) Accurately ripped
19 | (6/6) Accurately ripped


==== Log checksum 56CAB0FD2D9906B9003FECD059824A83DB090EE3A13289E22082FE44A43B36BD ====

foobar2000 1.2 / Dynamic Range Meter 1.1.1
log date: 2017-03-09 21:04:50

––––––––––––––––––––––––––––––––––––––––
Analyzed: The Singers Unlimited / Magic Voices
––––––––––––––––––––––––––––––––––––––––

DR Peak RMS Duration Track
––––––––––––––––––––––––––––––––––––––––
DR11 -0.01 dB -13.68 dB 2:55 01-Sesame Street
DR10 -0.01 dB -13.12 dB 4:03 02-It Never Entered My Mind
DR11 -0.01 dB -13.59 dB 2:41 03-Children's Games
DR10 -0.01 dB -12.97 dB 3:24 04-The Gentle Rain
DR10 -0.01 dB -14.82 dB 3:44 05-A Child Is Born
DR10 -0.01 dB -12.89 dB 4:32 06-The Shadow of Your Smile
DR11 -0.01 dB -13.28 dB 3:02 07-Catherine
DR12 -0.02 dB -15.19 dB 3:28 08-Once Upon a Summertime
DR10 -0.01 dB -13.12 dB 4:41 09-Here's That Rainy Day
DR10 -0.01 dB -13.23 dB 3:03 10-Both Sides Now
DR10 -0.01 dB -12.82 dB 3:31 11-London by Night
DR10 -0.01 dB -12.94 dB 2:55 12-Here, There and Everywhere
DR10 -0.02 dB -13.21 dB 1:35 13-Lullaby
DR10 -0.01 dB -13.25 dB 3:50 14-Michelle
DR9 -0.01 dB -12.64 dB 4:16 15-The Fool on the Hill
DR10 -0.01 dB -13.00 dB 4:01 16-Emily
DR9 -0.02 dB -11.38 dB 2:59 17-Since You Asked
DR10 -0.02 dB -13.17 dB 3:35 18-More I Can Not Wish You
DR11 -0.01 dB -13.80 dB 3:58 19-Try to Remember
––––––––––––––––––––––––––––––––––––––––

Number of tracks: 19
Official DR value: DR10

Samplerate: 44100 Hz
Channels: 2
Bits per sample: 16
Bitrate: 682 kbps
Codec: FLAC
================================================================================


Exact Audio Copy V1.1 from 23. June 2015

EAC extraction logfile from 26. March 2016, 14:51

The Singers Unlimited / Magic Voices

Used drive : TSSTcorpCDDVDW TS-U633J Adapter: 1 ID: 0

Read mode : Secure
Utilize accurate stream : Yes
Defeat audio cache : Yes
Make use of C2 pointers : No

Read offset correction : 6
Overread into Lead-In and Lead-Out : No
Fill up missing offset samples with silence : Yes
Delete leading and trailing silent blocks : No
Null samples used in CRC calculations : Yes
Used interface : Native Win32 interface for Win NT & 2000
Gap handling : Appended to previous track

Used output format : User Defined Encoder
Selected bitrate : 1024 kBit/s
Quality : High
Add ID3 tag : No
Command line compressor : C:\Program Files (x86)\Exact Audio Copy\Flac\flac.exe
Additional command line options : -8 -e -V -T "ARTIST=%artist%" -T "TITLE=%title%" -T "ALBUM=%albumtitle%" -T "DATE=%year%" -T "TRACKNUMBER=%tracknr%" -T "GENRE=%genre%" -T "PERFORMER=%albuminterpret%" -T "COMPOSER=%composer%" %haslyrics%–tag-from-file=LYRICS="%lyricsfile%"%haslyrics% -T "ALBUMARTIST=%albumartist%" -T "DISCNUMBER=%cdnumber%" -T "TOTALDISCS=%totalcds%" -T "TOTALTRACKS=%numtracks%" -T "COMMENT=%comment%" %source% -o %dest%


TOC of the extracted CD

Track | Start | Length | Start sector | End sector
––––––––––––––––––––––––––––-
1 | 0:00.00 | 3:29.07 | 0 | 15681
2 | 3:29.07 | 4:06.23 | 15682 | 34154
3 | 7:35.30 | 5:16.25 | 34155 | 57879
4 | 12:51.55 | 3:53.27 | 57880 | 75381
5 | 16:45.07 | 4:43.18 | 75382 | 96624
6 | 21:28.25 | 4:17.12 | 96625 | 115911
7 | 25:45.37 | 4:15.13 | 115912 | 135049
8 | 30:00.50 | 4:18.55 | 135050 | 154454
9 | 34:19.30 | 3:27.15 | 154455 | 169994
10 | 37:46.45 | 3:50.45 | 169995 | 187289
11 | 41:37.15 | 2:29.70 | 187290 | 198534
12 | 44:07.10 | 3:01.32 | 198535 | 212141
13 | 47:08.42 | 4:23.55 | 212142 | 231921
14 | 51:32.22 | 4:21.18 | 231922 | 251514
15 | 55:53.40 | 4:05.07 | 251515 | 269896
16 | 59:58.47 | 2:21.70 | 269897 | 280541
17 | 62:20.42 | 3:29.33 | 280542 | 296249
18 | 65:50.00 | 2:34.42 | 296250 | 307841
19 | 68:24.42 | 3:44.70 | 307842 | 324711
20 | 72:09.37 | 3:15.15 | 324712 | 339351
21 | 75:24.52 | 2:56.35 | 339352 | 352586


Track 1

Filename C:\EAC Rips\The Singers Unlimited - Magic Voices (1998) [FLAC] {7CD Box}\Disc 2 - Just in Time (1977) & Invitation (1974)\01 - Just in Time.wav

Pre-gap length 0:00:02.00

Peak level 99.7 %
Extraction speed 1.1 X
Track quality 100.0 %
Test CRC 7193B161
Copy CRC 7193B161
Accurately ripped (confidence 8) [FA2C29BE] (AR v2)
Copy OK

Track 2

Filename C:\EAC Rips\The Singers Unlimited - Magic Voices (1998) [FLAC] {7CD Box}\Disc 2 - Just in Time (1977) & Invitation (1974)\02 - My Foolish Heart.wav

Pre-gap length 0:00:01.62

Peak level 99.7 %
Extraction speed 1.1 X
Track quality 99.9 %
Test CRC ADC330E8
Copy CRC ADC330E8
Accurately ripped (confidence 8) [287E6E59] (AR v2)
Copy OK

Track 3

Filename C:\EAC Rips\The Singers Unlimited - Magic Voices (1998) [FLAC] {7CD Box}\Disc 2 - Just in Time (1977) & Invitation (1974)\03 - Stone Ground Seven.wav

Pre-gap length 0:00:01.64

Peak level 99.8 %
Extraction speed 1.4 X
Track quality 100.0 %
Test CRC E6922571
Copy CRC E6922571
Accurately ripped (confidence 8) [692B726A] (AR v2)
Copy OK

Track 4

Filename C:\EAC Rips\The Singers Unlimited - Magic Voices (1998) [FLAC] {7CD Box}\Disc 2 - Just in Time (1977) & Invitation (1974)\04 - Sleep Loved.wav

Pre-gap length 0:00:01.64

Peak level 99.7 %
Extraction speed 1.3 X
Track quality 99.9 %
Test CRC A36B8475
Copy CRC A36B8475
Accurately ripped (confidence 8) [BA2D67F2] (AR v2)
Copy OK

Track 5

Filename C:\EAC Rips\The Singers Unlimited - Magic Voices (1998) [FLAC] {7CD Box}\Disc 2 - Just in Time (1977) & Invitation (1974)\05 - Someone to Watch Over Me.wav

Pre-gap length 0:00:01.62

Peak level 99.7 %
Extraction speed 1.6 X
Track quality 100.0 %
Test CRC 24EC9F95
Copy CRC 24EC9F95
Accurately ripped (confidence 8) [54D7DEF5] (AR v2)
Copy OK

Track 6

Filename C:\EAC Rips\The Singers Unlimited - Magic Voices (1998) [FLAC] {7CD Box}\Disc 2 - Just in Time (1977) & Invitation (1974)\06 - Honeysuckle Rose.wav

Pre-gap length 0:00:01.64

Peak level 99.7 %
Extraction speed 1.7 X
Track quality 100.0 %
Test CRC 7B36DB37
Copy CRC 7B36DB37
Accurately ripped (confidence 8) [75A5B2CE] (AR v2)
Copy OK

Track 7

Filename C:\EAC Rips\The Singers Unlimited - Magic Voices (1998) [FLAC] {7CD Box}\Disc 2 - Just in Time (1977) & Invitation (1974)\07 - Zip-A-Dee Doo-Dah.wav

Pre-gap length 0:00:01.62

Peak level 99.8 %
Extraction speed 1.6 X
Track quality 100.0 %
Test CRC C3AD012C
Copy CRC C3AD012C
Accurately ripped (confidence 8) [AB8F0C7F] (AR v2)
Copy OK

Track 8

Filename C:\EAC Rips\The Singers Unlimited - Magic Voices (1998) [FLAC] {7CD Box}\Disc 2 - Just in Time (1977) & Invitation (1974)\08 - Prelude to a Kiss.wav

Pre-gap length 0:00:01.64

Peak level 99.7 %
Extraction speed 1.7 X
Track quality 100.0 %
Test CRC B12C5D4F
Copy CRC B12C5D4F
Accurately ripped (confidence 8) [CDB36EF4] (AR v2)
Copy OK

Track 9

Filename C:\EAC Rips\The Singers Unlimited - Magic Voices (1998) [FLAC] {7CD Box}\Disc 2 - Just in Time (1977) & Invitation (1974)\09 - It Had to Be You.wav

Pre-gap length 0:00:01.64

Peak level 99.7 %
Extraction speed 1.8 X
Track quality 100.0 %
Test CRC C1ECA96F
Copy CRC C1ECA96F
Accurately ripped (confidence 8) [06BFB5EC] (AR v2)
Copy OK

Track 10

Filename C:\EAC Rips\The Singers Unlimited - Magic Voices (1998) [FLAC] {7CD Box}\Disc 2 - Just in Time (1977) & Invitation (1974)\10 - Impossible.wav

Pre-gap length 0:00:01.64

Peak level 99.8 %
Extraction speed 1.9 X
Track quality 100.0 %
Test CRC 3AC1DB3A
Copy CRC 3AC1DB3A
Accurately ripped (confidence 8) [77C39EB7] (AR v2)
Copy OK

Track 11

Filename C:\EAC Rips\The Singers Unlimited - Magic Voices (1998) [FLAC] {7CD Box}\Disc 2 - Just in Time (1977) & Invitation (1974)\11 - Spring Is Here.wav

Pre-gap length 0:00:01.64

Peak level 99.8 %
Extraction speed 1.6 X
Track quality 100.0 %
Test CRC D8F901BB
Copy CRC D8F901BB
Accurately ripped (confidence 8) [74855C60] (AR v2)
Copy OK

Track 12

Filename C:\EAC Rips\The Singers Unlimited - Magic Voices (1998) [FLAC] {7CD Box}\Disc 2 - Just in Time (1977) & Invitation (1974)\12 - But Beautiful.wav

Pre-gap length 0:00:01.64

Peak level 99.8 %
Extraction speed 1.7 X
Track quality 100.0 %
Test CRC 70D9ECAD
Copy CRC 70D9ECAD
Accurately ripped (confidence 8) [50229B78] (AR v2)
Copy OK

Track 13

Filename C:\EAC Rips\The Singers Unlimited - Magic Voices (1998) [FLAC] {7CD Box}\Disc 2 - Just in Time (1977) & Invitation (1974)\13 - We Could Be Flying.wav

Pre-gap length 0:00:01.62

Peak level 99.8 %
Extraction speed 1.5 X
Track quality 100.0 %
Test CRC 305C5CD8
Copy CRC 305C5CD8
Accurately ripped (confidence 8) [85FF7CD6] (AR v2)
Copy OK

Track 14

Filename C:\EAC Rips\The Singers Unlimited - Magic Voices (1998) [FLAC] {7CD Box}\Disc 2 - Just in Time (1977) & Invitation (1974)\14 - Violets for Your Furs.wav

Pre-gap length 0:00:01.62

Peak level 99.8 %
Extraction speed 1.4 X
Track quality 99.9 %
Test CRC F6476D3C
Copy CRC F6476D3C
Accurately ripped (confidence 8) [FD609027] (AR v2)
Copy OK

Track 15

Filename C:\EAC Rips\The Singers Unlimited - Magic Voices (1998) [FLAC] {7CD Box}\Disc 2 - Just in Time (1977) & Invitation (1974)\15 - Invitation.wav

Pre-gap length 0:00:01.64

Peak level 99.7 %
Extraction speed 0.9 X
Track quality 99.9 %
Test CRC 02307244
Copy CRC 02307244
Accurately ripped (confidence 8) [451818CA] (AR v2)
Copy OK

Track 16

Filename C:\EAC Rips\The Singers Unlimited - Magic Voices (1998) [FLAC] {7CD Box}\Disc 2 - Just in Time (1977) & Invitation (1974)\16 - Cherry.wav

Pre-gap length 0:00:01.62

Peak level 99.7 %
Extraction speed 1.0 X
Track quality 100.0 %
Test CRC 04214A1F
Copy CRC 04214A1F
Accurately ripped (confidence 8) [11B97CDD] (AR v2)
Copy OK

Track 17

Filename C:\EAC Rips\The Singers Unlimited - Magic Voices (1998) [FLAC] {7CD Box}\Disc 2 - Just in Time (1977) & Invitation (1974)\17 - Ecstasy.wav

Pre-gap length 0:00:01.62

Peak level 99.8 %
Extraction speed 1.0 X
Track quality 100.0 %
Test CRC E5933D13
Copy CRC E5933D13
Accurately ripped (confidence 8) [8D6C604C] (AR v2)
Copy OK

Track 18

Filename C:\EAC Rips\The Singers Unlimited - Magic Voices (1998) [FLAC] {7CD Box}\Disc 2 - Just in Time (1977) & Invitation (1974)\18 - Let There Be Love.wav

Pre-gap length 0:00:01.64

Peak level 99.8 %
Extraction speed 0.8 X
Track quality 100.0 %
Test CRC DCF19AAC
Copy CRC DCF19AAC
Accurately ripped (confidence 8) [664FE925] (AR v2)
Copy OK

Track 19

Filename C:\EAC Rips\The Singers Unlimited - Magic Voices (1998) [FLAC] {7CD Box}\Disc 2 - Just in Time (1977) & Invitation (1974)\19 - My One and Only Love.wav

Pre-gap length 0:00:01.66

Peak level 99.8 %
Extraction speed 0.9 X
Track quality 100.0 %
Test CRC B16A50C2
Copy CRC B16A50C2
Accurately ripped (confidence 8) [661F9C42] (AR v2)
Copy OK

Track 20

Filename C:\EAC Rips\The Singers Unlimited - Magic Voices (1998) [FLAC] {7CD Box}\Disc 2 - Just in Time (1977) & Invitation (1974)\20 - Wave.wav

Pre-gap length 0:00:01.62

Peak level 99.7 %
Extraction speed 0.5 X
Track quality 99.9 %
Test CRC B1BF22F9
Copy CRC B1BF22F9
Accurately ripped (confidence 8) [D73FB6CA] (AR v2)
Copy OK

Track 21

Filename C:\EAC Rips\The Singers Unlimited - Magic Voices (1998) [FLAC] {7CD Box}\Disc 2 - Just in Time (1977) & Invitation (1974)\21 - Goodbye.wav

Pre-gap length 0:00:01.62

Peak level 99.7 %
Extraction speed 0.2 X
Track quality 100.0 %
Test CRC 7E8CC863
Copy CRC 7E8CC863
Accurately ripped (confidence 8) [604DBA0A] (AR v2)
Copy OK


All tracks accurately ripped

No errors occurred

End of status report

–– CUETools DB Plugin V2.1.6

[CTDB TOCID: b_sYNJ36fNrDLwcEW_s8AdksTWE-] found
Submit result: b_sYNJ36fNrDLwcEW_s8AdksTWE- has been confirmed
Track | CTDB Status
1 | (9/9) Accurately ripped
2 | (9/9) Accurately ripped
3 | (9/9) Accurately ripped
4 | (9/9) Accurately ripped
5 | (9/9) Accurately ripped
6 | (9/9) Accurately ripped
7 | (9/9) Accurately ripped
8 | (9/9) Accurately ripped
9 | (9/9) Accurately ripped
10 | (9/9) Accurately ripped
11 | (9/9) Accurately ripped
12 | (9/9) Accurately ripped
13 | (9/9) Accurately ripped
14 | (9/9) Accurately ripped
15 | (9/9) Accurately ripped
16 | (9/9) Accurately ripped
17 | (9/9) Accurately ripped
18 | (9/9) Accurately ripped
19 | (9/9) Accurately ripped
20 | (9/9) Accurately ripped
21 | (9/9) Accurately ripped


==== Log checksum 18950BFAFE57EA2DC9774E55E2A8539783C9011D1B7FE7BF1ACDB550C1E19F37 ====

foobar2000 1.2 / Dynamic Range Meter 1.1.1
log date: 2017-03-09 21:05:20

––––––––––––––––––––––––––––––––––––––––
Analyzed: The Singers Unlimited / Magic Voices
––––––––––––––––––––––––––––––––––––––––

DR Peak RMS Duration Track
––––––––––––––––––––––––––––––––––––––––
DR10 -0.02 dB -11.84 dB 3:29 01-Just in Time
DR10 -0.02 dB -12.43 dB 4:06 02-My Foolish Heart
DR10 -0.02 dB -11.75 dB 5:16 03-Stone Ground Seven
DR11 -0.02 dB -15.57 dB 3:53 04-Sleep Loved
DR11 -0.02 dB -13.89 dB 4:43 05-Someone to Watch Over Me
DR10 -0.02 dB -12.01 dB 4:17 06-Honeysuckle Rose
DR10 -0.01 dB -11.61 dB 4:15 07-Zip-A-Dee Doo-Dah
DR10 -0.02 dB -12.94 dB 4:19 08-Prelude to a Kiss
DR12 -0.02 dB -13.94 dB 3:27 09-It Had to Be You
DR10 -0.01 dB -12.68 dB 3:51 10-Impossible
DR12 -0.01 dB -14.59 dB 2:30 11-Spring Is Here
DR12 -0.02 dB -15.32 dB 3:01 12-But Beautiful
DR11 -0.02 dB -15.04 dB 4:24 13-We Could Be Flying
DR11 -0.02 dB -13.23 dB 4:21 14-Violets for Your Furs
DR11 -0.02 dB -13.30 dB 4:05 15-Invitation
DR11 -0.02 dB -14.26 dB 2:22 16-Cherry
DR11 -0.01 dB -13.89 dB 3:29 17-Ecstasy
DR12 -0.01 dB -13.87 dB 2:35 18-Let There Be Love
DR10 -0.02 dB -13.35 dB 3:45 19-My One and Only Love
DR12 -0.02 dB -14.61 dB 3:15 20-Wave
DR12 -0.02 dB -15.85 dB 2:56 21-Goodbye
––––––––––––––––––––––––––––––––––––––––

Number of tracks: 21
Official DR value: DR11

Samplerate: 44100 Hz
Channels: 2
Bits per sample: 16
Bitrate: 774 kbps
Codec: FLAC
================================================================================


Exact Audio Copy V1.1 from 23. June 2015

EAC extraction logfile from 26. March 2016, 17:56

The Singers Unlimited / Magic Voices

Used drive : TSSTcorpCDDVDW TS-U633J Adapter: 1 ID: 0

Read mode : Secure
Utilize accurate stream : Yes
Defeat audio cache : Yes
Make use of C2 pointers : No

Read offset correction : 6
Overread into Lead-In and Lead-Out : No
Fill up missing offset samples with silence : Yes
Delete leading and trailing silent blocks : No
Null samples used in CRC calculations : Yes
Used interface : Native Win32 interface for Win NT & 2000
Gap handling : Appended to previous track

Used output format : User Defined Encoder
Selected bitrate : 1024 kBit/s
Quality : High
Add ID3 tag : No
Command line compressor : C:\Program Files (x86)\Exact Audio Copy\Flac\flac.exe
Additional command line options : -8 -e -V -T "ARTIST=%artist%" -T "TITLE=%title%" -T "ALBUM=%albumtitle%" -T "DATE=%year%" -T "TRACKNUMBER=%tracknr%" -T "GENRE=%genre%" -T "PERFORMER=%albuminterpret%" -T "COMPOSER=%composer%" %haslyrics%–tag-from-file=LYRICS="%lyricsfile%"%haslyrics% -T "ALBUMARTIST=%albumartist%" -T "DISCNUMBER=%cdnumber%" -T "TOTALDISCS=%totalcds%" -T "TOTALTRACKS=%numtracks%" -T "COMMENT=%comment%" %source% -o %dest%


TOC of the extracted CD

Track | Start | Length | Start sector | End sector
––––––––––––––––––––––––––––-
1 | 0:00.00 | 4:07.25 | 0 | 18549
2 | 4:07.25 | 3:10.67 | 18550 | 32866
3 | 7:18.17 | 3:54.73 | 32867 | 50489
4 | 11:13.15 | 5:36.15 | 50490 | 75704
5 | 16:49.30 | 3:54.20 | 75705 | 93274
6 | 20:43.50 | 4:51.15 | 93275 | 115114
7 | 25:34.65 | 4:17.32 | 115115 | 134421
8 | 29:52.22 | 4:35.03 | 134422 | 155049
9 | 34:27.25 | 3:44.22 | 155050 | 171871
10 | 38:11.47 | 2:35.00 | 171872 | 183496
11 | 40:46.47 | 4:21.10 | 183497 | 203081
12 | 45:07.57 | 3:23.08 | 203082 | 218314
13 | 48:30.65 | 2:36.17 | 218315 | 230031
14 | 51:07.07 | 3:17.38 | 230032 | 244844
15 | 54:24.45 | 3:11.15 | 244845 | 259184
16 | 57:35.60 | 2:39.40 | 259185 | 271149
17 | 60:15.25 | 3:26.40 | 271150 | 286639
18 | 63:41.65 | 3:28.60 | 286640 | 302299
19 | 67:10.50 | 2:49.52 | 302300 | 315026
20 | 70:00.27 | 3:33.50 | 315027 | 331051
21 | 73:34.02 | 2:54.18 | 331052 | 344119


Track 1

Filename C:\EAC Rips\The Singers Unlimited - Magic Voices (1998) [FLAC] {7CD Box}\Disc 3 - Sentimental Journey (1976) & A Cappella II (1975)\01 - The More I See You.wav

Pre-gap length 0:00:02.00

Peak level 99.7 %
Extraction speed 2.4 X
Track quality 99.9 %
Test CRC A4CB609D
Copy CRC A4CB609D
Accurately ripped (confidence 7) [A26C3512] (AR v2)
Copy OK

Track 2

Filename C:\EAC Rips\The Singers Unlimited - Magic Voices (1998) [FLAC] {7CD Box}\Disc 3 - Sentimental Journey (1976) & A Cappella II (1975)\02 - Sleepy Time Gal.wav

Pre-gap length 0:00:01.64

Peak level 99.7 %
Extraction speed 2.4 X
Track quality 99.9 %
Test CRC 418459CC
Copy CRC 418459CC
Accurately ripped (confidence 7) [D1352863] (AR v2)
Copy OK

Track 3

Filename C:\EAC Rips\The Singers Unlimited - Magic Voices (1998) [FLAC] {7CD Box}\Disc 3 - Sentimental Journey (1976) & A Cappella II (1975)\03 - I Get Along Without You Very Well.wav

Pre-gap length 0:00:01.62

Peak level 99.8 %
Extraction speed 3.3 X
Track quality 100.0 %
Test CRC 51702EA1
Copy CRC 51702EA1
Accurately ripped (confidence 7) [C6FF17EF] (AR v2)
Copy OK

Track 4

Filename C:\EAC Rips\The Singers Unlimited - Magic Voices (1998) [FLAC] {7CD Box}\Disc 3 - Sentimental Journey (1976) & A Cappella II (1975)\04 - Angel Eyes.wav

Pre-gap length 0:00:01.64

Peak level 99.8 %
Extraction speed 3.7 X
Track quality 100.0 %
Test CRC CEB52F37
Copy CRC CEB52F37
Accurately ripped (confidence 7) [AA8A3570] (AR v2)
Copy OK

Track 5

Filename C:\EAC Rips\The Singers Unlimited - Magic Voices (1998) [FLAC] {7CD Box}\Disc 3 - Sentimental Journey (1976) & A Cappella II (1975)\05 - As Time Goes By.wav

Pre-gap length 0:00:01.64

Peak level 99.7 %
Extraction speed 3.8 X
Track quality 100.0 %
Test CRC F5E4C373
Copy CRC F5E4C373
Accurately ripped (confidence 7) [72447778] (AR v2)
Copy OK

Track 6

Filename C:\EAC Rips\The Singers Unlimited - Magic Voices (1998) [FLAC] {7CD Box}\Disc 3 - Sentimental Journey (1976) & A Cappella II (1975)\06 - I'll Remember April.wav

Pre-gap length 0:00:01.64

Peak level 99.8 %
Extraction speed 4.0 X
Track quality 100.0 %
Test CRC 824EA289
Copy CRC 824EA289
Accurately ripped (confidence 7) [C60D7CDD] (AR v2)
Copy OK

Track 7

Filename C:\EAC Rips\The Singers Unlimited - Magic Voices (1998) [FLAC] {7CD Box}\Disc 3 - Sentimental Journey (1976) & A Cappella II (1975)\07 - If I Didn't Care.wav

Pre-gap length 0:00:01.64

Peak level 99.7 %
Extraction speed 4.2 X
Track quality 100.0 %
Test CRC BB74ABDF
Copy CRC BB74ABDF
Accurately ripped (confidence 7) [7A1A3CDF] (AR v2)
Copy OK

Track 8

Filename C:\EAC Rips\The Singers Unlimited - Magic Voices (1998) [FLAC] {7CD Box}\Disc 3 - Sentimental Journey (1976) & A Cappella II (1975)\08 - Sentimental Journey.wav

Pre-gap length 0:00:01.62

Peak level 99.8 %
Extraction speed 4.4 X
Track quality 100.0 %
Test CRC F8FF5D0F
Copy CRC F8FF5D0F
Accurately ripped (confidence 7) [76B2D357] (AR v2)
Copy OK

Track 9

Filename C:\EAC Rips\The Singers Unlimited - Magic Voices (1998) [FLAC] {7CD Box}\Disc 3 - Sentimental Journey (1976) & A Cappella II (1975)\09 - In the Still of the Night.wav

Pre-gap length 0:00:01.64

Peak level 99.7 %
Extraction speed 4.5 X
Track quality 100.0 %
Test CRC 42A27EEA
Copy CRC 42A27EEA
Accurately ripped (confidence 7) [38A9D0E9] (AR v2)
Copy OK

Track 10

Filename C:\EAC Rips\The Singers Unlimited - Magic Voices (1998) [FLAC] {7CD Box}\Disc 3 - Sentimental Journey (1976) & A Cappella II (1975)\10 - Clair.wav

Pre-gap length 0:00:01.62

Peak level 99.8 %
Extraction speed 3.3 X
Track quality 99.9 %
Test CRC B8B47803
Copy CRC B8B47803
Accurately ripped (confidence 7) [80E56CE8] (AR v2)
Copy OK

Track 11

Filename C:\EAC Rips\The Singers Unlimited - Magic Voices (1998) [FLAC] {7CD Box}\Disc 3 - Sentimental Journey (1976) & A Cappella II (1975)\11 - Killing Me Softly With His Song.wav

Pre-gap length 0:00:01.62

Peak level 99.7 %
Extraction speed 4.8 X
Track quality 100.0 %
Test CRC 9A2D2D24
Copy CRC 9A2D2D24
Accurately ripped (confidence 7) [11EE1211] (AR v2)
Copy OK

Track 12

Filename C:\EAC Rips\The Singers Unlimited - Magic Voices (1998) [FLAC] {7CD Box}\Disc 3 - Sentimental Journey (1976) & A Cappella II (1975)\12 - Yesterday.wav

Pre-gap length 0:00:01.62

Peak level 66.5 %
Extraction speed 4.8 X
Track quality 100.0 %
Test CRC 7C59021B
Copy CRC 7C59021B
Accurately ripped (confidence 7) [20040326] (AR v2)
Copy OK

Track 13

Filename C:\EAC Rips\The Singers Unlimited - Magic Voices (1998) [FLAC] {7CD Box}\Disc 3 - Sentimental Journey (1976) & A Cappella II (1975)\13 - My Romance.wav

Pre-gap length 0:00:01.64

Peak level 87.2 %
Extraction speed 4.6 X
Track quality 100.0 %
Test CRC 0E5805B2
Copy CRC 0E5805B2
Accurately ripped (confidence 7) [AE4844EA] (AR v2)
Copy OK

Track 14

Filename C:\EAC Rips\The Singers Unlimited - Magic Voices (1998) [FLAC] {7CD Box}\Disc 3 - Sentimental Journey (1976) & A Cappella II (1975)\14 - Lost in the Stars.wav

Pre-gap length 0:00:01.62

Peak level 97.1 %
Extraction speed 3.9 X
Track quality 99.9 %
Test CRC 89696D8B
Copy CRC 89696D8B
Accurately ripped (confidence 7) [0DDB0284] (AR v2)
Copy OK

Track 15

Filename C:\EAC Rips\The Singers Unlimited - Magic Voices (1998) [FLAC] {7CD Box}\Disc 3 - Sentimental Journey (1976) & A Cappella II (1975)\15 - April in Paris.wav

Pre-gap length 0:00:01.66

Peak level 86.7 %
Extraction speed 4.0 X
Track quality 99.9 %
Test CRC 5771BBB4
Copy CRC 5771BBB4
Accurately ripped (confidence 7) [B256E8ED] (AR v2)
Copy OK

Track 16

Filename C:\EAC Rips\The Singers Unlimited - Magic Voices (1998) [FLAC] {7CD Box}\Disc 3 - Sentimental Journey (1976) & A Cappella II (1975)\16 - Girl Talk.wav

Pre-gap length 0:00:01.64

Peak level 99.8 %
Extraction speed 5.0 X
Track quality 100.0 %
Test CRC BAC0056F
Copy CRC BAC0056F
Accurately ripped (confidence 7) [4C6F5B14] (AR v2)
Copy OK

Track 17

Filename C:\EAC Rips\The Singers Unlimited - Magic Voices (1998) [FLAC] {7CD Box}\Disc 3 - Sentimental Journey (1976) & A Cappella II (1975)\17 - Nature Boy.wav

Pre-gap length 0:00:01.64

Peak level 99.7 %
Extraction speed 5.2 X
Track quality 100.0 %
Test CRC 388A54EC
Copy CRC 388A54EC
Accurately ripped (confidence 7) [D5F5BCFB] (AR v2)
Copy OK

Track 18

Filename C:\EAC Rips\The Singers Unlimited - Magic Voices (1998) [FLAC] {7CD Box}\Disc 3 - Sentimental Journey (1976) & A Cappella II (1975)\18 - I Don't Know Where I Stand.wav

Pre-gap length 0:00:01.64

Peak level 99.7 %
Extraction speed 4.2 X
Track quality 99.9 %
Test CRC 761D22FC
Copy CRC 761D22FC
Accurately ripped (confidence 7) [EA9D225C] (AR v2)
Copy OK

Track 19

Filename C:\EAC Rips\The Singers Unlimited - Magic Voices (1998) [FLAC] {7CD Box}\Disc 3 - Sentimental Journey (1976) & A Cappella II (1975)\19 - Autumn in New York.wav

Pre-gap length 0:00:01.64

Peak level 83.7 %
Extraction speed 5.2 X
Track quality 100.0 %
Test CRC 336E0E0C
Copy CRC 336E0E0C
Accurately ripped (confidence 7) [40CE91A7] (AR v2)
Copy OK

Track 20

Filename C:\EAC Rips\The Singers Unlimited - Magic Voices (1998) [FLAC] {7CD Box}\Disc 3 - Sentimental Journey (1976) & A Cappella II (1975)\20 - Like Someone in Love.wav

Pre-gap length 0:00:01.62

Peak level 83.0 %
Extraction speed 5.5 X
Track quality 100.0 %
Test CRC C77D7086
Copy CRC C77D7086
Accurately ripped (confidence 7) [C203A2C1] (AR v2)
Copy OK

Track 21

Filename C:\EAC Rips\The Singers Unlimited - Magic Voices (1998) [FLAC] {7CD Box}\Disc 3 - Sentimental Journey (1976) & A Cappella II (1975)\21 - Indian Summer.wav

Pre-gap length 0:00:01.62

Peak level 90.4 %
Extraction speed 5.4 X
Track quality 100.0 %
Test CRC 8FAEE7C6
Copy CRC 8FAEE7C6
Accurately ripped (confidence 7) [1BBB97FB] (AR v2)
Copy OK


All tracks accurately ripped

No errors occurred

End of status report

–– CUETools DB Plugin V2.1.6

[CTDB TOCID: vSM8fdsZt.Mn2p4LWiATXBx1OyU-] found
Submit result: vSM8fdsZt.Mn2p4LWiATXBx1OyU- has been confirmed
Track | CTDB Status
1 | (11/11) Accurately ripped
2 | (11/11) Accurately ripped
3 | (11/11) Accurately ripped
4 | (11/11) Accurately ripped
5 | (11/11) Accurately ripped
6 | (11/11) Accurately ripped
7 | (11/11) Accurately ripped
8 | (11/11) Accurately ripped
9 | (11/11) Accurately ripped
10 | (11/11) Accurately ripped
11 | (11/11) Accurately ripped
12 | (11/11) Accurately ripped
13 | (11/11) Accurately ripped
14 | (11/11) Accurately ripped
15 | (11/11) Accurately ripped
16 | (11/11) Accurately ripped
17 | (11/11) Accurately ripped
18 | (11/11) Accurately ripped
19 | (11/11) Accurately ripped
20 | (11/11) Accurately ripped
21 | (11/11) Accurately ripped


==== Log checksum 1B259CDBCD75BACB45AC033447365B20FE41BFDA7E6E6E73CC11D802E9447687 ====

foobar2000 1.2 / Dynamic Range Meter 1.1.1
log date: 2017-03-09 21:05:50

––––––––––––––––––––––––––––––––––––––––
Analyzed: The Singers Unlimited / Magic Voices
––––––––––––––––––––––––––––––––––––––––

DR Peak RMS Duration Track
––––––––––––––––––––––––––––––––––––––––
DR11 -0.02 dB -14.04 dB 4:07 01-The More I See You
DR11 -0.02 dB -12.62 dB 3:11 02-Sleepy Time Gal
DR11 -0.02 dB -13.97 dB 3:55 03-I Get Along Without You Very Well
DR12 -0.01 dB -14.56 dB 5:36 04-Angel Eyes
DR11 -0.02 dB -13.86 dB 3:54 05-As Time Goes By
DR10 -0.02 dB -12.08 dB 4:51 06-I'll Remember April
DR11 -0.02 dB -13.44 dB 4:17 07-If I Didn't Care
DR11 -0.02 dB -13.25 dB 4:35 08-Sentimental Journey
DR11 -0.02 dB -13.88 dB 3:44 09-In the Still of the Night
DR11 -0.01 dB -13.68 dB 2:35 10-Clair
DR12 -0.02 dB -15.04 dB 4:21 11-Killing Me Softly With His Song
DR10 -3.53 dB -16.53 dB 3:23 12-Yesterday
DR10 -1.19 dB -16.49 dB 2:36 13-My Romance
DR12 -0.25 dB -15.79 dB 3:18 14-Lost in the Stars
DR11 -1.23 dB -14.75 dB 3:11 15-April in Paris
DR12 -0.01 dB -14.38 dB 2:40 16-Girl Talk
DR12 -0.02 dB -15.71 dB 3:27 17-Nature Boy
DR11 -0.02 dB -14.05 dB 3:29 18-I Don't Know Where I Stand
DR12 -1.54 dB -16.27 dB 2:50 19-Autumn in New York
DR11 -1.62 dB -16.52 dB 3:34 20-Like Someone in Love
DR11 -0.87 dB -15.14 dB 2:54 21-Indian Summer
––––––––––––––––––––––––––––––––––––––––

Number of tracks: 21
Official DR value: DR11

Samplerate: 44100 Hz
Channels: 2
Bits per sample: 16
Bitrate: 753 kbps
Codec: FLAC
================================================================================


Exact Audio Copy V1.1 from 23. June 2015

EAC extraction logfile from 26. March 2016, 20:53

The Singers Unlimited / Magic Voices

Used drive : TSSTcorpCDDVDW TS-U633J Adapter: 1 ID: 0

Read mode : Secure
Utilize accurate stream : Yes
Defeat audio cache : Yes
Make use of C2 pointers : No

Read offset correction : 6
Overread into Lead-In and Lead-Out : No
Fill up missing offset samples with silence : Yes
Delete leading and trailing silent blocks : No
Null samples used in CRC calculations : Yes
Used interface : Native Win32 interface for Win NT & 2000
Gap handling : Appended to previous track

Used output format : User Defined Encoder
Selected bitrate : 1024 kBit/s
Quality : High
Add ID3 tag : No
Command line compressor : C:\Program Files (x86)\Exact Audio Copy\Flac\flac.exe
Additional command line options : -8 -e -V -T "ARTIST=%artist%" -T "TITLE=%title%" -T "ALBUM=%albumtitle%" -T "DATE=%year%" -T "TRACKNUMBER=%tracknr%" -T "GENRE=%genre%" -T "PERFORMER=%albuminterpret%" -T "COMPOSER=%composer%" %haslyrics%–tag-from-file=LYRICS="%lyricsfile%"%haslyrics% -T "ALBUMARTIST=%albumartist%" -T "DISCNUMBER=%cdnumber%" -T "TOTALDISCS=%totalcds%" -T "TOTALTRACKS=%numtracks%" -T "COMMENT=%comment%" %source% -o %dest%


TOC of the extracted CD

Track | Start | Length | Start sector | End sector
––––––––––––––––––––––––––––-
1 | 0:00.00 | 2:52.35 | 0 | 12934
2 | 2:52.35 | 4:08.35 | 12935 | 31569
3 | 7:00.70 | 4:02.05 | 31570 | 49724
4 | 11:03.00 | 3:40.30 | 49725 | 66254
5 | 14:43.30 | 4:52.12 | 66255 | 88166
6 | 19:35.42 | 4:03.05 | 88167 | 106396
7 | 23:38.47 | 4:26.63 | 106397 | 126409
8 | 28:05.35 | 3:06.47 | 126410 | 140406
9 | 31:12.07 | 3:45.30 | 140407 | 157311
10 | 34:57.37 | 3:28.55 | 157312 | 172966
11 | 38:26.17 | 4:10.38 | 172967 | 191754
12 | 42:36.55 | 3:27.07 | 191755 | 207286
13 | 46:03.62 | 3:59.43 | 207287 | 225254
14 | 50:03.30 | 3:39.02 | 225255 | 241681
15 | 53:42.32 | 4:28.00 | 241682 | 261781
16 | 58:10.32 | 4:27.58 | 261782 | 281864
17 | 62:38.15 | 4:20.20 | 281865 | 301384
18 | 66:58.35 | 4:22.70 | 301385 | 321104
19 | 71:21.30 | 4:36.07 | 321105 | 341811


Track 1

Filename C:\EAC Rips\The Singers Unlimited - Magic Voices (1998) [FLAC] {7CD Box}\Disc 4 - Feeling Free (1975) & A Special Blend (1976)\01 - You Are the Sunshine of My Life.wav

Pre-gap length 0:00:02.00

Peak level 99.8 %
Extraction speed 1.0 X
Track quality 100.0 %
Test CRC 4C672379
Copy CRC 4C672379
Accurately ripped (confidence 7) [BE89D22C] (AR v2)
Copy OK

Track 2

Filename C:\EAC Rips\The Singers Unlimited - Magic Voices (1998) [FLAC] {7CD Box}\Disc 4 - Feeling Free (1975) & A Special Blend (1976)\02 - A Time for Love.wav

Pre-gap length 0:00:01.64

Peak level 99.7 %
Extraction speed 1.1 X
Track quality 100.0 %
Test CRC 102E7945
Copy CRC 102E7945
Accurately ripped (confidence 7) [FF191622] (AR v2)
Copy OK

Track 3

Filename C:\EAC Rips\The Singers Unlimited - Magic Voices (1998) [FLAC] {7CD Box}\Disc 4 - Feeling Free (1975) & A Special Blend (1976)\03 - On Green Dolphin Street.wav

Pre-gap length 0:00:01.64

Peak level 99.8 %
Extraction speed 1.2 X
Track quality 100.0 %
Test CRC 97EB2FE3
Copy CRC 97EB2FE3
Accurately ripped (confidence 7) [D61BE9CB] (AR v2)
Copy OK

Track 4

Filename C:\EAC Rips\The Singers Unlimited - Magic Voices (1998) [FLAC] {7CD Box}\Disc 4 - Feeling Free (1975) & A Special Blend (1976)\04 - So Many Stars.wav

Pre-gap length 0:00:01.64

Peak level 99.8 %
Extraction speed 1.1 X
Track quality 99.9 %
Test CRC CCFBD3F1
Copy CRC CCFBD3F1
Accurately ripped (confidence 7) [4338FB51] (AR v2)
Copy OK

Track 5

Filename C:\EAC Rips\The Singers Unlimited - Magic Voices (1998) [FLAC] {7CD Box}\Disc 4 - Feeling Free (1975) & A Special Blend (1976)\05 - Feeling Free With Patric B..wav

Pre-gap length 0:00:01.64

Peak level 99.8 %
Extraction speed 1.2 X
Track quality 99.9 %
Test CRC 78ABCE05
Copy CRC 78ABCE05
Accurately ripped (confidence 7) [F7A49347] (AR v2)
Copy OK

Track 6

Filename C:\EAC Rips\The Singers Unlimited - Magic Voices (1998) [FLAC] {7CD Box}\Disc 4 - Feeling Free (1975) & A Special Blend (1976)\06 - Ja-Da.wav

Pre-gap length 0:00:01.62

Peak level 99.8 %
Extraction speed 1.4 X
Track quality 100.0 %
Test CRC A6B9376B
Copy CRC A6B9376B
Accurately ripped (confidence 7) [2B8FD782] (AR v2)
Copy OK

Track 7

Filename C:\EAC Rips\The Singers Unlimited - Magic Voices (1998) [FLAC] {7CD Box}\Disc 4 - Feeling Free (1975) & A Special Blend (1976)\07 - Skylark.wav

Pre-gap length 0:00:01.62

Peak level 99.8 %
Extraction speed 1.5 X
Track quality 100.0 %
Test CRC FB5A0895
Copy CRC FB5A0895
Accurately ripped (confidence 7) [028E2644] (AR v2)
Copy OK

Track 8

Filename C:\EAC Rips\The Singers Unlimited - Magic Voices (1998) [FLAC] {7CD Box}\Disc 4 - Feeling Free (1975) & A Special Blend (1976)\08 - On a Clear Day.wav

Pre-gap length 0:00:01.64

Peak level 99.8 %
Extraction speed 1.4 X
Track quality 100.0 %
Test CRC 09900FC0
Copy CRC 09900FC0
Accurately ripped (confidence 7) [23D15A73] (AR v2)
Copy OK

Track 9

Filename C:\EAC Rips\The Singers Unlimited - Magic Voices (1998) [FLAC] {7CD Box}\Disc 4 - Feeling Free (1975) & A Special Blend (1976)\09 - I'm Shadowing You.wav

Pre-gap length 0:00:01.62

Peak level 99.7 %
Extraction speed 1.3 X
Track quality 99.9 %
Test CRC AB698898
Copy CRC AB698898
Accurately ripped (confidence 7) [554D837A] (AR v2)
Copy OK

Track 10

Filename C:\EAC Rips\The Singers Unlimited - Magic Voices (1998) [FLAC] {7CD Box}\Disc 4 - Feeling Free (1975) & A Special Blend (1976)\10 - Where Is the Love.wav

Pre-gap length 0:00:01.62

Peak level 99.7 %
Extraction speed 1.6 X
Track quality 100.0 %
Test CRC E7CD30F4
Copy CRC E7CD30F4
Accurately ripped (confidence 7) [B504B9EA] (AR v2)
Copy OK

Track 11

Filename C:\EAC Rips\The Singers Unlimited - Magic Voices (1998) [FLAC] {7CD Box}\Disc 4 - Feeling Free (1975) & A Special Blend (1976)\11 - Bye Bye Blues.wav

Pre-gap length 0:00:01.62

Peak level 99.8 %
Extraction speed 1.7 X
Track quality 100.0 %
Test CRC B75CC75A
Copy CRC B75CC75A
Accurately ripped (confidence 7) [4D1978F1] (AR v2)
Copy OK

Track 12

Filename C:\EAC Rips\The Singers Unlimited - Magic Voices (1998) [FLAC] {7CD Box}\Disc 4 - Feeling Free (1975) & A Special Blend (1976)\12 - 'Round Midnight.wav

Pre-gap length 0:00:01.64

Peak level 99.8 %
Extraction speed 1.6 X
Track quality 100.0 %
Test CRC 64E79A8A
Copy CRC 64E79A8A
Accurately ripped (confidence 7) [71B6A4DF] (AR v2)
Copy OK

Track 13

Filename C:\EAC Rips\The Singers Unlimited - Magic Voices (1998) [FLAC] {7CD Box}\Disc 4 - Feeling Free (1975) & A Special Blend (1976)\13 - Cry Me a River.wav

Pre-gap length 0:00:01.62

Peak level 99.8 %
Extraction speed 1.7 X
Track quality 100.0 %
Test CRC B7AEE2F8
Copy CRC B7AEE2F8
Accurately ripped (confidence 7) [4AD6AD31] (AR v2)
Copy OK

Track 14

Filename C:\EAC Rips\The Singers Unlimited - Magic Voices (1998) [FLAC] {7CD Box}\Disc 4 - Feeling Free (1975) & A Special Blend (1976)\14 - Born to Be Blue.wav

Pre-gap length 0:00:01.64

Peak level 99.8 %
Extraction speed 1.7 X
Track quality 100.0 %
Test CRC FC402BEA
Copy CRC FC402BEA
Accurately ripped (confidence 7) [5AF1D8BB] (AR v2)
Copy OK

Track 15

Filename C:\EAC Rips\The Singers Unlimited - Magic Voices (1998) [FLAC] {7CD Box}\Disc 4 - Feeling Free (1975) & A Special Blend (1976)\15 - I Left My Heart in San Francisco.wav

Pre-gap length 0:00:01.62

Peak level 99.8 %
Extraction speed 1.8 X
Track quality 100.0 %
Test CRC F04CE41D
Copy CRC F04CE41D
Accurately ripped (confidence 7) [9E4AB50F] (AR v2)
Copy OK

Track 16

Filename C:\EAC Rips\The Singers Unlimited - Magic Voices (1998) [FLAC] {7CD Box}\Disc 4 - Feeling Free (1975) & A Special Blend (1976)\16 - Mood Indigo.wav

Pre-gap length 0:00:01.62

Peak level 99.8 %
Extraction speed 1.9 X
Track quality 100.0 %
Test CRC 27F7F5FA
Copy CRC 27F7F5FA
Accurately ripped (confidence 7) [0CD12534] (AR v2)
Copy OK

Track 17

Filename C:\EAC Rips\The Singers Unlimited - Magic Voices (1998) [FLAC] {7CD Box}\Disc 4 - Feeling Free (1975) & A Special Blend (1976)\17 - Gotcha.wav

Pre-gap length 0:00:01.64

Peak level 99.8 %
Extraction speed 1.6 X
Track quality 99.9 %
Test CRC 02979F84
Copy CRC 02979F84
Accurately ripped (confidence 7) [C57DDC27] (AR v2)
Copy OK

Track 18

Filename C:\EAC Rips\The Singers Unlimited - Magic Voices (1998) [FLAC] {7CD Box}\Disc 4 - Feeling Free (1975) & A Special Blend (1976)\18 - Why Don't You Do Right.wav

Pre-gap length 0:00:01.64

Peak level 99.8 %
Extraction speed 1.7 X
Track quality 99.9 %
Test CRC 9366B176
Copy CRC 9366B176
Accurately ripped (confidence 7) [2349A02B] (AR v2)
Copy OK

Track 19

Filename C:\EAC Rips\The Singers Unlimited - Magic Voices (1998) [FLAC] {7CD Box}\Disc 4 - Feeling Free (1975) & A Special Blend (1976)\19 - When I Fall in Love.wav

Pre-gap length 0:00:01.64

Peak level 99.7 %
Extraction speed 2.0 X
Track quality 100.0 %
Test CRC 2BB5A9F5
Copy CRC 2BB5A9F5
Accurately ripped (confidence 7) [7C923689] (AR v2)
Copy OK


All tracks accurately ripped

No errors occurred

End of status report

–– CUETools DB Plugin V2.1.6

[CTDB TOCID: A6egF9ZrBMfCb04eOd8Qt4dIBSA-] found
Submit result: A6egF9ZrBMfCb04eOd8Qt4dIBSA- has been confirmed
Track | CTDB Status
1 | (9/9) Accurately ripped
2 | (9/9) Accurately ripped
3 | (9/9) Accurately ripped
4 | (9/9) Accurately ripped
5 | (9/9) Accurately ripped
6 | (9/9) Accurately ripped
7 | (9/9) Accurately ripped
8 | (9/9) Accurately ripped
9 | (9/9) Accurately ripped
10 | (9/9) Accurately ripped
11 | (9/9) Accurately ripped
12 | (9/9) Accurately ripped
13 | (9/9) Accurately ripped
14 | (9/9) Accurately ripped
15 | (9/9) Accurately ripped
16 | (9/9) Accurately ripped
17 | (9/9) Accurately ripped
18 | (9/9) Accurately ripped
19 | (9/9) Accurately ripped


==== Log checksum BBE74DE211AD829A297EA24CA91FF1ACFE0A7D30C6BEEFBC73FF9CE6DA5B4747 ====

foobar2000 1.2 / Dynamic Range Meter 1.1.1
log date: 2017-03-09 21:06:18

––––––––––––––––––––––––––––––––––––––––
Analyzed: The Singers Unlimited / Magic Voices
––––––––––––––––––––––––––––––––––––––––

DR Peak RMS Duration Track
––––––––––––––––––––––––––––––––––––––––
DR11 -0.01 dB -13.09 dB 2:52 01-You Are the Sunshine of My Life
DR11 -0.02 dB -13.98 dB 4:08 02-A Time for Love
DR11 -0.02 dB -12.50 dB 4:02 03-On Green Dolphin Street
DR11 -0.02 dB -12.91 dB 3:40 04-So Many Stars
DR11 -0.01 dB -13.34 dB 4:52 05-Feeling Free With Patric B.
DR11 -0.01 dB -13.74 dB 4:03 06-Ja-Da
DR12 -0.01 dB -15.05 dB 4:27 07-Skylark
DR11 -0.01 dB -13.25 dB 3:07 08-On a Clear Day
DR11 -0.02 dB -13.50 dB 3:45 09-I'm Shadowing You
DR12 -0.02 dB -14.45 dB 3:29 10-Where Is the Love
DR12 -0.01 dB -14.05 dB 4:11 11-Bye Bye Blues
DR11 -0.01 dB -13.89 dB 3:27 12-'Round Midnight
DR12 -0.01 dB -13.79 dB 4:00 13-Cry Me a River
DR10 -0.01 dB -12.09 dB 3:39 14-Born to Be Blue
DR11 -0.01 dB -13.02 dB 4:28 15-I Left My Heart in San Francisco
DR9 -0.01 dB -11.41 dB 4:28 16-Mood Indigo
DR11 -0.01 dB -12.60 dB 4:20 17-Gotcha
DR11 -0.01 dB -12.71 dB 4:23 18-Why Don't You Do Right?
DR10 -0.02 dB -12.43 dB 4:36 19-When I Fall in Love
––––––––––––––––––––––––––––––––––––––––

Number of tracks: 19
Official DR value: DR11

Samplerate: 44100 Hz
Channels: 2
Bits per sample: 16
Bitrate: 727 kbps
Codec: FLAC
================================================================================


Exact Audio Copy V1.1 from 23. June 2015

EAC extraction logfile from 26. March 2016, 23:06

The Singers Unlimited / Magic Voices

Used drive : TSSTcorpCDDVDW TS-U633J Adapter: 1 ID: 0

Read mode : Secure
Utilize accurate stream : Yes
Defeat audio cache : Yes
Make use of C2 pointers : No

Read offset correction : 6
Overread into Lead-In and Lead-Out : No
Fill up missing offset samples with silence : Yes
Delete leading and trailing silent blocks : No
Null samples used in CRC calculations : Yes
Used interface : Native Win32 interface for Win NT & 2000
Gap handling : Appended to previous track

Used output format : User Defined Encoder
Selected bitrate : 1024 kBit/s
Quality : High
Add ID3 tag : No
Command line compressor : C:\Program Files (x86)\Exact Audio Copy\Flac\flac.exe
Additional command line options : -8 -e -V -T "ARTIST=%artist%" -T "TITLE=%title%" -T "ALBUM=%albumtitle%" -T "DATE=%year%" -T "TRACKNUMBER=%tracknr%" -T "GENRE=%genre%" -T "PERFORMER=%albuminterpret%" -T "COMPOSER=%composer%" %haslyrics%–tag-from-file=LYRICS="%lyricsfile%"%haslyrics% -T "ALBUMARTIST=%albumartist%" -T "DISCNUMBER=%cdnumber%" -T "TOTALDISCS=%totalcds%" -T "TOTALTRACKS=%numtracks%" -T "COMMENT=%comment%" %source% -o %dest%


TOC of the extracted CD

Track | Start | Length | Start sector | End sector
––––––––––––––––––––––––––––-
1 | 0:00.00 | 3:13.07 | 0 | 14481
2 | 3:13.07 | 3:27.25 | 14482 | 30031
3 | 6:40.32 | 3:37.45 | 30032 | 46351
4 | 10:18.02 | 3:46.10 | 46352 | 63311
5 | 14:04.12 | 4:13.30 | 63312 | 82316
6 | 18:17.42 | 4:09.50 | 82317 | 101041
7 | 22:27.17 | 3:45.15 | 101042 | 117931
8 | 26:12.32 | 5:22.53 | 117932 | 142134
9 | 31:35.10 | 3:57.55 | 142135 | 159964
10 | 35:32.65 | 3:36.65 | 159965 | 176229
11 | 39:09.55 | 3:46.42 | 176230 | 193221
12 | 42:56.22 | 3:45.28 | 193222 | 210124
13 | 46:41.50 | 3:31.02 | 210125 | 225951
14 | 50:12.52 | 3:58.10 | 225952 | 243811
15 | 54:10.62 | 4:58.50 | 243812 | 266211
16 | 59:09.37 | 4:18.28 | 266212 | 285589
17 | 63:27.65 | 3:12.35 | 285590 | 300024
18 | 66:40.25 | 2:51.00 | 300025 | 312849
19 | 69:31.25 | 3:27.12 | 312850 | 328386
20 | 72:58.37 | 3:12.18 | 328387 | 342804


Track 1

Filename C:\EAC Rips\The Singers Unlimited - Magic Voices (1998) [FLAC] {7CD Box}\Disc 5 - Friends (1977) & Eventide (1979)\01 - Sweet Georgia Brown.wav

Pre-gap length 0:00:02.00

Peak level 99.7 %
Extraction speed 2.8 X
Track quality 100.0 %
Test CRC 1CD59590
Copy CRC 1CD59590
Accurately ripped (confidence 7) [9719D7B8] (AR v2)
Copy OK

Track 2

Filename C:\EAC Rips\The Singers Unlimited - Magic Voices (1998) [FLAC] {7CD Box}\Disc 5 - Friends (1977) & Eventide (1979)\02 - When April Comes Again.wav

Pre-gap length 0:00:01.62

Peak level 99.7 %
Extraction speed 3.0 X
Track quality 100.0 %
Test CRC 469536BD
Copy CRC 469536BD
Accurately ripped (confidence 7) [702804A6] (AR v2)
Copy OK

Track 3

Filename C:\EAC Rips\The Singers Unlimited - Magic Voices (1998) [FLAC] {7CD Box}\Disc 5 - Friends (1977) & Eventide (1979)\03 - Just Friends.wav

Pre-gap length 0:00:01.62

Peak level 99.7 %
Extraction speed 3.3 X
Track quality 100.0 %
Test CRC D76837A9
Copy CRC D76837A9
Accurately ripped (confidence 7) [EE875C7D] (AR v2)
Copy OK

Track 4

Filename C:\EAC Rips\The Singers Unlimited - Magic Voices (1998) [FLAC] {7CD Box}\Disc 5 - Friends (1977) & Eventide (1979)\04 - The Trouble With Hello Is Goodbye.wav

Pre-gap length 0:00:01.62

Peak level 99.7 %
Extraction speed 3.5 X
Track quality 100.0 %
Test CRC 2A1EF9AB
Copy CRC 2A1EF9AB
Accurately ripped (confidence 7) [7F049196] (AR v2)
Copy OK

Track 5

Filename C:\EAC Rips\The Singers Unlimited - Magic Voices (1998) [FLAC] {7CD Box}\Disc 5 - Friends (1977) & Eventide (1979)\05 - I Got Rhythm.wav

Pre-gap length 0:00:01.62

Peak level 99.8 %
Extraction speed 3.8 X
Track quality 100.0 %
Test CRC 2AA49DBC
Copy CRC 2AA49DBC
Accurately ripped (confidence 7) [D46A5C61] (AR v2)
Copy OK

Track 6

Filename C:\EAC Rips\The Singers Unlimited - Magic Voices (1998) [FLAC] {7CD Box}\Disc 5 - Friends (1977) & Eventide (1979)\06 - Don't Get Around Much Anymore.wav

Pre-gap length 0:00:01.62

Peak level 99.8 %
Extraction speed 3.2 X
Track quality 99.9 %
Test CRC 1562897A
Copy CRC 1562897A
Accurately ripped (confidence 7) [DD688793] (AR v2)
Copy OK

Track 7

Filename C:\EAC Rips\The Singers Unlimited - Magic Voices (1998) [FLAC] {7CD Box}\Disc 5 - Friends (1977) & Eventide (1979)\07 - When the Sun Comes Out.wav

Pre-gap length 0:00:01.62

Peak level 99.7 %
Extraction speed 4.0 X
Track quality 100.0 %
Test CRC 0A14B3F6
Copy CRC 0A14B3F6
Accurately ripped (confidence 7) [3D67878C] (AR v2)
Copy OK

Track 8

Filename C:\EAC Rips\The Singers Unlimited - Magic Voices (1998) [FLAC] {7CD Box}\Disc 5 - Friends (1977) & Eventide (1979)\08 - Eleanor Rigby.wav

Pre-gap length 0:00:01.62

Peak level 99.8 %
Extraction speed 3.8 X
Track quality 99.9 %
Test CRC 653F0F92
Copy CRC 653F0F92
Accurately ripped (confidence 7) [88CC4EB0] (AR v2)
Copy OK

Track 9

Filename C:\EAC Rips\The Singers Unlimited - Magic Voices (1998) [FLAC] {7CD Box}\Disc 5 - Friends (1977) & Eventide (1979)\09 - She Was Too Good to Me.wav

Pre-gap length 0:00:01.64

Peak level 99.7 %
Extraction speed 3.6 X
Track quality 99.9 %
Test CRC A7A38EE9
Copy CRC A7A38EE9
Accurately ripped (confidence 7) [F76E43E2] (AR v2)
Copy OK

Track 10

Filename C:\EAC Rips\The Singers Unlimited - Magic Voices (1998) [FLAC] {7CD Box}\Disc 5 - Friends (1977) & Eventide (1979)\10 - I'm Gonna Go Fishin'.wav

Pre-gap length 0:00:01.64

Peak level 99.7 %
Extraction speed 4.5 X
Track quality 100.0 %
Test CRC EA69987A
Copy CRC EA69987A
Accurately ripped (confidence 7) [F6988097] (AR v2)
Copy OK

Track 11

Filename C:\EAC Rips\The Singers Unlimited - Magic Voices (1998) [FLAC] {7CD Box}\Disc 5 - Friends (1977) & Eventide (1979)\11 - Deep Purple.wav

Pre-gap length 0:00:01.64

Peak level 99.7 %
Extraction speed 4.6 X
Track quality 100.0 %
Test CRC 0D1AB845
Copy CRC 0D1AB845
Accurately ripped (confidence 7) [41BD441D] (AR v2)
Copy OK

Track 12

Filename C:\EAC Rips\The Singers Unlimited - Magic Voices (1998) [FLAC] {7CD Box}\Disc 5 - Friends (1977) & Eventide (1979)\12 - Put Your Dreams Away (For Another Day).wav

Pre-gap length 0:00:01.62

Peak level 99.7 %
Extraction speed 4.8 X
Track quality 100.0 %
Test CRC 55618EE7
Copy CRC 55618EE7
Accurately ripped (confidence 7) [391A3E7A] (AR v2)
Copy OK

Track 13

Filename C:\EAC Rips\The Singers Unlimited - Magic Voices (1998) [FLAC] {7CD Box}\Disc 5 - Friends (1977) & Eventide (1979)\13 - I Loved You.wav

Pre-gap length 0:00:01.64

Peak level 82.2 %
Extraction speed 4.9 X
Track quality 100.0 %
Test CRC 532C1546
Copy CRC 532C1546
Accurately ripped (confidence 7) [67910AFF] (AR v2)
Copy OK

Track 14

Filename C:\EAC Rips\The Singers Unlimited - Magic Voices (1998) [FLAC] {7CD Box}\Disc 5 - Friends (1977) & Eventide (1979)\14 - Mona Lisa.wav

Pre-gap length 0:00:01.66

Peak level 99.7 %
Extraction speed 5.1 X
Track quality 100.0 %
Test CRC 6D219111
Copy CRC 6D219111
Accurately ripped (confidence 7) [8309A055] (AR v2)
Copy OK

Track 15

Filename C:\EAC Rips\The Singers Unlimited - Magic Voices (1998) [FLAC] {7CD Box}\Disc 5 - Friends (1977) & Eventide (1979)\15 - Feelings.wav

Pre-gap length 0:00:01.62

Peak level 99.8 %
Extraction speed 5.4 X
Track quality 100.0 %
Test CRC 84480FE1
Copy CRC 84480FE1
Accurately ripped (confidence 7) [D81D383E] (AR v2)
Copy OK

Track 16

Filename C:\EAC Rips\The Singers Unlimited - Magic Voices (1998) [FLAC] {7CD Box}\Disc 5 - Friends (1977) & Eventide (1979)\16 - Gymnopédies I.wav

Pre-gap length 0:00:01.62

Peak level 99.8 %
Extraction speed 5.4 X
Track quality 100.0 %
Test CRC 902BF6FA
Copy CRC 902BF6FA
Accurately ripped (confidence 7) [C2F6E449] (AR v2)
Copy OK

Track 17

Filename C:\EAC Rips\The Singers Unlimited - Magic Voices (1998) [FLAC] {7CD Box}\Disc 5 - Friends (1977) & Eventide (1979)\17 - Yours Truly, Rosa.wav

Pre-gap length 0:00:01.64

Peak level 98.0 %
Extraction speed 5.3 X
Track quality 100.0 %
Test CRC 31B09C2F
Copy CRC 31B09C2F
Accurately ripped (confidence 7) [586AEBE1] (AR v2)
Copy OK

Track 18

Filename C:\EAC Rips\The Singers Unlimited - Magic Voices (1998) [FLAC] {7CD Box}\Disc 5 - Friends (1977) & Eventide (1979)\18 - Marlies.wav

Pre-gap length 0:00:01.64

Peak level 87.6 %
Extraction speed 0.0 X
Track quality 99.9 %
Test CRC 8E6228B2
Copy CRC 8E6228B2
Accurately ripped (confidence 7) [7D1630D5] (AR v2)
Copy OK

Track 19

Filename C:\EAC Rips\The Singers Unlimited - Magic Voices (1998) [FLAC] {7CD Box}\Disc 5 - Friends (1977) & Eventide (1979)\19 - How Beautiful Is Night.wav

Pre-gap length 0:00:01.64

Peak level 99.7 %
Extraction speed 4.5 X
Track quality 99.9 %
Test CRC D49C9180
Copy CRC D49C9180
Accurately ripped (confidence 7) [07D8B29B] (AR v2)
Copy OK

Track 20

Filename C:\EAC Rips\The Singers Unlimited - Magic Voices (1998) [FLAC] {7CD Box}\Disc 5 - Friends (1977) & Eventide (1979)\20 - Eventide.wav

Pre-gap length 0:00:01.62

Peak level 99.7 %
Extraction speed 4.3 X
Track quality 99.9 %
Test CRC 710862C9
Copy CRC 710862C9
Accurately ripped (confidence 7) [1861ADAF] (AR v2)
Copy OK


All tracks accurately ripped

No errors occurred

End of status report

–– CUETools DB Plugin V2.1.6

[CTDB TOCID: 06qFXE1NgN5bky96NJrL2hJ73yw-] found
Submit result: 06qFXE1NgN5bky96NJrL2hJ73yw- has been confirmed
Track | CTDB Status
1 | (10/10) Accurately ripped
2 | (10/10) Accurately ripped
3 | (10/10) Accurately ripped
4 | (10/10) Accurately ripped
5 | (10/10) Accurately ripped
6 | (10/10) Accurately ripped
7 | (10/10) Accurately ripped
8 | (10/10) Accurately ripped
9 | (10/10) Accurately ripped
10 | (10/10) Accurately ripped
11 | (10/10) Accurately ripped
12 | (10/10) Accurately ripped
13 | ( 9/10) Accurately ripped
14 | (10/10) Accurately ripped
15 | ( 9/10) Accurately ripped
16 | ( 9/10) Accurately ripped
17 | ( 9/10) Accurately ripped
18 | ( 9/10) Accurately ripped
19 | (10/10) Accurately ripped
20 | ( 9/10) Accurately ripped


==== Log checksum A7AE278C2FB9740D337ED0B267E8B3F271C66211FE1BC0F8FCE07451C0D1E199 ====

foobar2000 1.2 / Dynamic Range Meter 1.1.1
log date: 2017-03-09 21:06:45

––––––––––––––––––––––––––––––––––––––––
Analyzed: The Singers Unlimited / Magic Voices
––––––––––––––––––––––––––––––––––––––––

DR Peak RMS Duration Track
––––––––––––––––––––––––––––––––––––––––
DR10 -0.02 dB -12.71 dB 3:13 01-Sweet Georgia Brown
DR9 -0.02 dB -11.42 dB 3:27 02-When April Comes Again
DR10 -0.02 dB -12.00 dB 3:38 03-Just Friends
DR9 -0.02 dB -10.87 dB 3:46 04-The Trouble With Hello Is Goodbye
DR11 -0.01 dB -12.84 dB 4:13 05-I Got Rhythm
DR10 -0.01 dB -11.58 dB 4:10 06-Don't Get Around Much Anymore
DR9 -0.02 dB -10.58 dB 3:45 07-When the Sun Comes Out
DR10 -0.01 dB -11.62 dB 5:23 08-Eleanor Rigby
DR10 -0.02 dB -11.98 dB 3:58 09-She Was Too Good to Me
DR10 -0.02 dB -11.73 dB 3:37 10-I'm Gonna Go Fishin'
DR11 -0.02 dB -15.03 dB 3:47 11-Deep Purple
DR11 -0.02 dB -14.58 dB 3:45 12-Put Your Dreams Away (For Another Day)
DR11 -1.70 dB -16.74 dB 3:31 13-I Loved You
DR12 -0.02 dB -16.04 dB 3:58 14-Mona Lisa
DR11 -0.01 dB -12.78 dB 4:59 15-Feelings
DR12 -0.17 dB -16.82 dB 3:12 17-Yours Truly, Rosa
DR10 -1.15 dB -14.08 dB 2:51 18-Marlies
DR11 -0.02 dB -13.93 dB 3:27 19-How Beautiful Is Night
DR11 -0.02 dB -14.29 dB 3:12 20-Eventide
––––––––––––––––––––––––––––––––––––––––

Number of tracks: 19
Official DR value: DR10

Samplerate: 44100 Hz
Channels: 2
Bits per sample: 16
Bitrate: 676 kbps
Codec: FLAC
================================================================================


Exact Audio Copy V1.1 from 23. June 2015

EAC extraction logfile from 27. March 2016, 11:24

The Singers Unlimited / Magic Voices

Used drive : TSSTcorpCDDVDW TS-U633J Adapter: 1 ID: 0

Read mode : Secure
Utilize accurate stream : Yes
Defeat audio cache : Yes
Make use of C2 pointers : No

Read offset correction : 6
Overread into Lead-In and Lead-Out : No
Fill up missing offset samples with silence : Yes
Delete leading and trailing silent blocks : No
Null samples used in CRC calculations : Yes
Used interface : Native Win32 interface for Win NT & 2000
Gap handling : Appended to previous track

Used output format : User Defined Encoder
Selected bitrate : 1024 kBit/s
Quality : High
Add ID3 tag : No
Command line compressor : C:\Program Files (x86)\Exact Audio Copy\Flac\flac.exe
Additional command line options : -8 -e -V -T "ARTIST=%artist%" -T "TITLE=%title%" -T "ALBUM=%albumtitle%" -T "DATE=%year%" -T "TRACKNUMBER=%tracknr%" -T "GENRE=%genre%" -T "PERFORMER=%albuminterpret%" -T "COMPOSER=%composer%" %haslyrics%–tag-from-file=LYRICS="%lyricsfile%"%haslyrics% -T "ALBUMARTIST=%albumartist%" -T "DISCNUMBER=%cdnumber%" -T "TOTALDISCS=%totalcds%" -T "TOTALTRACKS=%numtracks%" -T "COMMENT=%comment%" %source% -o %dest%


TOC of the extracted CD

Track | Start | Length | Start sector | End sector
––––––––––––––––––––––––––––-
1 | 0:00.00 | 3:58.12 | 0 | 17861
2 | 3:58.12 | 2:45.65 | 17862 | 30301
3 | 6:44.02 | 2:56.35 | 30302 | 43536
4 | 9:40.37 | 2:56.58 | 43537 | 56794
5 | 12:37.20 | 3:54.62 | 56795 | 74406
6 | 16:32.07 | 4:03.53 | 74407 | 92684
7 | 20:35.60 | 2:04.72 | 92685 | 102056
8 | 22:40.57 | 3:41.50 | 102057 | 118681
9 | 26:22.32 | 3:15.30 | 118682 | 133336
10 | 29:37.62 | 4:03.05 | 133337 | 151566
11 | 33:40.67 | 4:11.18 | 151567 | 170409
12 | 37:52.10 | 3:14.27 | 170410 | 184986
13 | 41:06.37 | 4:00.60 | 184987 | 203046
14 | 45:07.22 | 4:14.45 | 203047 | 222141
15 | 49:21.67 | 2:31.25 | 222142 | 233491
16 | 51:53.17 | 5:06.65 | 233492 | 256506
17 | 57:00.07 | 2:19.65 | 256507 | 266996
18 | 59:19.72 | 6:06.58 | 266997 | 294504
19 | 65:26.55 | 3:32.05 | 294505 | 310409
20 | 68:58.60 | 3:21.50 | 310410 | 325534
21 | 72:20.35 | 4:23.22 | 325535 | 345281


Track 1

Filename C:\EAC Rips\The Singers Unlimited - Magic Voices (1998) [FLAC] {7CD Box}\Disc 6 - Four of Us (1973) & With Rob McConnell and the Boss Brass (1979)\01 - We've Only Just Begun.wav

Pre-gap length 0:00:02.00

Peak level 99.7 %
Extraction speed 2.9 X
Track quality 100.0 %
Test CRC 615AA95D
Copy CRC 615AA95D
Accurately ripped (confidence 7) [25F6B7BE] (AR v2)
Copy OK

Track 2

Filename C:\EAC Rips\The Singers Unlimited - Magic Voices (1998) [FLAC] {7CD Box}\Disc 6 - Four of Us (1973) & With Rob McConnell and the Boss Brass (1979)\02 - It Could Happen to You.wav

Pre-gap length 0:00:01.62

Peak level 86.3 %
Extraction speed 3.0 X
Track quality 100.0 %
Test CRC CC773B1D
Copy CRC CC773B1D
Accurately ripped (confidence 7) [526134FB] (AR v2)
Copy OK

Track 3

Filename C:\EAC Rips\The Singers Unlimited - Magic Voices (1998) [FLAC] {7CD Box}\Disc 6 - Four of Us (1973) & With Rob McConnell and the Boss Brass (1979)\03 - Soon It's Gonna Rain.wav

Pre-gap length 0:00:01.62

Peak level 93.8 %
Extraction speed 3.2 X
Track quality 100.0 %
Test CRC BE720ECD
Copy CRC BE720ECD
Accurately ripped (confidence 7) [4A75F973] (AR v2)
Copy OK

Track 4

Filename C:\EAC Rips\The Singers Unlimited - Magic Voices (1998) [FLAC] {7CD Box}\Disc 6 - Four of Us (1973) & With Rob McConnell and the Boss Brass (1979)\04 - Where Is Love.wav

Pre-gap length 0:00:01.62

Peak level 99.8 %
Extraction speed 3.4 X
Track quality 100.0 %
Test CRC 512C73BD
Copy CRC 512C73BD
Accurately ripped (confidence 7) [9A5D2EC9] (AR v2)
Copy OK

Track 5

Filename C:\EAC Rips\The Singers Unlimited - Magic Voices (1998) [FLAC] {7CD Box}\Disc 6 - Four of Us (1973) & With Rob McConnell and the Boss Brass (1979)\05 - My Ship.wav

Pre-gap length 0:00:01.64

Peak level 98.9 %
Extraction speed 3.7 X
Track quality 100.0 %
Test CRC 65CF9E50
Copy CRC 65CF9E50
Accurately ripped (confidence 7) [40AFDA76] (AR v2)
Copy OK

Track 6

Filename C:\EAC Rips\The Singers Unlimited - Magic Voices (1998) [FLAC] {7CD Box}\Disc 6 - Four of Us (1973) & With Rob McConnell and the Boss Brass (1979)\06 - You've Got a Friend.wav

Pre-gap length 0:00:01.62

Peak level 99.8 %
Extraction speed 3.1 X
Track quality 99.9 %
Test CRC 54B8ACA6
Copy CRC 54B8ACA6
Accurately ripped (confidence 7) [1BDEA2A3] (AR v2)
Copy OK

Track 7

Filename C:\EAC Rips\The Singers Unlimited - Magic Voices (1998) [FLAC] {7CD Box}\Disc 6 - Four of Us (1973) & With Rob McConnell and the Boss Brass (1979)\07 - Jennifer's Rabbit.wav

Pre-gap length 0:00:01.64

Peak level 99.7 %
Extraction speed 3.5 X
Track quality 100.0 %
Test CRC ADE050DE
Copy CRC ADE050DE
Accurately ripped (confidence 7) [2AC4D0B4] (AR v2)
Copy OK

Track 8

Filename C:\EAC Rips\The Singers Unlimited - Magic Voices (1998) [FLAC] {7CD Box}\Disc 6 - Four of Us (1973) & With Rob McConnell and the Boss Brass (1979)\08 - Look Around.wav

Pre-gap length 0:00:01.62

Peak level 99.7 %
Extraction speed 4.0 X
Track quality 100.0 %
Test CRC 309A3F42
Copy CRC 309A3F42
Accurately ripped (confidence 7) [8FEE2C11] (AR v2)
Copy OK

Track 9

Filename C:\EAC Rips\The Singers Unlimited - Magic Voices (1998) [FLAC] {7CD Box}\Disc 6 - Four of Us (1973) & With Rob McConnell and the Boss Brass (1979)\09 - Snowfall.wav

Pre-gap length 0:00:01.62

Peak level 99.7 %
Extraction speed 4.0 X
Track quality 100.0 %
Test CRC ADDF5881
Copy CRC ADDF5881
Accurately ripped (confidence 7) [384954DD] (AR v2)
Copy OK

Track 10

Filename C:\EAC Rips\The Singers Unlimited - Magic Voices (1998) [FLAC] {7CD Box}\Disc 6 - Four of Us (1973) & With Rob McConnell and the Boss Brass (1979)\10 - If.wav

Pre-gap length 0:00:01.62

Peak level 85.1 %
Extraction speed 4.4 X
Track quality 100.0 %
Test CRC A895E055
Copy CRC A895E055
Accurately ripped (confidence 7) [4514B68B] (AR v2)
Copy OK

Track 11

Filename C:\EAC Rips\The Singers Unlimited - Magic Voices (1998) [FLAC] {7CD Box}\Disc 6 - Four of Us (1973) & With Rob McConnell and the Boss Brass (1979)\11 - Air (From the Suite in D).wav

Pre-gap length 0:00:01.62

Peak level 99.7 %
Extraction speed 4.5 X
Track quality 100.0 %
Test CRC C0200EB5
Copy CRC C0200EB5
Accurately ripped (confidence 7) [6B06D0E2] (AR v2)
Copy OK

Track 12

Filename C:\EAC Rips\The Singers Unlimited - Magic Voices (1998) [FLAC] {7CD Box}\Disc 6 - Four of Us (1973) & With Rob McConnell and the Boss Brass (1979)\12 - Tangerine.wav

Pre-gap length 0:00:01.30

Peak level 99.8 %
Extraction speed 4.4 X
Track quality 100.0 %
Test CRC EC0BA657
Copy CRC EC0BA657
Accurately ripped (confidence 7) [16D2B842] (AR v2)
Copy OK

Track 13

Filename C:\EAC Rips\The Singers Unlimited - Magic Voices (1998) [FLAC] {7CD Box}\Disc 6 - Four of Us (1973) & With Rob McConnell and the Boss Brass (1979)\13 - Laura.wav

Pre-gap length 0:00:01.62

Peak level 99.7 %
Extraction speed 4.8 X
Track quality 100.0 %
Test CRC EB32663F
Copy CRC EB32663F
Accurately ripped (confidence 7) [68B27BAA] (AR v2)
Copy OK

Track 14

Filename C:\EAC Rips\The Singers Unlimited - Magic Voices (1998) [FLAC] {7CD Box}\Disc 6 - Four of Us (1973) & With Rob McConnell and the Boss Brass (1979)\14 - Lullaby of the Leaves.wav

Pre-gap length 0:00:01.66

Peak level 99.8 %
Extraction speed 4.1 X
Track quality 99.9 %
Test CRC 129CB97D
Copy CRC 129CB97D
Accurately ripped (confidence 7) [FDF6EE2B] (AR v2)
Copy OK

Track 15

Filename C:\EAC Rips\The Singers Unlimited - Magic Voices (1998) [FLAC] {7CD Box}\Disc 6 - Four of Us (1973) & With Rob McConnell and the Boss Brass (1979)\15 - You Are My Sunshine.wav

Pre-gap length 0:00:01.73

Peak level 99.8 %
Extraction speed 4.7 X
Track quality 100.0 %
Test CRC 806BEDEF
Copy CRC 806BEDEF
Accurately ripped (confidence 7) [788F93BD] (AR v2)
Copy OK

Track 16

Filename C:\EAC Rips\The Singers Unlimited - Magic Voices (1998) [FLAC] {7CD Box}\Disc 6 - Four of Us (1973) & With Rob McConnell and the Boss Brass (1979)\16 - Sophisticated Lady.wav

Pre-gap length 0:00:01.62

Peak level 99.8 %
Extraction speed 5.3 X
Track quality 100.0 %
Test CRC BC0E1662
Copy CRC BC0E1662
Accurately ripped (confidence 7) [5B8F4CDD] (AR v2)
Copy OK

Track 17

Filename C:\EAC Rips\The Singers Unlimited - Magic Voices (1998) [FLAC] {7CD Box}\Disc 6 - Four of Us (1973) & With Rob McConnell and the Boss Brass (1979)\17 - (This Is the End of) A Beautiful Friendship.wav

Pre-gap length 0:00:01.66

Peak level 99.8 %
Extraction speed 4.6 X
Track quality 100.0 %
Test CRC C61EA0C1
Copy CRC C61EA0C1
Accurately ripped (confidence 7) [F1B50324] (AR v2)
Copy OK

Track 18

Filename C:\EAC Rips\The Singers Unlimited - Magic Voices (1998) [FLAC] {7CD Box}\Disc 6 - Four of Us (1973) & With Rob McConnell and the Boss Brass (1979)\18 - It Might as Well Be Spring.wav

Pre-gap length 0:00:01.62

Peak level 99.8 %
Extraction speed 5.6 X
Track quality 100.0 %
Test CRC E8E9EE65
Copy CRC E8E9EE65
Accurately ripped (confidence 7) [5848640C] (AR v2)
Copy OK

Track 19

Filename C:\EAC Rips\The Singers Unlimited - Magic Voices (1998) [FLAC] {7CD Box}\Disc 6 - Four of Us (1973) & With Rob McConnell and the Boss Brass (1979)\19 - Chelsea Morning.wav

Pre-gap length 0:00:01.66

Peak level 99.8 %
Extraction speed 5.4 X
Track quality 100.0 %
Test CRC E2A22932
Copy CRC E2A22932
Accurately ripped (confidence 7) [12871131] (AR v2)
Copy OK

Track 20

Filename C:\EAC Rips\The Singers Unlimited - Magic Voices (1998) [FLAC] {7CD Box}\Disc 6 - Four of Us (1973) & With Rob McConnell and the Boss Brass (1979)\20 - Dindi.wav

Pre-gap length 0:00:01.66

Peak level 99.7 %
Extraction speed 5.5 X
Track quality 100.0 %
Test CRC F76EDBF0
Copy CRC F76EDBF0
Accurately ripped (confidence 7) [2553ECC9] (AR v2)
Copy OK

Track 21

Filename C:\EAC Rips\The Singers Unlimited - Magic Voices (1998) [FLAC] {7CD Box}\Disc 6 - Four of Us (1973) & With Rob McConnell and the Boss Brass (1979)\21 - Pieces of Dreams.wav

Pre-gap length 0:00:01.60

Peak level 99.7 %
Extraction speed 4.8 X
Track quality 99.9 %
Test CRC 1EB26C5D
Copy CRC 1EB26C5D
Accurately ripped (confidence 7) [224D1816] (AR v2)
Copy OK


All tracks accurately ripped

No errors occurred

End of status report

–– CUETools DB Plugin V2.1.6

[CTDB TOCID: _YHicP2G9NThioD7MGXxb7cz.fs-] found
Submit result: _YHicP2G9NThioD7MGXxb7cz.fs- has been confirmed
Track | CTDB Status
1 | (8/8) Accurately ripped
2 | (8/8) Accurately ripped
3 | (8/8) Accurately ripped
4 | (8/8) Accurately ripped
5 | (8/8) Accurately ripped
6 | (8/8) Accurately ripped
7 | (7/8) Accurately ripped, or (1/8) differs in 96 samples @00:23:14,00:23:28,00:23:42,00:23:56-00:23:57,00:24:10
8 | (8/8) Accurately ripped
9 | (8/8) Accurately ripped
10 | (8/8) Accurately ripped
11 | (7/8) Accurately ripped
12 | (8/8) Accurately ripped
13 | (8/8) Accurately ripped
14 | (8/8) Accurately ripped
15 | (7/8) Accurately ripped, or (1/8) differs in 15 samples @01:51:44,02:16:33
16 | (7/8) Accurately ripped, or (1/8) differs in 3 samples @00:45:46
17 | (7/8) Accurately ripped, or (1/8) differs in 959 samples @00:09:46,01:29:22-01:29:23,01:29:62-01:29:64,01:34:09-01:34:10,01:34:50-01:34:51,01:35:35-01:35:36,01:37:26,01:38:32,01:39:17-01:39:18,01:41:48-01:41:49,01:41:68-01:41:69,01:42:14,01:49:73,01:50:58-01:50:59,01:51:03-01:51:04,01:51:23-01:51:24,01:51:43-01:51:44,01:55:25-01:55:26,01:57:57,01:58:63,02:00:35,02:02:46,02:08:20,02:08:39-02:08:40,02:08:60,02:09:25-02:09:26,02:09:45-02:09:46,02:09:65-02:09:66,02:12:03,02:13:28-02:13:29,02:14:13-02:14:14
18 | (7/8) Accurately ripped, or (1/8) differs in 2 samples @01:57:25
19 | (8/8) Accurately ripped
20 | (8/8) Accurately ripped
21 | (8/8) Accurately ripped


==== Log checksum 874FF07B15FDC9B9BF1FC9D7842538D9F0B599370E849BC5FA507EE0763FB134 ====

foobar2000 1.2 / Dynamic Range Meter 1.1.1
log date: 2017-03-09 21:07:14

––––––––––––––––––––––––––––––––––––––––
Analyzed: The Singers Unlimited / Magic Voices
––––––––––––––––––––––––––––––––––––––––

DR Peak RMS Duration Track
––––––––––––––––––––––––––––––––––––––––
DR13 -0.02 dB -16.58 dB 3:58 01-We've Only Just Begun
DR10 -1.28 dB -15.27 dB 2:46 02-It Could Happen to You
DR11 -0.56 dB -15.51 dB 2:56 03-Soon It's Gonna Rain
DR11 -0.01 dB -14.97 dB 2:57 04-Where Is Love
DR13 -0.09 dB -17.23 dB 3:55 05-My Ship
DR13 -0.01 dB -16.21 dB 4:04 06-You've Got a Friend
DR12 -0.02 dB -15.29 dB 2:05 07-Jennifer's Rabbit
DR11 -0.02 dB -14.09 dB 3:42 08-Look Around
DR11 -0.02 dB -13.49 dB 3:15 09-Snowfall
DR12 -1.40 dB -16.92 dB 4:03 10-If
DR10 -0.02 dB -13.75 dB 4:11 11-Air (From the Suite in D)
DR11 -0.01 dB -12.47 dB 3:14 12-Tangerine
DR12 -0.02 dB -14.38 dB 4:01 13-Laura
DR11 -0.01 dB -13.11 dB 4:15 14-Lullaby of the Leaves
DR11 -0.01 dB -12.12 dB 2:31 15-You Are My Sunshine
DR11 -0.01 dB -13.29 dB 5:07 16-Sophisticated Lady
DR11 -0.01 dB -12.96 dB 6:07 18-It Might as Well Be Spring
DR12 -0.02 dB -14.60 dB 3:32 19-Chelsea Morning
DR11 -0.02 dB -13.47 dB 3:22 20-Dindi
DR11 -0.02 dB -13.78 dB 4:23 21-Pieces of Dreams
––––––––––––––––––––––––––––––––––––––––

Number of tracks: 20
Official DR value: DR11

Samplerate: 44100 Hz
Channels: 2
Bits per sample: 16
Bitrate: 799 kbps
Codec: FLAC
================================================================================


Exact Audio Copy V1.1 from 23. June 2015

EAC extraction logfile from 27. March 2016, 12:25

The Singers Unlimited / Magic Voices

Used drive : TSSTcorpCDDVDW TS-U633J Adapter: 1 ID: 0

Read mode : Secure
Utilize accurate stream : Yes
Defeat audio cache : Yes
Make use of C2 pointers : No

Read offset correction : 6
Overread into Lead-In and Lead-Out : No
Fill up missing offset samples with silence : Yes
Delete leading and trailing silent blocks : No
Null samples used in CRC calculations : Yes
Used interface : Native Win32 interface for Win NT & 2000
Gap handling : Appended to previous track

Used output format : User Defined Encoder
Selected bitrate : 1024 kBit/s
Quality : High
Add ID3 tag : No
Command line compressor : C:\Program Files (x86)\Exact Audio Copy\Flac\flac.exe
Additional command line options : -8 -e -V -T "ARTIST=%artist%" -T "TITLE=%title%" -T "ALBUM=%albumtitle%" -T "DATE=%year%" -T "TRACKNUMBER=%tracknr%" -T "GENRE=%genre%" -T "PERFORMER=%albuminterpret%" -T "COMPOSER=%composer%" %haslyrics%–tag-from-file=LYRICS="%lyricsfile%"%haslyrics% -T "ALBUMARTIST=%albumartist%" -T "DISCNUMBER=%cdnumber%" -T "TOTALDISCS=%totalcds%" -T "TOTALTRACKS=%numtracks%" -T "COMMENT=%comment%" %source% -o %dest%


TOC of the extracted CD

Track | Start | Length | Start sector | End sector
––––––––––––––––––––––––––––-
1 | 0:00.00 | 3:33.47 | 0 | 16021
2 | 3:33.47 | 3:10.58 | 16022 | 30329
3 | 6:44.30 | 3:22.62 | 30330 | 45541
4 | 10:07.17 | 3:28.25 | 45542 | 61166
5 | 13:35.42 | 2:37.38 | 61167 | 72979
6 | 16:13.05 | 3:24.57 | 72980 | 88336
7 | 19:37.62 | 3:22.65 | 88337 | 103551
8 | 23:00.52 | 3:11.28 | 103552 | 117904
9 | 26:12.05 | 3:46.65 | 117905 | 134919
10 | 29:58.70 | 4:32.55 | 134920 | 155374
11 | 34:31.50 | 3:22.05 | 155375 | 170529
12 | 37:53.55 | 3:16.15 | 170530 | 185244
13 | 41:09.70 | 4:16.10 | 185245 | 204454
14 | 45:26.05 | 4:44.05 | 204455 | 225759
15 | 50:10.10 | 4:18.47 | 225760 | 245156
16 | 54:28.57 | 4:13.05 | 245157 | 264136
17 | 58:41.62 | 3:56.18 | 264137 | 281854
18 | 62:38.05 | 4:39.70 | 281855 | 302849
19 | 67:18.00 | 3:11.60 | 302850 | 317234
20 | 70:29.60 | 5:24.32 | 317235 | 341566


Track 1

Filename C:\EAC Rips\The Singers Unlimited - Magic Voices (1998) [FLAC] {7CD Box}\Disc 7 - A Cappella III (1980) & Easy to Love (1982)\01 - Anything Goes.wav

Pre-gap length 0:00:02.00

Peak level 99.7 %
Extraction speed 2.8 X
Track quality 100.0 %
Test CRC F7EB9DFF
Copy CRC F7EB9DFF
Accurately ripped (confidence 8) [9A10C267] (AR v2)
Copy OK

Track 2

Filename C:\EAC Rips\The Singers Unlimited - Magic Voices (1998) [FLAC] {7CD Box}\Disc 7 - A Cappella III (1980) & Easy to Love (1982)\02 - The Way We Were.wav

Pre-gap length 0:00:01.62

Peak level 96.3 %
Extraction speed 2.9 X
Track quality 100.0 %
Test CRC F2A0DCC6
Copy CRC F2A0DCC6
Accurately ripped (confidence 8) [AF50235B] (AR v2)
Copy OK

Track 3

Filename C:\EAC Rips\The Singers Unlimited - Magic Voices (1998) [FLAC] {7CD Box}\Disc 7 - A Cappella III (1980) & Easy to Love (1982)\03 - One More Time, Chick Corea.wav

Pre-gap length 0:00:01.64

Peak level 97.5 %
Extraction speed 2.6 X
Track quality 99.9 %
Test CRC 65562A3F
Copy CRC 65562A3F
Accurately ripped (confidence 8) [C0F3691B] (AR v2)
Copy OK

Track 4

Filename C:\EAC Rips\The Singers Unlimited - Magic Voices (1998) [FLAC] {7CD Box}\Disc 7 - A Cappella III (1980) & Easy to Love (1982)\04 - Sweet Lorraine.wav

Pre-gap length 0:00:01.62

Peak level 99.8 %
Extraction speed 3.3 X
Track quality 100.0 %
Test CRC 30B51C4A
Copy CRC 30B51C4A
Accurately ripped (confidence 8) [3262EC87] (AR v2)
Copy OK

Track 5

Filename C:\EAC Rips\The Singers Unlimited - Magic Voices (1998) [FLAC] {7CD Box}\Disc 7 - A Cappella III (1980) & Easy to Love (1982)\05 - Jeanie With the Light Brown Hair.wav

Pre-gap length 0:00:01.62

Peak level 99.7 %
Extraction speed 3.4 X
Track quality 100.0 %
Test CRC C0DECBCC
Copy CRC C0DECBCC
Accurately ripped (confidence 8) [0962AF98] (AR v2)
Copy OK

Track 6

Filename C:\EAC Rips\The Singers Unlimited - Magic Voices (1998) [FLAC] {7CD Box}\Disc 7 - A Cappella III (1980) & Easy to Love (1982)\06 - Someone to Light Up My Life.wav

Pre-gap length 0:00:01.64

Peak level 98.5 %
Extraction speed 3.6 X
Track quality 100.0 %
Test CRC 2A6F8F71
Copy CRC 2A6F8F71
Accurately ripped (confidence 8) [7DF0EF12] (AR v2)
Copy OK

Track 7

Filename C:\EAC Rips\The Singers Unlimited - Magic Voices (1998) [FLAC] {7CD Box}\Disc 7 - A Cappella III (1980) & Easy to Love (1982)\07 - Love Is Here to Stay.wav

Pre-gap length 0:00:01.62

Peak level 97.9 %
Extraction speed 3.0 X
Track quality 99.9 %
Test CRC 7902198F
Copy CRC 7902198F
Accurately ripped (confidence 8) [768E5560] (AR v2)
Copy OK

Track 8

Filename C:\EAC Rips\The Singers Unlimited - Magic Voices (1998) [FLAC] {7CD Box}\Disc 7 - A Cappella III (1980) & Easy to Love (1982)\08 - The Entertainer.wav

Pre-gap length 0:00:01.62

Peak level 99.7 %
Extraction speed 3.9 X
Track quality 100.0 %
Test CRC 906AC37D
Copy CRC 906AC37D
Accurately ripped (confidence 8) [58B86C95] (AR v2)
Copy OK

Track 9

Filename C:\EAC Rips\The Singers Unlimited - Magic Voices (1998) [FLAC] {7CD Box}\Disc 7 - A Cappella III (1980) & Easy to Love (1982)\09 - All the Things You Are.wav

Pre-gap length 0:00:01.64

Peak level 84.9 %
Extraction speed 4.1 X
Track quality 100.0 %
Test CRC BAD32FE8
Copy CRC BAD32FE8
Accurately ripped (confidence 8) [F889C4DE] (AR v2)
Copy OK

Track 10

Filename C:\EAC Rips\The Singers Unlimited - Magic Voices (1998) [FLAC] {7CD Box}\Disc 7 - A Cappella III (1980) & Easy to Love (1982)\10 - Sometimes I Feel Like a Motherless Child.wav

Pre-gap length 0:00:01.64

Peak level 97.4 %
Extraction speed 4.4 X
Track quality 100.0 %
Test CRC 2109CFDE
Copy CRC 2109CFDE
Accurately ripped (confidence 8) [87743816] (AR v2)
Copy OK

Track 11

Filename C:\EAC Rips\The Singers Unlimited - Magic Voices (1998) [FLAC] {7CD Box}\Disc 7 - A Cappella III (1980) & Easy to Love (1982)\11 - I Wish You Love.wav

Pre-gap length 0:00:01.64

Peak level 98.4 %
Extraction speed 4.4 X
Track quality 100.0 %
Test CRC 559ECECD
Copy CRC 559ECECD
Accurately ripped (confidence 8) [EF179EA4] (AR v2)
Copy OK

Track 12

Filename C:\EAC Rips\The Singers Unlimited - Magic Voices (1998) [FLAC] {7CD Box}\Disc 7 - A Cappella III (1980) & Easy to Love (1982)\12 - Easy to Love.wav

Pre-gap length 0:00:01.64

Peak level 99.8 %
Extraction speed 3.6 X
Track quality 99.9 %
Test CRC 12B551F2
Copy CRC 12B551F2
Accurately ripped (confidence 8) [CF317301] (AR v2)
Copy OK

Track 13

Filename C:\EAC Rips\The Singers Unlimited - Magic Voices (1998) [FLAC] {7CD Box}\Disc 7 - A Cappella III (1980) & Easy to Love (1982)\13 - Where or When.wav

Pre-gap length 0:00:01.64

Peak level 99.9 %
Extraction speed 4.8 X
Track quality 100.0 %
Test CRC FDD25BC0
Copy CRC FDD25BC0
Accurately ripped (confidence 8) [82E07816] (AR v2)
Copy OK

Track 14

Filename C:\EAC Rips\The Singers Unlimited - Magic Voices (1998) [FLAC] {7CD Box}\Disc 7 - A Cappella III (1980) & Easy to Love (1982)\14 - Close Enough for Love.wav

Pre-gap length 0:00:01.64

Peak level 99.8 %
Extraction speed 5.0 X
Track quality 100.0 %
Test CRC ABA851CA
Copy CRC ABA851CA
Accurately ripped (confidence 8) [8D9F4BB5] (AR v2)
Copy OK

Track 15

Filename C:\EAC Rips\The Singers Unlimited - Magic Voices (1998) [FLAC] {7CD Box}\Disc 7 - A Cappella III (1980) & Easy to Love (1982)\15 - Mountain Greenery.wav

Pre-gap length 0:00:01.64

Peak level 99.8 %
Extraction speed 4.2 X
Track quality 99.9 %
Test CRC DB475C6D
Copy CRC DB475C6D
Accurately ripped (confidence 7) [571C3238] (AR v2)
Copy OK

Track 16

Filename C:\EAC Rips\The Singers Unlimited - Magic Voices (1998) [FLAC] {7CD Box}\Disc 7 - A Cappella III (1980) & Easy to Love (1982)\16 - Lullaby of Birdland.wav

Pre-gap length 0:00:01.62

Peak level 99.7 %
Extraction speed 5.2 X
Track quality 100.0 %
Test CRC 31145919
Copy CRC 31145919
Accurately ripped (confidence 8) [F2C595C4] (AR v2)
Copy OK

Track 17

Filename C:\EAC Rips\The Singers Unlimited - Magic Voices (1998) [FLAC] {7CD Box}\Disc 7 - A Cappella III (1980) & Easy to Love (1982)\17 - Fallin' in Love With Love.wav

Pre-gap length 0:00:01.66

Peak level 99.8 %
Extraction speed 5.3 X
Track quality 100.0 %
Test CRC 1A84CB76
Copy CRC 1A84CB76
Accurately ripped (confidence 8) [4827DF14] (AR v2)
Copy OK

Track 18

Filename C:\EAC Rips\The Singers Unlimited - Magic Voices (1998) [FLAC] {7CD Box}\Disc 7 - A Cappella III (1980) & Easy to Love (1982)\18 - Nina Never Knew.wav

Pre-gap length 0:00:01.64

Peak level 99.7 %
Extraction speed 5.6 X
Track quality 100.0 %
Test CRC 22DED067
Copy CRC 22DED067
Accurately ripped (confidence 8) [66A0A74E] (AR v2)
Copy OK

Track 19

Filename C:\EAC Rips\The Singers Unlimited - Magic Voices (1998) [FLAC] {7CD Box}\Disc 7 - A Cappella III (1980) & Easy to Love (1982)\19 - Bass-Ically Speaking.wav

Pre-gap length 0:00:01.64

Peak level 99.8 %
Extraction speed 5.3 X
Track quality 100.0 %
Test CRC 3C7E9FC6
Copy CRC 3C7E9FC6
Accurately ripped (confidence 8) [9D69F6CE] (AR v2)
Copy OK

Track 20

Filename C:\EAC Rips\The Singers Unlimited - Magic Voices (1998) [FLAC] {7CD Box}\Disc 7 - A Cappella III (1980) & Easy to Love (1982)\20 - Willow Weep for Me.wav

Pre-gap length 0:00:01.64

Peak level 99.8 %
Extraction speed 5.9 X
Track quality 100.0 %
Test CRC 5D365058
Copy CRC 5D365058
Accurately ripped (confidence 7) [A9469B2C] (AR v2)
Copy OK


All tracks accurately ripped

No errors occurred

End of status report

–– CUETools DB Plugin V2.1.6

[CTDB TOCID: l0tcJtlTE2Of6liAjZeeP2kBvCY-] found
Submit result: l0tcJtlTE2Of6liAjZeeP2kBvCY- has been confirmed
Track | CTDB Status
1 | (9/9) Accurately ripped
2 | (9/9) Accurately ripped
3 | (9/9) Accurately ripped
4 | (9/9) Accurately ripped
5 | (9/9) Accurately ripped
6 | (9/9) Accurately ripped
7 | (9/9) Accurately ripped
8 | (9/9) Accurately ripped
9 | (9/9) Accurately ripped
10 | (9/9) Accurately ripped
11 | (9/9) Accurately ripped
12 | (9/9) Accurately ripped
13 | (8/9) Accurately ripped
14 | (8/9) Accurately ripped
15 | (8/9) Accurately ripped
16 | (8/9) Accurately ripped
17 | (8/9) Accurately ripped
18 | (8/9) Accurately ripped
19 | (8/9) Accurately ripped
20 | (9/9) Accurately ripped


==== Log checksum 598412880898347BF06ED2D505C0E2203289FB20A73FFCCB366A5F0E129EE911 ====

foobar2000 1.2 / Dynamic Range Meter 1.1.1
log date: 2017-03-09 21:07:43

––––––––––––––––––––––––––––––––––––––––
Analyzed: The Singers Unlimited / Magic Voices
––––––––––––––––––––––––––––––––––––––––

DR Peak RMS Duration Track
––––––––––––––––––––––––––––––––––––––––
DR11 -0.02 dB -13.67 dB 3:34 01-Anything Goes
DR11 -0.32 dB -13.92 dB 3:11 02-The Way We Were
DR10 -0.21 dB -14.06 dB 3:23 03-One More Time, Chick Corea
DR10 -0.02 dB -11.48 dB 3:28 04-Sweet Lorraine
DR11 -0.02 dB -13.56 dB 2:38 05-Jeanie With the Light Brown Hair
DR10 -0.13 dB -13.04 dB 3:25 06-Someone to Light Up My Life
DR11 -0.18 dB -14.46 dB 3:23 07-Love Is Here to Stay
DR11 -0.02 dB -14.26 dB 3:11 08-The Entertainer
DR10 -1.42 dB -14.34 dB 3:47 09-All the Things You Are
DR11 -0.22 dB -15.59 dB 4:33 10-Sometimes I Feel Like a Motherless Child
DR9 -0.14 dB -12.16 dB 3:22 11-I Wish You Love
DR11 -0.01 dB -12.82 dB 3:16 12-Easy to Love
DR10 -0.01 dB -12.47 dB 4:16 13-Where or When
DR10 -0.01 dB -13.16 dB 4:44 14-Close Enough for Love
DR10 -0.01 dB -12.60 dB 4:19 15-Mountain Greenery
DR10 -0.02 dB -13.27 dB 4:13 16-Lullaby of Birdland
DR11 -0.01 dB -12.41 dB 3:56 17-Fallin' in Love With Love
DR10 -0.02 dB -12.01 dB 4:40 18-Nina Never Knew
DR10 -0.01 dB -12.51 dB 3:12 19-Bass-Ically Speaking
DR11 -0.01 dB -13.44 dB 5:24 20-Willow Weep for Me
––––––––––––––––––––––––––––––––––––––––

Number of tracks: 20
Official DR value: DR10

Samplerate: 44100 Hz
Channels: 2
Bits per sample: 16
Bitrate: 811 kbps
Codec: FLAC
================================================================================

The Singers Unlimited - Magic Voices (1998) 7 CD Box Set [Re-Up]

All thanks to original releaser - augustus.of.york

More interesting music in My Blog