Subcategories
Tags
Language
Tags

The Rolling Stones - Let It Bleed (1969) {2002, DSD Remastered}

Posted By: popsakov
The Rolling Stones - Let It Bleed (1969) {2002, DSD Remastered}

The Rolling Stones - Let It Bleed (1969) {2002, DSD Remastered}
EAC Rip | FLAC (Img) + Cue + Log ~ 286 Mb | MP3 CBR320 ~ 115 Mb
Full Scans | 00:42:22 | RAR 5% Recovery
Blues / Blues Rock / Hard Rock / Classic Rock / Country Rock
ABKCO Records #882 332-2

Let It Bleed is the eighth British and tenth American album by the English rock band the Rolling Stones, released in December 1969 by Decca Records in the United Kingdom and London Records in the United States. Released shortly after the band's 1969 American Tour, it is the follow-up to 1968's Beggars Banquet and the last album by the band to feature Brian Jones as well as the first to feature Mick Taylor. Released in December, Let It Bleed reached number 1 in the UK (temporarily demoting The Beatles' Abbey Road) and number 3 on the Billboard Top LPs chart in the US, where it eventually went 2x platinum. In 2000, Q magazine ranked it at number 28 in its list of "The 100 Greatest British Albums Ever". In 2001, the TV network VH1 placed Let It Bleed at 24th on their "100 Greatest Albums of R 'n' R" survey. In 1997, it was voted the 27th "Best Album Ever" by The Guardian. In 2003, Rolling Stone ranked it at number 32 on the magazine's list of the "500 Greatest Albums of All Time".

Mostly recorded without Brian Jones – who died several months before its release (although he does play on two tracks) and was replaced by Mick Taylor (who also plays on just two songs) – this extends the rock and blues feel of Beggars Banquet into slightly harder-rocking, more demonically sexual territory. The Stones were never as consistent on album as their main rivals, the Beatles, and Let It Bleed suffers from some rather perfunctory tracks, like "Monkey Man" and a countrified remake of the classic "Honky Tonk Woman" (here titled "Country Honk"). Yet some of the songs are among their very best, especially "Gimme Shelter," with its shimmering guitar lines and apocalyptic lyrics; the harmonica-driven "Midnight Rambler"; the druggy party ambience of the title track; and the stunning "You Can't Always Get What You Want," which was the Stones' "Hey Jude" of sorts, with its epic structure, horns, philosophical lyrics, and swelling choral vocals. "You Got the Silver" (Keith Richards' first lead vocal) and Robert Johnson's "Love in Vain," by contrast, were as close to the roots of acoustic down-home blues as the Stones ever got.

~ Richie Unterberger, All Music
The Rolling Stones - Let It Bleed (1969) {2002, DSD Remastered}


***************

The Rolling Stones - Let It Bleed (1969) {2002, DSD Remastered}

The Rolling Stones - Let It Bleed (1969) {2002, DSD Remastered}

Track List:

01. Gimme Shelter [04:31]
02. Love in Vain [04:20]
03. Country Honk [03:08]
04. Live With Me [03:34]
05. Let It Bleed [05:28]
06. Midnight Rambler [06:53]
07. You Got the Silver [02:51]
08. Monkey Man [04:13]
09. You Can’t Always Get What You Want [07:29]

Personnel:

Mick Jagger – lead vocals (except "You Got the Silver"); harmonica on "Gimme Shelter" and "Midnight Rambler"; acoustic guitar on "You Can't Always Get What You Want"
Keith Richards – guitars on all tracks; bass guitar on "Live with Me"; backing vocals on "Gimme Shelter", "Country Honk" and "Monkey Man"; lead vocals on "You Got the Silver"
Bill Wyman – bass guitar (except "Country Honk" and "Live with Me"); autoharp on "Let It Bleed"; vibes on "Monkey Man"
Charlie Watts – drums (except "You Can't Always Get What You Want")
Brian Jones – congas on "Midnight Rambler"; autoharp on "You Got the Silver"
Mick Taylor – slide guitar on "Country Honk"; guitars on "Live with Me"

Mastered By [Remaster] – Bob Ludwig

Exact Audio Copy V1.1 from 23. June 2015

EAC extraction logfile from 17. May 2016, 13:55

The Rolling Stones / Let It Bleed

Used drive : hp CDDVDW SH-216BB Adapter: 1 ID: 0

Read mode : Secure
Utilize accurate stream : Yes
Defeat audio cache : Yes
Make use of C2 pointers : No

Read offset correction : 6
Overread into Lead-In and Lead-Out : No
Fill up missing offset samples with silence : Yes
Delete leading and trailing silent blocks : No
Null samples used in CRC calculations : Yes
Used interface : Native Win32 interface for Win NT & 2000

Used output format : Internal WAV Routines
Sample format : 44.100 Hz; 16 Bit; Stereo


TOC of the extracted CD

Track | Start | Length | Start sector | End sector
––––––––––––––––––––––––––––-
1 | 0:00.32 | 4:30.60 | 32 | 20341
2 | 4:31.17 | 4:19.20 | 20342 | 39786
3 | 8:50.37 | 3:07.28 | 39787 | 53839
4 | 11:57.65 | 3:33.10 | 53840 | 69824
5 | 15:31.00 | 5:27.72 | 69825 | 94421
6 | 20:58.72 | 6:52.50 | 94422 | 125371
7 | 27:51.47 | 2:50.20 | 125372 | 138141
8 | 30:41.67 | 4:12.03 | 138142 | 157044
9 | 34:53.70 | 7:28.17 | 157045 | 190661


Range status and errors

Selected range

Filename C:\Users\Arturs\Desktop\The Rolling Stones - Let It Bleed.wav

Peak level 97.6 %
Extraction speed 2.2 X
Range quality 99.9 %
Test CRC C5FF3A5B
Copy CRC C5FF3A5B
Copy OK

No errors occurred


AccurateRip summary

Track 1 accurately ripped (confidence 200) [BF965E61] (AR v2)
Track 2 accurately ripped (confidence 200) [87ECEAB7] (AR v2)
Track 3 accurately ripped (confidence 200) [EEE4D21E] (AR v2)
Track 4 accurately ripped (confidence 200) [D8D1D992] (AR v2)
Track 5 accurately ripped (confidence 200) [3C56B736] (AR v2)
Track 6 accurately ripped (confidence 200) [04187DA4] (AR v2)
Track 7 accurately ripped (confidence 200) [A88E6A97] (AR v2)
Track 8 accurately ripped (confidence 200) [CD945449] (AR v2)
Track 9 accurately ripped (confidence 200) [33406A29] (AR v2)

All tracks accurately ripped

End of status report

–– CUETools DB Plugin V2.1.6

[CTDB TOCID: wONiveQuWGwAhL2KeMBIq7D_Gfk-] found
Submit result: wONiveQuWGwAhL2KeMBIq7D_Gfk- has been confirmed
Track | CTDB Status
1 | (149/151) Accurately ripped
2 | (149/151) Accurately ripped
3 | (149/151) Accurately ripped
4 | (148/151) Accurately ripped
5 | (149/151) Accurately ripped
6 | (149/151) Accurately ripped
7 | (149/151) Accurately ripped
8 | (149/151) Accurately ripped
9 | (147/151) Accurately ripped


==== Log checksum 8339B1A78EA20D28F444600F0A6ADC0BE747706DF4A09A2DB09F626421D64E32 ====

[CUETools log; Date: 21.05.2016 23:35:44; Version: 2.1.5]
Pregap length 00:00:32.
[CTDB TOCID: wONiveQuWGwAhL2KeMBIq7D_Gfk-] found.
Track | CTDB Status
1 | (150/152) Accurately ripped
2 | (150/152) Accurately ripped
3 | (150/152) Accurately ripped
4 | (149/152) Accurately ripped
5 | (150/152) Accurately ripped
6 | (150/152) Accurately ripped
7 | (150/152) Accurately ripped
8 | (150/152) Accurately ripped
9 | (148/152) Accurately ripped
[AccurateRip ID: 000d927d-00649d43-7209ee09] found.
Track [ CRC | V2 ] Status
01 [e4322872|bf965e61] (129+200/331) Accurately ripped
02 [e834e6c0|87eceab7] (130+200/332) Accurately ripped
03 [f04cd229|eee4d21e] (130+200/332) Accurately ripped
04 [0694a1b3|d8d1d992] (129+200/331) Accurately ripped
05 [3a326457|3c56b736] (131+200/335) Accurately ripped
06 [8016fcb4|04187da4] (131+200/335) Accurately ripped
07 [1480f568|a88e6a97] (128+200/332) Accurately ripped
08 [2efc6eb4|cd945449] (130+200/332) Accurately ripped
09 [7857e6fd|33406a29] (129+200/333) Accurately ripped
Offsetted by -676:
01 [0f5d82c7] (000/331) No match (V2 was not tested)
02 [8815134d] (000/332) No match (V2 was not tested)
03 [8f1210b4] (000/332) No match (V2 was not tested)
04 [8c807457] (000/331) No match (V2 was not tested)
05 [e60a3085] (000/335) No match (V2 was not tested)
06 [91092596] (000/335) No match (V2 was not tested)
07 [affae673] (000/332) No match (V2 was not tested)
08 [f1b9779e] (000/332) No match (V2 was not tested)
09 [3fc6a1ad] (000/333) No match (V2 was not tested)
Offsetted by 18:
01 [fa90b983] (000/331) No match (V2 was not tested)
02 [30bccf11] (000/332) No match (V2 was not tested)
03 [1214f1b3] (000/332) No match (V2 was not tested)
04 [e98fe35d] (000/331) No match (V2 was not tested)
05 [a766282d] (000/335) No match (V2 was not tested)
06 [15806f08] (000/335) No match (V2 was not tested)
07 [24f481d0] (000/332) No match (V2 was not tested)
08 [24a93551] (000/332) No match (V2 was not tested)
09 [5c6a8641] (000/333) No match (V2 was not tested)

Track Peak [ CRC32 ] [W/O NULL] [ LOG ]
– 97,6 [C5FF3A5B] [E74A17B0] CRC32
01 97,6 [93C137CD] [B59793B3]
02 97,4 [48FBA834] [192BD7D2]
03 97,4 [28A060A9] [B87ACAED]
04 97,4 [6392D2CB] [8BC2EFE0]
05 97,5 [66A27613] [7427994C]
06 97,4 [04A08507] [428E05AD]
07 97,5 [0340ED6A] [8D795154]
08 97,5 [4FFA355A] [1D0EA590]
09 93,5 [4F5DB136] [B3046C55]

The Rolling Stones - Let It Bleed (1969) {2002, DSD Remastered}


All thanks go to London

>>> The Rolling Stones in my Blog <<<

DOWNLOAD: