Subcategories
Tags
Language
Tags

The Rolling Stones - December's Children (and everybody's) (1965) [3 Releases]

Posted By: v3122
The Rolling Stones - December's Children (and everybody's) (1965) [3 Releases]

The Rolling Stones - December's Children (and everybody's) (1965)
EAC | Flac(Image) + Cue + Log & MP3 CBR 320Kbps
3CD | London, ABKCO | ~ 463 or 201 Mb | Artwork(jpg) -> 109 Mb
Blues Rock, Classic Rock, Rock & Roll

~ 1986 Germany Original, London 820 135-2 + 1986 Brazil Original, London 820 135-2 + 2002 EU Remaster, ABKCO 8822922 ~

The last Stones album in which cover material accounted for 50 percent of the content was thrown together from a variety of singles, British LP tracks, outtakes, and a cut from an early 1964 U.K. EP. Haphazard assembly aside, much of it's great, including the huge hit "Get Off of My Cloud" and the controversial, string-laden acoustic ballad "As Tears Go By" (a Top Ten item in America). Raiding the R&B closet for the last time, they also offered a breathless run-through of Larry Williams' "She Said Yeah," a sultry Chuck Berry cover ("Talkin' About You"), and exciting live versions of "Route 66" and Hank Snow's "I'm Moving On." More importantly, Jagger-Richards' songwriting partnership had now developed to the extent that several non-A-side tracks were reasonably strong in their own right, such as "I'm Free" and "The Singer Not the Song." And the version of "You Better Move On" (which had been featured on a British EP at the beginning of 1964) was one of their best and most tender soul covers.

by Richie Unterberger, allmusic
The Rolling Stones - December's Children (and everybody's) (1965):

The Rolling Stones - December's Children (and everybody's) (1965) [3 Releases]

Tracklist CD1 - December's Children (And Everybody's) (1986 Germany Original, London 820 135-2):

1. She Said Yeah (1:39)
2. Talkin' About You (2:35)
3. You Better Move On (2:43)
4. Look What You've Done (2:20)
5. The Singer Not The Song (2:30)
6. Route 66 (2:45)
7. Get Off Of My Cloud (3:03)
8. I'm Free (2:32)
9. As Tears Go By (2:47)
10. Gotta Get Away (2:13)
11. Blue Turns To Grey (2:36)
12. I'm Moving On (2:18)

Exact Audio Copy V1.0 beta 3 from 29. August 2011

EAC extraction logfile from 16. March 2013, 0:08

The Rolling Stones / December's Children (and everybody's) [820 135-2]

Used drive : PLEXTOR DVDR PX-891SA Adapter: 1 ID: 0

Read mode : Secure
Utilize accurate stream : Yes
Defeat audio cache : Yes
Make use of C2 pointers : No

Read offset correction : 6
Overread into Lead-In and Lead-Out : No
Fill up missing offset samples with silence : Yes
Delete leading and trailing silent blocks : No
Null samples used in CRC calculations : Yes
Used interface : Native Win32 interface for Win NT & 2000

Used output format : User Defined Encoder
Selected bitrate : 1024 kBit/s
Quality : High
Add ID3 tag : No
Command line compressor : C:\Program Files\Exact Audio Copy\Flac\flac.exe
Additional command line options : -V -8 -T "Genre=%genre%" -T "Artist=%artist%" -T "Title=%title%" -T "Album=%albumtitle%" -T "Date=%year%" -T "Tracknumber=%tracknr%" -T "Comment=%comment%" %source%


TOC of the extracted CD

Track | Start | Length | Start sector | End sector
––––––––––––––––––––––––––––-
1 | 0:00.33 | 1:39.55 | 33 | 7512
2 | 1:40.13 | 2:35.07 | 7513 | 19144
3 | 4:15.20 | 2:43.73 | 19145 | 31442
4 | 6:59.18 | 2:20.60 | 31443 | 42002
5 | 9:20.03 | 2:30.32 | 42003 | 53284
6 | 11:50.35 | 2:45.53 | 53285 | 65712
7 | 14:36.13 | 3:03.00 | 65713 | 79437
8 | 17:39.13 | 2:32.02 | 79438 | 90839
9 | 20:11.15 | 2:47.05 | 90840 | 103369
10 | 22:58.20 | 2:13.60 | 103370 | 113404
11 | 25:12.05 | 2:36.23 | 113405 | 125127
12 | 27:48.28 | 2:18.07 | 125128 | 135484


Range status and errors

Selected range

Filename H:\dafnaplus\1965 December's Children (And Everybody's) [London 820 135-2]\The Rolling Stones - December's Children (and everybody's) [820 135-2].wav

Peak level 93.2 %
Extraction speed 2.6 X
Range quality 100.0 %
Test CRC 2121ACB2
Copy CRC 2121ACB2
Copy OK

No errors occurred


AccurateRip summary

Track 1 accurately ripped (confidence 3) [1EDC2EAD] (AR v2)
Track 2 accurately ripped (confidence 3) [9AE6CBE6] (AR v2)
Track 3 accurately ripped (confidence 3) [FCD69876] (AR v2)
Track 4 accurately ripped (confidence 3) [81EE1DC1] (AR v2)
Track 5 accurately ripped (confidence 3) [6B07A514] (AR v2)
Track 6 accurately ripped (confidence 3) [96D26DF2] (AR v2)
Track 7 accurately ripped (confidence 3) [8741887F] (AR v2)
Track 8 accurately ripped (confidence 3) [A1BDB946] (AR v2)
Track 9 accurately ripped (confidence 3) [27E3F013] (AR v2)
Track 10 accurately ripped (confidence 3) [952ABA53] (AR v2)
Track 11 accurately ripped (confidence 3) [18D9AA0F] (AR v2)
Track 12 accurately ripped (confidence 3) [EE1BBDE0] (AR v2)

All tracks accurately ripped

End of status report

==== Log checksum E5F43B0447D3060830023B622D668F78DA05E5824AB56F73954DE7BB80EF3EE6 ====


[CUETools log; Date: 27.02.2019 8:39:08; Version: 2.1.4]
Pregap length 00:00:33.
[AccurateRip ID: 000d39f1-007ce4d2-7c070e0c] found.
Track [ CRC | V2 ] Status
01 [ffc18f64|1edc2ead] (14+30/69) Accurately ripped
02 [fabc3d4c|9ae6cbe6] (14+30/68) Accurately ripped
03 [15a05e6f|fcd69876] (15+30/71) Accurately ripped
04 [763a831b|81ee1dc1] (14+30/69) Accurately ripped
05 [cc5d241d|6b07a514] (15+30/70) Accurately ripped
06 [d1bfadb7|96d26df2] (14+30/69) Accurately ripped
07 [349a383b|8741887f] (14+30/69) Accurately ripped
08 [32d90e57|a1bdb946] (14+30/69) Accurately ripped
09 [3049b8ac|27e3f013] (14+30/69) Accurately ripped
10 [1b1e03b4|952aba53] (14+30/69) Accurately ripped
11 [374c7eec|18d9aa0f] (15+30/70) Accurately ripped
12 [fde2dd0f|ee1bbde0] (14+30/69) Accurately ripped

Track Peak [ CRC32 ] [W/O NULL] [ LOG ]
– 93,2 [2121ACB2] [A6D26189] CRC32
01 89,8 [50F23112] [8ED7F848]
02 90,1 [3752625B] [4F57A6A3]
03 89,1 [8D5D6927] [0D1C81C6]
04 92,7 [A353EDA5] [A35B2077]
05 93,2 [BD108804] [2074500F]
06 87,2 [FF664753] [49FEC960]
07 90,3 [674A0841] [B0D448F6]
08 65,1 [140FC8B1] [FDFEF408]
09 65,3 [B5469571] [C4B21A01]
10 87,1 [7005223D] [A5C2F09E]
11 57,1 [D18E220C] [E91B3E56]
12 72,5 [3C1CE483] [FB753AD6]


The Rolling Stones - December's Children (and everybody's) (1965) [3 Releases]

Tracklist CD2 - December's Children (And Everybody's) (1986 Brazil Original, London 820 135-2):

1. She Said Yeah (1:38)
2. Talkin' About You (2:34)
3. You Better Move On (2:41)
4. Look What You've Done (2:18)
5. The Singer Not The Song (2:27)
6. Route 66 (Live) (2:41)
7. Get Off My Cloud (2:58)
8. I'm Free (2:27)
9. As Tears Go By (2:45)
10. Gotta Get Away (2:10)
11. Blue Turns To Grey (2:33)
12. I'm Moving On (2:19)

Exact Audio Copy V1.0 beta 3 from 29. August 2011

EAC extraction logfile from 3. July 2013, 14:46

The Rolling Stones / December's Children (And Everybody's) (Brazil)

Used drive : SONY DVD+-RW DW-D56A Adapter: 1 ID: 0

Read mode : Secure
Utilize accurate stream : Yes
Defeat audio cache : Yes
Make use of C2 pointers : No

Read offset correction : 12
Overread into Lead-In and Lead-Out : No
Fill up missing offset samples with silence : Yes
Delete leading and trailing silent blocks : No
Null samples used in CRC calculations : Yes
Used interface : Native Win32 interface for Win NT & 2000

Used output format : User Defined Encoder
Selected bitrate : 768 kBit/s
Quality : High
Add ID3 tag : No
Command line compressor : C:\Program Files\Exact Audio Copy\FLAC\FLAC.EXE
Additional command line options : -V -8 -T "Date=%year%" -T "Genre=%genre%" %source%


TOC of the extracted CD

Track | Start | Length | Start sector | End sector
––––––––––––––––––––––––––––-
1 | 0:00.32 | 1:39.03 | 32 | 7459
2 | 1:39.35 | 2:36.05 | 7460 | 19164
3 | 4:15.40 | 2:42.70 | 19165 | 31384
4 | 6:58.35 | 2:20.20 | 31385 | 41904
5 | 9:18.55 | 2:28.15 | 41905 | 53019
6 | 11:46.70 | 2:42.55 | 53020 | 65224
7 | 14:29.50 | 2:59.72 | 65225 | 78721
8 | 17:29.47 | 2:28.33 | 78722 | 89854
9 | 19:58.05 | 2:47.47 | 89855 | 102426
10 | 22:45.52 | 2:11.63 | 102427 | 112314
11 | 24:57.40 | 2:35.12 | 112315 | 123951
12 | 27:32.52 | 2:18.55 | 123952 | 134356


Range status and errors

Selected range

Filename E:\RUTRA\London\1965 - December's Children (Brazil)\The Rolling Stones - December's Children (And Everybody's) (Brazil).wav

Peak level 81.4 %
Extraction speed 3.8 X
Range quality 100.0 %
Test CRC 0F162992
Copy CRC 0F162992
Copy OK

No errors occurred


AccurateRip summary

Track 1 accurately ripped (confidence 2) [C5A0E78D] (AR v1)
Track 2 accurately ripped (confidence 2) [2F004946] (AR v1)
Track 3 not present in database
Track 4 not present in database
Track 5 accurately ripped (confidence 2) [FFA710A7] (AR v1)
Track 6 accurately ripped (confidence 2) [35D1659A] (AR v1)
Track 7 accurately ripped (confidence 2) [6F0BCA64] (AR v1)
Track 8 accurately ripped (confidence 2) [1909DDDE] (AR v1)
Track 9 accurately ripped (confidence 2) [90DBF9AF] (AR v1)
Track 10 accurately ripped (confidence 2) [6C8B9154] (AR v1)
Track 11 accurately ripped (confidence 2) [58E18E60] (AR v1)
Track 12 accurately ripped (confidence 2) [E645408E] (AR v1)

10 track(s) accurately ripped
2 track(s) not present in the AccurateRip database

Some tracks could not be verified as accurate

End of status report

==== Log checksum F798F934E8B039C11C392CDDFA0F2D09A95B9FE3BEC6103DF4802CBF0006814F ====


[CUETools log; Date: 27.02.2019 8:40:25; Version: 2.1.4]
Pregap length 00:00:32.
[AccurateRip ID: 000d1eac-007bd12e-8406ff0c] found.
Track [ CRC | V2 ] Status
01 [c5a0e78d|4f867267] (2+3/5) Accurately ripped
02 [2f004946|a56b0f0d] (2+3/5) Accurately ripped
03 [1a8c0757|6db54758] (0+3/3) Accurately ripped
04 [943c3c6b|b90894df] (0+3/3) Accurately ripped
05 [ffa710a7|c633707c] (2+3/5) Accurately ripped
06 [35d1659a|6e689c01] (2+3/5) Accurately ripped
07 [6f0bca64|d7514e17] (2+3/5) Accurately ripped
08 [1909ddde|290e701e] (2+3/5) Accurately ripped
09 [90dbf9af|b9ce0da0] (2+3/5) Accurately ripped
10 [6c8b9154|4b4f9769] (2+3/5) Accurately ripped
11 [58e18e60|4505e454] (2+3/5) Accurately ripped
12 [e645408e|ef910835] (2+3/5) Accurately ripped

Track Peak [ CRC32 ] [W/O NULL] [ LOG ]
– 81,4 [0F162992] [5178A7A0] CRC32
01 81,4 [195530D0] [5C1B7DC8]
02 75,5 [D1C3F1D8] [316EFE27]
03 54,1 [C8AFDAF4] [72A17F93]
04 58,8 [6419DF9D] [832FA4A3]
05 61,9 [F9236F0D] [ED56E21A]
06 63,1 [533E750B] [6E34DAC5]
07 70,5 [85783A67] [976E81BE]
08 63,3 [D0205CAE] [4959BB1A]
09 45,3 [4B8F8A9A] [D1ED2DB3]
10 67,8 [0681488E] [64162D97]
11 59,7 [DC89D9FB] [80AE6AAE]
12 69,7 [88DFA9DD] [25A7A0CF]


The Rolling Stones - December's Children (and everybody's) (1965) [3 Releases]

Tracklist CD3 - December's Children (And Everybody's) (2002 EU Remaster, ABKCO 8822922):

1. She Said Yeah (1:34)
2. Talkin' About You (2:30)
3. You Better Move On (2:39)
4. Look What You've Done (2:16)
5. The Singer Not the Song (2:22)
6. Route 66 (2:39)
7. Get Off of My Cloud (2:55)
8. I'm Free (2:23)
9. As Tears Go By (2:46)
10. Gotta Get Away (2:06)
11. Blue Turns to Grey (2:29)
12. I'm Moving On (2:14)

Exact Audio Copy V1.0 beta 3 from 29. August 2011

EAC extraction logfile from 16. March 2013, 15:07

The Rolling Stones / December's Children (And Everybody's) (ABKCO 8822922)

Used drive : PLEXTOR DVDR PX-891SA Adapter: 1 ID: 0

Read mode : Secure
Utilize accurate stream : Yes
Defeat audio cache : Yes
Make use of C2 pointers : No

Read offset correction : 6
Overread into Lead-In and Lead-Out : No
Fill up missing offset samples with silence : Yes
Delete leading and trailing silent blocks : No
Null samples used in CRC calculations : Yes
Used interface : Native Win32 interface for Win NT & 2000

Used output format : User Defined Encoder
Selected bitrate : 1024 kBit/s
Quality : High
Add ID3 tag : No
Command line compressor : C:\Program Files\Exact Audio Copy\Flac\flac.exe
Additional command line options : -V -8 -T "Genre=%genre%" -T "Artist=%artist%" -T "Title=%title%" -T "Album=%albumtitle%" -T "Date=%year%" -T "Tracknumber=%tracknr%" -T "Comment=%comment%" %source%


TOC of the extracted CD

Track | Start | Length | Start sector | End sector
––––––––––––––––––––––––––––-
1 | 0:00.00 | 1:35.02 | 0 | 7126
2 | 1:35.02 | 2:31.08 | 7127 | 18459
3 | 4:06.10 | 2:40.47 | 18460 | 30506
4 | 6:46.57 | 2:16.65 | 30507 | 40771
5 | 9:03.47 | 2:23.38 | 40772 | 51534
6 | 11:27.10 | 2:40.25 | 51535 | 63559
7 | 14:07.35 | 2:56.20 | 63560 | 76779
8 | 17:03.55 | 2:24.05 | 76780 | 87584
9 | 19:27.60 | 2:46.20 | 87585 | 100054
10 | 22:14.05 | 2:07.27 | 100055 | 109606
11 | 24:21.32 | 2:29.25 | 109607 | 120806
12 | 26:50.57 | 2:13.55 | 120807 | 130836


Range status and errors

Selected range

Filename H:\dafnaplus\1965 December's Children (And Everybody's) [ABKCO 8822922]\The Rolling Stones - December's Children (And Everybody's) (ABKCO 8822922).wav

Peak level 98.8 %
Extraction speed 7.0 X
Range quality 100.0 %
Test CRC 1D010D4B
Copy CRC 1D010D4B
Copy OK

No errors occurred


AccurateRip summary

Track 1 accurately ripped (confidence 2) [F22AAFDC] (AR v2)
Track 2 accurately ripped (confidence 2) [4DAC569E] (AR v2)
Track 3 accurately ripped (confidence 2) [562DECAF] (AR v2)
Track 4 accurately ripped (confidence 2) [F1780801] (AR v2)
Track 5 accurately ripped (confidence 2) [549D2CFE] (AR v2)
Track 6 accurately ripped (confidence 2) [BEB23063] (AR v2)
Track 7 accurately ripped (confidence 2) [F1885F3D] (AR v2)
Track 8 accurately ripped (confidence 2) [5624F4A7] (AR v2)
Track 9 accurately ripped (confidence 2) [20CB987B] (AR v2)
Track 10 accurately ripped (confidence 2) [C41DF51D] (AR v2)
Track 11 accurately ripped (confidence 2) [62046F7C] (AR v2)
Track 12 accurately ripped (confidence 2) [909198EE] (AR v2)

All tracks accurately ripped

End of status report

==== Log checksum 726E9E9AF9208C6614CC20BF90576BD837372697C647D6A835AE26CB756530C9 ====


[CUETools log; Date: 27.02.2019 8:37:24; Version: 2.1.4]
[AccurateRip ID: 000cc800-0078ae56-a406d00c] found.
Track [ CRC | V2 ] Status
01 [36538f54|f22aafdc] (028+038/122) Accurately ripped
02 [ca466a2e|4dac569e] (028+038/123) Accurately ripped
03 [b0edea84|562decaf] (026+038/122) Accurately ripped
04 [c802ab1d|f1780801] (028+038/123) Accurately ripped
05 [531dcbff|549d2cfe] (026+039/123) Accurately ripped
06 [8e20b6df|beb23063] (026+038/121) Accurately ripped
07 [78c5a4b3|f1885f3d] (026+038/121) Accurately ripped
08 [27175609|5624f4a7] (028+039/123) Accurately ripped
09 [18054e74|20cb987b] (026+038/120) Accurately ripped
10 [22746624|c41df51d] (027+038/121) Accurately ripped
11 [26b16597|62046f7c] (028+039/125) Accurately ripped
12 [eb254d59|909198ee] (025+037/118) Accurately ripped
Offsetted by -664:
01 [bdc6ac3c] (009/122) Accurately ripped
02 [e28cc666] (008/123) Accurately ripped
03 [6f809754] (008/122) Accurately ripped
04 [077c697d] (008/123) Accurately ripped
05 [c38d6ba7] (008/123) Accurately ripped
06 [e608813f] (008/121) Accurately ripped
07 [6c9500a3] (009/121) Accurately ripped
08 [9926ff49] (008/123) Accurately ripped
09 [70cc10cc] (008/120) Accurately ripped
10 [8e4184e4] (008/121) Accurately ripped
11 [cbd4826f] (008/125) Accurately ripped
12 [eddcb2ae] (008/118) Accurately ripped
Offsetted by -676:
01 [fc5e57f0] (000/122) No match (V2 was not tested)
02 [9f221842] (000/123) No match (V2 was not tested)
03 [0b9f003c] (000/122) No match (V2 was not tested)
04 [c651e3ad] (000/123) No match (V2 was not tested)
05 [393f3ebb] (000/123) No match (V2 was not tested)
06 [edca616f] (000/121) No match (V2 was not tested)
07 [ef72321b] (000/121) No match (V2 was not tested)
08 [da714de9] (000/123) No match (V2 was not tested)
09 [f0dbfeb8] (000/120) No match (V2 was not tested)
10 [9349da44] (000/121) No match (V2 was not tested)
11 [ae6dd19b] (000/125) No match (V2 was not tested)
12 [b250d51c] (000/118) No match (V2 was not tested)
Offsetted by -658:
01 [1e7ad662] (000/122) No match (V2 was not tested)
02 [84421d78] (000/123) No match (V2 was not tested)
03 [a17162e0] (000/122) No match (V2 was not tested)
04 [a811ac65] (000/123) No match (V2 was not tested)
05 [08b4821d] (000/123) No match (V2 was not tested)
06 [62279127] (000/121) No match (V2 was not tested)
07 [ab2667e7] (000/121) No match (V2 was not tested)
08 [f881d7f9] (000/123) No match (V2 was not tested)
09 [b0c419d6] (000/120) No match (V2 was not tested)
10 [0bbd5a34] (000/121) No match (V2 was not tested)
11 [5a87dad9] (000/125) No match (V2 was not tested)
12 [0b87a15c] (000/118) No match (V2 was not tested)
Offsetted by -541:
01 [fc340c47] (000/122) No match (V2 was not tested)
02 [d5923f57] (000/123) No match (V2 was not tested)
03 [ef48e40a] (000/122) No match (V2 was not tested)
04 [63704511] (000/123) No match (V2 was not tested)
05 [4d2eb81a] (000/123) No match (V2 was not tested)
06 [d6854753] (000/121) No match (V2 was not tested)
07 [6f39c595] (000/121) No match (V2 was not tested)
08 [bbed5961] (000/123) No match (V2 was not tested)
09 [1028ca19] (000/120) No match (V2 was not tested)
10 [9aac19cc] (000/121) No match (V2 was not tested)
11 [b93116ec] (000/125) No match (V2 was not tested)
12 [c6bbc879] (000/118) No match (V2 was not tested)
Offsetted by -30:
01 [52cebc96] (000/122) No match (V2 was not tested)
02 [a1bbb6d4] (000/123) No match (V2 was not tested)
03 [b739f0c8] (000/122) No match (V2 was not tested)
04 [a5185c95] (000/123) No match (V2 was not tested)
05 [f95a5bb1] (000/123) No match (V2 was not tested)
06 [21856757] (000/121) No match (V2 was not tested)
07 [3feea05f] (000/121) No match (V2 was not tested)
08 [4a511a99] (000/123) No match (V2 was not tested)
09 [d82d2142] (000/120) No match
10 [af093b94] (000/121) No match (V2 was not tested)
11 [5d30ab85] (000/125) No match (V2 was not tested)
12 [7554f12e] (000/118) No match (V2 was not tested)

Track Peak [ CRC32 ] [W/O NULL] [ LOG ]
– 98,8 [1D010D4B] [8845906D] CRC32
01 90,1 [ED96A416] [EE00CFD9]
02 98,1 [4EC80C02] [E015062B]
03 79,5 [4C95D635] [9E130103]
04 98,8 [026DFBBD] [F0AB3000]
05 98,8 [B948C600] [18504756]
06 98,8 [F53AD987] [E588CE00]
07 93,2 [95ED2E0A] [E6D0946C]
08 98,8 [47FADE21] [63047276]
09 76,8 [C06682E7] [35C2B6FC]
10 97,5 [EFECE774] [7E6051BD]
11 98,8 [C5438C96] [8862B773]
12 98,8 [3AA9C107] [AA413F4E]


All thanks go to dafnaplus

The Rolling Stones in my Blog

Download The Rolling Stones - December's Children (and everybody's) (1965):