Subcategories

The Kenny Wayne Shepherd Band - How I Go (2011) {Special Edition}

Posted By: popsakov
The Kenny Wayne Shepherd Band - How I Go (2011) {Special Edition}

The Kenny Wayne Shepherd Band - How I Go (2011) {Special Edition}
EAC Rip | FLAC (Img) + Cue + Log ~ 556 Mb | MP3 CBR320 ~ 180 Mb
Full Scans ~ 33 Mb | 01:14:54 | RAR 5% Recovery
Blues Rock / Electric Blues / Hard Rock / Guitar Virtuoso
Roadrunner Records / Loud & Proud Records #1686-177235

Kenny Wayne Shepherd's How I Go not only serves as a strong reminder of the chops that caused Guitar World to place him right behind B.B. King and Eric Clapton on their list of blues guitarists, but it's the strongest indication yet of his gifted songwriting talent. The album pairs Kenny's deeply soulful and impassioned takes on classic material like Bessie Smith's "Backwater Blues," Albert King's "Oh, Pretty Woman" and The Beatles "Yer Blues" alongside the strongest writing and co-writing of his career thus far.

The Kenny Wayne Shepherd Band - How I Go (2011) {Special Edition}

"Never Lookin' Back," the opening track to Kenny Wayne Shepherd's first studio album in seven years, and his studio debut for Roadrunner, is a contradiction because he does exactly that, at least musically. Last time out, the guitarist experimented with a more alternative rock sound in hopes of broadening his audience. He sang lead for the first time and co-wrote all the material with new producer Marti Frederiksen (Buckcherry, Papa Roach). Not only was the album unsuccessful artistically, but the blues-rock fan base he had acquired during the previous decade stayed away in droves. Not exactly the plan. Shepherd must have been keen to win that audience back, first by releasing a 2007 live album featuring collaborations with blues legends, and now by calling back producer Jerry Harrison, leather-lunged singer Noah Hunt, and husband-and-wife songwriting team of Mark Selby and Tia Sillers, all of whom were key players in his initial flush of success. He even employs drummer Chris Layton and bassist Tommy Shannon, Stevie Ray Vaughan's old Double Trouble crew, to send a clear message to those alienated by his last studio disc that he has returned to a more rootsy, bluesy, and driving style. That's emphasized on the tough, riff-driven lead cut, and strong covers of the Beatles' "Yer Blues," the Albert King standard "Oh Pretty Woman," and Bessie Smith's "Back Water Blues." While guitars are prominent throughout, it's the ironclad originals – co-written with Selby, Sillers, Zac Maloy, and Danny Tate, all with instantly memorable hooks – that will remind the once faithful of the good old pre-2004 days. Some of the slickness that had occasionally plagued his work is in evidence here, especially with the keyboards, overdubbed guitars, and occasional backing vocalists, but in general, this is a solid, enjoyable outing that should have followed 1999's Live On. Ballads such as "Show Me the Way Back Home," with its gospel organ and soaring guitar solo, and the Hendrix/Trower vibe of the grinding "Heat of the Sun," are some of the finest in his catalog. Hunt, who sounds remarkably similar to the Smithereens' Pat DiNizio, sings with sweaty passion and commitment. His performance shows that Shepherd should never have tried to take his own lead vocals. The closing "Strut" gives the guitarist a chance to open up on a Freddie King-styled instrumental with real teeth. [Four additional tracks on the "deluxe edition" are well worth the few extra bucks, with the tough, Vaughan-ish shuffle of "Cryin' Shame" and the driving "Butterfly" being particular standouts.] This is Shepherd's finest, most focused release, and an impressive return to form.

~ Hal Horowitz, All Music

***************

The Kenny Wayne Shepherd Band - How I Go (2011) {Special Edition}

Track List:

01. Never Lookin' Back [0:04:15.69]
02. Come On Over [0:03:54.88]
03. Yer Blues [0:04:42.25]
04. Show Me The Way Back Home [0:05:23.52]
05. Cold [0:04:00.02]
06. Oh, Pretty Woman [0:03:52.97]
07. Anywhere The Wind Blows [0:05:30.33]
08. Dark Side Of Love [0:04:21.09]
09. Heat Of The Sun [0:05:23.49]
10. Round And Round [0:03:47.40]
11. The Wire [0:03:06.10]
12. Who's Gonna Catch You Now [0:04:33.00]
13. Backwater Blues [0:07:11.76]
14. Strut [0:03:37.20]
Bonus Tracks
15. Butterfly [0:03:34.08]
16. Cryin' Shame [0:03:32.21]
17. Baby The Rain Must Fall [0:04:08.41]

Personnel:
Bass - Nathan East, Scott Nelson, Tommy Shannon
Drums - Chris "Whipper" Layton
Horns - Fil Lorenz, Marc Baum, Rich Armstrong
Keyboards, Organ [B-3] - Riley Osbourn
Lead Guitar, Vocals - Kenny Wayne Shepherd
Lead Vocals - Noah Hunt
Backing Vocals - Pat Hodges, Stephanie Spruill

Mastered By - Bob Ludwig

Exact Audio Copy V0.99 prebeta 4 from 23. January 2008

Отчёт EAC об извлечении, выполненном 4. сентября 2011, 0:18

Kenny Wayne Shepherd / How I Go

Дисковод: Optiarc DVD RW AD-7173A Adapter: 0 ID: 1

Режим чтения : Достоверность
Использование точного потока : Да
Отключение кэша аудио : Да
Использование указателей C2 : Нет

Коррекция смещения при чтении : 48
Способность читать области Lead-in и Lead-out : Нет
Заполнение пропущенных сэмплов тишиной : Да
Удаление блоков с тишиной в начале и конце : Нет
При вычислениях CRC использовались нулевые сэмплы : Да
Интерфейс : Встроенный Win32-интерфейс для Win NT/2000

Выходной формат : Внутренние WAV-операции
Формат сэмплов : 44.100 Гц; 16 бит; стерео


TOC извлечённого CD

Трек | Старт | Длительность | Начальный сектор | Конечный сектор
––––––––––––––––––––––––––––––––––-
1 | 0:00.00 | 4:15.52 | 0 | 19176
2 | 4:15.52 | 3:54.66 | 19177 | 36792
3 | 8:10.43 | 4:42.19 | 36793 | 57961
4 | 12:52.62 | 5:23.39 | 57962 | 82225
5 | 18:16.26 | 4:00.02 | 82226 | 100227
6 | 22:16.28 | 3:52.73 | 100228 | 117700
7 | 26:09.26 | 5:30.25 | 117701 | 142475
8 | 31:39.51 | 4:21.07 | 142476 | 162057
9 | 36:00.58 | 5:23.37 | 162058 | 186319
10 | 41:24.20 | 3:47.30 | 186320 | 203374
11 | 45:11.50 | 3:06.08 | 203375 | 217332
12 | 48:17.58 | 4:33.00 | 217333 | 237807
13 | 52:50.58 | 7:11.57 | 237808 | 270189
14 | 60:02.40 | 3:37.15 | 270190 | 286479
15 | 63:39.55 | 3:34.06 | 286480 | 302535
16 | 67:13.61 | 3:32.16 | 302536 | 318451
17 | 70:46.02 | 4:08.31 | 318452 | 337082


Характеристики диапазона извлечения и сообщения об ошибках

Выбранный диапазон

Имя файла E:\РАЗДАЧИ\Kenny Wayne Shepherd - How I Go\Kenny Wayne Shepherd - How I Go.wav

Пиковый уровень 100.0 %
Качество диапазона 100.0 %
CRC теста 65025E24
CRC копии 65025E24
Копирование… OK

Ошибок не произошло


AccurateRip: сводка

Трек 1 нет в базе данных
Трек 2 нет в базе данных
Трек 3 нет в базе данных
Трек 4 нет в базе данных
Трек 5 нет в базе данных
Трек 6 нет в базе данных
Трек 7 нет в базе данных
Трек 8 нет в базе данных
Трек 9 нет в базе данных
Трек 10 нет в базе данных
Трек 11 нет в базе данных
Трек 12 нет в базе данных
Трек 13 нет в базе данных
Трек 14 нет в базе данных
Трек 15 нет в базе данных
Трек 16 нет в базе данных
Трек 17 нет в базе данных

Ни одного трека нет в базе AccurateRip

Конец отчёта

[CUETools log; Date: 15.02.2020 4:14:19; Version: 2.1.6]
[CTDB TOCID: DYJEAXQQd8m_2BWvWZbYkpq.p8Q-] found.
Track | CTDB Status
1 | (126/129) Accurately ripped
2 | (127/129) Accurately ripped
3 | (127/129) Accurately ripped
4 | (128/129) Accurately ripped
5 | (128/129) Accurately ripped
6 | (127/129) Accurately ripped
7 | (128/129) Accurately ripped
8 | (127/129) Accurately ripped
9 | (128/129) Accurately ripped
10 | (128/129) Accurately ripped
11 | (127/129) Accurately ripped
12 | (124/129) Accurately ripped
13 | (126/129) Accurately ripped
14 | (125/129) Accurately ripped
15 | (125/129) Accurately ripped
16 | (126/129) Accurately ripped
17 | (126/129) Accurately ripped
[AccurateRip ID: 002ef836-02535934-f9118e11] found.
Track [ CRC | V2 ] Status
01 [48826c79|dada9a11] (000+003/111) Accurately ripped
02 [dbf2e3d5|69a42499] (000+003/112) Accurately ripped
03 [4438eebc|8fb8cdf6] (000+003/112) Accurately ripped
04 [f5aa9e6f|7d078677] (000+003/112) Accurately ripped
05 [68027da8|ddfcc6d1] (000+003/112) Accurately ripped
06 [5bf5bc6c|c66f08bd] (000+003/110) Accurately ripped
07 [e3485b8c|4fead1a7] (000+003/112) Accurately ripped
08 [4d9bea19|d1b07096] (000+003/112) Accurately ripped
09 [2ddc46b4|e18792e4] (000+003/112) Accurately ripped
10 [2af2d626|fda4fd21] (000+003/112) Accurately ripped
11 [69bdf368|2eff753c] (000+003/112) Accurately ripped
12 [1f998618|7f6e8b95] (000+003/112) Accurately ripped
13 [544c109c|c2f9b5fb] (000+003/112) Accurately ripped
14 [a6ec938e|fae07e5c] (000+003/112) Accurately ripped
15 [e73b0369|b72afe02] (000+003/112) Accurately ripped
16 [07cd3645|c2b73d41] (000+003/112) Accurately ripped
17 [c1ce211b|4bc748d6] (000+003/110) Accurately ripped
Offsetted by 48:
01 [21e121bf] (006/111) Accurately ripped
02 [abc74be6] (006/112) Accurately ripped
03 [3468be6e] (006/112) Accurately ripped
04 [bcc4c445] (006/112) Accurately ripped
05 [da4112b6] (006/112) Accurately ripped
06 [c786b79c] (005/110) Accurately ripped
07 [de8f2a96] (006/112) Accurately ripped
08 [69373de7] (006/112) Accurately ripped
09 [045fe01d] (006/112) Accurately ripped
10 [ea94c855] (006/112) Accurately ripped
11 [6eac2359] (006/112) Accurately ripped
12 [939b97c4] (006/112) Accurately ripped
13 [74cd852c] (006/112) Accurately ripped
14 [74dbc6b8] (006/112) Accurately ripped
15 [a0700ce3] (006/112) Accurately ripped
16 [57296d92] (006/112) Accurately ripped
17 [76c2d25f] (006/110) Accurately ripped
Offsetted by 54:
01 [4578e822] (011/111) Accurately ripped
02 [e07f3732] (011/112) Accurately ripped
03 [e1ac691e] (011/112) Accurately ripped
04 [a41fd160] (011/112) Accurately ripped
05 [60d5f9b0] (011/112) Accurately ripped
06 [e062b90b] (011/110) Accurately ripped
07 [0f469242] (011/112) Accurately ripped
08 [555c8a9b] (011/112) Accurately ripped
09 [886ea486] (011/112) Accurately ripped
10 [447e60bf] (011/112) Accurately ripped
11 [25e79fc9] (011/112) Accurately ripped
12 [2ca8d01b] (011/112) Accurately ripped
13 [0eb8a28d] (011/112) Accurately ripped
14 [58bdd72e] (011/112) Accurately ripped
15 [6a5afad6] (011/112) Accurately ripped
16 [3a572e22] (011/112) Accurately ripped
17 [935604ca] (011/110) Accurately ripped

Track Peak [ CRC32 ] [W/O NULL] [ LOG ]
– 100,0 [65025E24] [F029FD15] CRC32
01 100,0 [BAC1791C] [33AE3CA9]
02 100,0 [4FAD004A] [48AFE67E]
03 100,0 [A77AE963] [EDEEF55F]
04 100,0 [9308689F] [67CA8CB7]
05 100,0 [30781CF6] [74DE4B12]
06 100,0 [55D0AF47] [D29EF557]
07 99,2 [76D8D8C0] [ABDA9E9E]
08 100,0 [C4E89BED] [3EC5DD20]
09 100,0 [0F90B97F] [E3E4E10D]
10 100,0 [E1C4170B] [BA884C14]
11 100,0 [484D905A] [FDF10E66]
12 99,6 [5C881AEB] [5EA4891D]
13 100,0 [AF954A3A] [02FAC490]
14 100,0 [425FFC9E] [9C3712E9]
15 100,0 [B40B652D] [FA37AB2D]
16 100,0 [B1FE27DE] [DE5F8F31]
17 100,0 [BF291ECE] [E91BA472]

The Kenny Wayne Shepherd Band - How I Go (2011) {Special Edition}


See also:

Kenny Wayne Shepherd Band - The Traveler (2019)

All thanks go to ЗУБ2007

>>> My Blog <<<

DOWNLOAD: