Subcategories
Please register here if you want to download anything!

If domain in your address bar is different from the list below
PLEASE LEAVE THAT SITE IMMEDIATELY
❗IT'S A DANGEROUS FAKE❗



Spicy Magazines for Men! ;-)

The Gerry Mulligan Quartet - What Is There To Say (1959) Remastered 1994

Posted By: Designol
The Gerry Mulligan Quartet - What Is There To Say (1959) Remastered 1994

The Gerry Mulligan Quartet - What Is There To Say (1959) Remastered 1994
EAC | FLAC | Tracks (Cue&Log) ~ 304 Mb | Mp3 (CBR320) ~ 153 Mb | Scans included | 00:41:11
Cool, Bop, West Coast Jazz, Mainstream Jazz | Label: Columbia/Sony/Legacy | # 475699 2

The last of the pianoless quartet albums that Gerry Mulligan recorded in the 1950s is one of the best, featuring the complementary trumpet of Art Farmer, bassist Bill Crow, and drummer Dave Bailey along with the baritonist/leader. This recording is a little skimpy on playing time but makes every moment count. Virtually every selection is memorable, with "What Is There to Say," "Just in Time," "Festive Minor," "My Funny Valentine," and "Utter Chaos" being the high points. Highly recommended both to Mulligan collectors and to jazz listeners who are just discovering the great baritonist.

Review by Scott Yanow, Allmusic.com

The Gerry Mulligan Quartet - What Is There To Say (1959) Remastered 1994



Baritone Saxophone - Gerry Mulligan
Trumpet – Art Farmer
Bass - Bill Crow
Drums - Dave Bailey

Tracks 1-4 recorded January 15, 1959, New York City
tracks 5, 6, 8 recorded December 23, 1958, New York City
track 7 recorded December 17, 1958, New York City

Tracklist:

01. What Is There To Say (4:08)
02. Just In Time (4:14)
03. News From Blueport (5:08)
04. Festive Minor (6:17)
05. As Catch Can (3:58)
06. My Funny Valentine (4:10)
07. Blueport (8:51)
08. Utter Chaos (4:25)


Exact Audio Copy V1.0 beta 4 from 7. December 2014

EAC extraction logfile from 14. October 2017, 14:43

The Gerry Mulligan Quartet / What Is There To Say

Used drive : TSSTcorpCDDVDW SH-224DB Adapter: 1 ID: 0

Read mode : Secure
Utilize accurate stream : Yes
Defeat audio cache : Yes
Make use of C2 pointers : No

Read offset correction : 6
Overread into Lead-In and Lead-Out : No
Fill up missing offset samples with silence : Yes
Delete leading and trailing silent blocks : No
Null samples used in CRC calculations : Yes
Used interface : Native Win32 interface for Win NT & 2000
Gap handling : Appended to previous track

Used output format : User Defined Encoder
Selected bitrate : 896 kBit/s
Quality : High
Add ID3 tag : No
Command line compressor : C:\Program Files\Exact Audio Copy\Flac\flac.exe
Additional command line options : -5 -V -T "ARTIST=%artist%" -T "TITLE=%title%" -T "ALBUM=%albumtitle%" -T "DATE=%year%" -T "TRACKNUMBER=%tracknr%" -T "GENRE=%genre%" -T "COMMENT=%comment%" %source% -o %dest%


TOC of the extracted CD

Track | Start | Length | Start sector | End sector
––––––––––––––––––––––––––––-
1 | 0:00.00 | 4:07.55 | 0 | 18579
2 | 4:07.55 | 4:14.32 | 18580 | 37661
3 | 8:22.12 | 5:07.40 | 37662 | 60726
4 | 13:29.52 | 6:17.23 | 60727 | 89024
5 | 19:47.00 | 3:58.25 | 89025 | 106899
6 | 23:45.25 | 4:10.05 | 106900 | 125654
7 | 27:55.30 | 8:50.50 | 125655 | 165454
8 | 36:46.05 | 4:24.70 | 165455 | 185324


Track 1

Filename C:\New Folder\01 - What Is There To Say.wav

Pre-gap length 0:00:02.00

Peak level 76.2 %
Extraction speed 1.7 X
Track quality 100.0 %
Test CRC 4B4C9D32
Copy CRC 4B4C9D32
Accurately ripped (confidence 6) [8B3D8BD9] (AR v2)
Copy OK

Track 2

Filename C:\New Folder\02 - Just In Time.wav

Pre-gap length 0:00:03.33

Peak level 78.0 %
Extraction speed 1.9 X
Track quality 100.0 %
Test CRC A1FCA75C
Copy CRC A1FCA75C
Accurately ripped (confidence 6) [8C34274F] (AR v2)
Copy OK

Track 3

Filename C:\New Folder\03 - News From Blueport.wav

Pre-gap length 0:00:03.12

Peak level 99.1 %
Extraction speed 2.2 X
Track quality 100.0 %
Test CRC C91946DB
Copy CRC C91946DB
Accurately ripped (confidence 6) [AE3D4ABA] (AR v2)
Copy OK

Track 4

Filename C:\New Folder\04 - Festive Minor.wav

Pre-gap length 0:00:03.30

Peak level 75.9 %
Extraction speed 2.4 X
Track quality 100.0 %
Test CRC 53B9252D
Copy CRC 53B9252D
Accurately ripped (confidence 6) [6C164DC8] (AR v2)
Copy OK

Track 5

Filename C:\New Folder\05 - As Catch Can.wav

Pre-gap length 0:00:03.00

Peak level 98.1 %
Extraction speed 2.5 X
Track quality 100.0 %
Test CRC BB95883B
Copy CRC BB95883B
Accurately ripped (confidence 6) [0D3E7F44] (AR v2)
Copy OK

Track 6

Filename C:\New Folder\06 - My Funny Valentine.wav

Pre-gap length 0:00:03.25

Peak level 68.9 %
Extraction speed 2.6 X
Track quality 100.0 %
Test CRC 3F83C8D3
Copy CRC 3F83C8D3
Accurately ripped (confidence 6) [6F90D8B3] (AR v2)
Copy OK

Track 7

Filename C:\New Folder\07 - Blueport.wav

Pre-gap length 0:00:03.30

Peak level 86.7 %
Extraction speed 3.0 X
Track quality 100.0 %
Test CRC 92996B3E
Copy CRC 92996B3E
Accurately ripped (confidence 6) [0A823E06] (AR v2)
Copy OK

Track 8

Filename C:\New Folder\08 - Utter Chaos.wav

Pre-gap length 0:00:03.05

Peak level 98.9 %
Extraction speed 2.5 X
Track quality 99.9 %
Test CRC F2A48BAB
Copy CRC F2A48BAB
Accurately ripped (confidence 6) [757C0BA5] (AR v2)
Copy OK


All tracks accurately ripped

No errors occurred

End of status report

–– CUETools DB Plugin V2.1.4

[CTDB TOCID: 4idxfRkVBHv4IwLlUvvUgp0aQI8-] found
Submit result: 4idxfRkVBHv4IwLlUvvUgp0aQI8- has been confirmed
Track | CTDB Status
1 | (7/7) Accurately ripped
2 | (6/7) Accurately ripped
3 | (7/7) Accurately ripped
4 | (7/7) Accurately ripped
5 | (7/7) Accurately ripped
6 | (7/7) Accurately ripped
7 | (6/7) Accurately ripped
8 | (6/7) Accurately ripped


==== Log checksum 6E432749560BF33C5F3F1B79224D86DE53DB319D427A85D9B2ADBB093EAB27EE ====

foobar2000 1.2 / Dynamic Range Meter 1.1.1
log date: 2017-12-10 02:59:55

––––––––––––––––––––––––––––––––––––––––
Analyzed: The Gerry Mulligan Quartet / What Is There To Say
––––––––––––––––––––––––––––––––––––––––

DR Peak RMS Duration Track
––––––––––––––––––––––––––––––––––––––––
DR14 -2.36 dB -21.27 dB 4:08 01-What Is There To Say
DR15 -2.15 dB -21.55 dB 4:14 02-Just In Time
DR14 -0.07 dB -17.33 dB 5:08 03-News From Blueport
DR15 -2.39 dB -21.06 dB 6:17 04-Festive Minor
DR16 -0.16 dB -20.17 dB 3:58 05-As Catch Can
DR13 -3.23 dB -21.36 dB 4:10 06-My Funny Valentine
DR16 -1.24 dB -20.13 dB 8:51 07-Blueport
DR16 -0.09 dB -20.12 dB 4:25 08-Utter Chaos
––––––––––––––––––––––––––––––––––––––––

Number of tracks: 8
Official DR value: DR15

Samplerate: 44100 Hz
Channels: 2
Bits per sample: 16
Bitrate: 859 kbps
Codec: FLAC
================================================================================

The Gerry Mulligan Quartet - What Is There To Say (1959) Remastered 1994

The Gerry Mulligan Quartet - What Is There To Say (1959) Remastered 1994

All thanks to original releaser - alekow

More interesting music in My Blog