Subcategories

TKO - In Your Face (1984)

Posted By: v3122
TKO - In Your Face (1984)

TKO - In Your Face (1984)
EAC | Flac(Image) + Cue + Log & MP3 CBR 320Kbps
2016 | Divebomb Records, DIVE001 | RU | ~ 537 or 176 Mb | Scans(jpg) -> 20 Mb
Hard Rock

Truly one of the great forgotten gems of the 80s, this album is often overlooked simply because the band's image suggests that it will be kind of lightweight. But while this album does have an element of sleaze about it, one listen to the awesome 'End of the Line' should dismiss any remaining fears about the metalness of 'In Your Face'.

One of the great things about this album is Brad Sinsel's amazing voice. Okay so technically he's probably not one of the greatest singers in the world, but his voice is overflowing with character, in the same way that John Bush of Anthrax/Armored Saint is. He sounds like he smokes a lot (but not as much as Lemmy). Actually a fairly good way to describe Sinsel's voice is like a cross between Lemmy and Steven Tyler. Sleazy but gruff at the same time.

Musically there's nothing particularly outstanding about this album, you're not going to be eulogising about the drums or guitar parts and the production is a pretty rough (depending on which version you hear) typically 80's production , but the songs, the songs are fantastic! If you were a fan of Motley Crue on the 'Shout at the Devil' album, but winced when 'Theatre of Pain' came out then there's a good chance you would appreciate 'In Your Face'. It's from that magical period in history when glam metal was still metal. The time that spawned the first Ratt album, Motley's 'Shout at the Devil', Blitzkrieg's 'Ready for Action' and Pretty Maids' 'Red, Hot and Heavy'. I've always loved this period as it produced these great albums which were neither totally glam and too soft for their own good, nor overly metal and devoid of songs.

Having said there's nothing particularly outstanding about the musicianship on this album, Ken Mary (he of Fifth Angel and Alice Cooper fame) does turn in a good performance with a typically thunderous drum sound and energetic delivery, and Kjarten's guitar playing is enjoyable and accomplished without ever feeling the need to shred. I guess the point is that the band are playing to the strength of the songs which is perhaps why the album is so strong.

malibuman, metal-archives
TKO - In Your Face (1984):

TKO - In Your Face (1984)

Tracklist:

01. I Wanna Fight 03:55
02. Run Out Of Town 03:44
03. Give Into The Night 03:20
04. End Of The Line 03:13
05. Working Girl 02:49
06. All I Want To Do 04:24
07. Don't Give It Awai 02:59
08. I Can Do Without You 04:14
09. So This Is Rock N Roll 03:34
10. Danger City 05:27
Bonus Tracks:
11. I Wanna Fight 03:58
12. Run Out Of Town 03:53
13. Give Into The Nigbt 03:20
14. End Of The Line 03:03
15. Working Girl 02:58
16. All I Want To Do 04:26
17. Don't Give It Away 02:54
18. I Can Do Without You 04:00
19. So This Is Rock And Roll 03:14
20. Danger City 05:11

Musicians:

Brad Sinsel - Vocals
Adam Bomb Brenner - Guitar
Evan Sheely - Bass
Gary Thompson - Drums


Exact Audio Copy V1.1 from 23. June 2015

EAC extraction logfile from 10. March 2017, 14:50

TKO / In Your Face

Used drive : TSSTcorpCDDVDW SH-224DB Adapter: 1 ID: 0

Read mode : Secure
Utilize accurate stream : Yes
Defeat audio cache : Yes
Make use of C2 pointers : No

Read offset correction : 6
Overread into Lead-In and Lead-Out : No
Fill up missing offset samples with silence : Yes
Delete leading and trailing silent blocks : No
Null samples used in CRC calculations : Yes
Used interface : Native Win32 interface for Win NT & 2000

Used output format : User Defined Encoder
Selected bitrate : 1024 kBit/s
Quality : High
Add ID3 tag : No
Command line compressor : C:\Program Files (x86)\Exact Audio Copy\win64\flac.exe
Additional command line options : -8 -V -T "ARTIST=%artist%" -T "TITLE=%title%" -T "ALBUM=%albumtitle%" -T "DATE=%year%" -T "TRACKNUMBER=%tracknr%" -T "GENRE=%genre%" -T "COMMENT=%comment%" %source% -o %dest%


TOC of the extracted CD

Track | Start | Length | Start sector | End sector
––––––––––––––––––––––––––––-
1 | 0:00.00 | 3:54.42 | 0 | 17591
2 | 3:54.42 | 3:44.21 | 17592 | 34412
3 | 7:38.63 | 3:19.50 | 34413 | 49387
4 | 10:58.38 | 3:12.74 | 49388 | 63861
5 | 14:11.37 | 2:47.46 | 63862 | 76432
6 | 16:59.08 | 4:24.28 | 76433 | 96260
7 | 21:23.36 | 2:59.24 | 96261 | 109709
8 | 24:22.60 | 4:14.02 | 109710 | 128761
9 | 28:36.62 | 3:33.63 | 128762 | 144799
10 | 32:10.50 | 5:27.12 | 144800 | 169336
11 | 37:37.62 | 3:57.43 | 169337 | 187154
12 | 41:35.30 | 3:53.05 | 187155 | 204634
13 | 45:28.35 | 3:19.68 | 204635 | 219627
14 | 48:48.28 | 3:03.17 | 219628 | 233369
15 | 51:51.45 | 2:58.24 | 233370 | 246743
16 | 54:49.69 | 4:26.37 | 246744 | 266730
17 | 59:16.31 | 2:53.74 | 266731 | 279779
18 | 62:10.30 | 4:00.23 | 279780 | 297802
19 | 66:10.53 | 3:13.48 | 297803 | 312325
20 | 69:24.26 | 5:11.31 | 312326 | 335681


Range status and errors

Selected range

Filename D:\Sket4er\TKO - In Your Face (1984) 2008\TKO - In Your Face.wav

Peak level 98.8 %
Extraction speed 3.4 X
Range quality 100.0 %
Test CRC 0117DDB4
Copy CRC 0117DDB4
Copy OK

No errors occurred


AccurateRip summary

Track 1 accurately ripped (confidence 1) [20C801B7] (AR v2)
Track 2 accurately ripped (confidence 1) [3FE3B296] (AR v2)
Track 3 accurately ripped (confidence 1) [795EA440] (AR v2)
Track 4 accurately ripped (confidence 1) [1755628E] (AR v2)
Track 5 accurately ripped (confidence 1) [DD9738F3] (AR v2)
Track 6 accurately ripped (confidence 1) [F44C4B48] (AR v2)
Track 7 accurately ripped (confidence 1) [3D49C6C3] (AR v2)
Track 8 accurately ripped (confidence 1) [867C7B3F] (AR v2)
Track 9 accurately ripped (confidence 1) [3E143A52] (AR v2)
Track 10 accurately ripped (confidence 1) [A22C8C75] (AR v2)
Track 11 accurately ripped (confidence 1) [60DCFFFE] (AR v2)
Track 12 accurately ripped (confidence 1) [3830D44C] (AR v2)
Track 13 accurately ripped (confidence 1) [2585B514] (AR v2)
Track 14 cannot be verified as accurate (confidence 1) [BB98FDEB], AccurateRip returned [AC7A0DD3] (AR v2)
Track 15 accurately ripped (confidence 1) [7021F1BA] (AR v2)
Track 16 accurately ripped (confidence 1) [20324554] (AR v2)
Track 17 accurately ripped (confidence 1) [B3ACF126] (AR v2)
Track 18 accurately ripped (confidence 1) [9E0C36CA] (AR v2)
Track 19 accurately ripped (confidence 1) [92943F95] (AR v2)
Track 20 accurately ripped (confidence 1) [8EC21006] (AR v2)

19 трек(и) скопированы точно
1 трек(и) не удалось проверить на точность

Some tracks could not be verified as accurate

End of status report

–– CUETools DB Plugin V2.1.6

[CTDB TOCID: WG39cCyCa6I9ewyw3Y6VNiZ3GmE-] found
Submit result: WG39cCyCa6I9ewyw3Y6VNiZ3GmE- has been confirmed
Track | CTDB Status
1 | (2/2) Accurately ripped
2 | (2/2) Accurately ripped
3 | (2/2) Accurately ripped
4 | (2/2) Accurately ripped
5 | (2/2) Accurately ripped
6 | (2/2) Accurately ripped
7 | (2/2) Accurately ripped
8 | (2/2) Accurately ripped
9 | (2/2) Accurately ripped
10 | (2/2) Accurately ripped
11 | (2/2) Accurately ripped
12 | (2/2) Accurately ripped
13 | (2/2) Accurately ripped
14 | (2/2) Accurately ripped
15 | (2/2) Accurately ripped
16 | (2/2) Accurately ripped
17 | (2/2) Accurately ripped
18 | (2/2) Accurately ripped
19 | (2/2) Accurately ripped
20 | (2/2) Accurately ripped


==== Log checksum B4805146D175C6DBDDD2276BFE7CF74EB7F20796C6AE63F4D608E6788550C9D1 ====


foobar2000 1.2.9 / Dynamic Range Meter 1.1.1
log date: 2017-05-02 13:37:07

––––––––––––––––––––––––––––––––––––––––
Analyzed: TKO / In Your Face
––––––––––––––––––––––––––––––––––––––––

DR Peak RMS Duration Track
––––––––––––––––––––––––––––––––––––––––
DR8 -0.10 dB -9.10 dB 3:55 01-I Wanna Fight
DR7 -0.10 dB -8.50 dB 3:44 02-Run Out of Town
DR8 -0.10 dB -8.74 dB 3:20 03-Give into the Night
DR8 -0.10 dB -8.75 dB 3:13 04-End of the Line
DR7 -0.10 dB -8.75 dB 2:48 05-Working Girl
DR8 -0.10 dB -9.58 dB 4:24 06-All I Want to Do
DR8 -0.10 dB -9.00 dB 2:59 07-Don't Give It Away
DR8 -0.10 dB -10.24 dB 4:14 08-I Can Do without You
DR7 -0.10 dB -8.75 dB 3:34 09-So This Is Rock 'N' Roll
DR8 -0.10 dB -10.30 dB 5:27 10-Danger City
DR7 -0.10 dB -8.56 dB 3:58 11-I Wanna Fight [2001 Remix]
DR7 -0.10 dB -8.23 dB 3:53 12-Run Out of Town [2001 Remix]
DR6 -0.10 dB -7.11 dB 3:20 13-Give into the Night [2001 Remix]
DR7 -0.10 dB -8.25 dB 3:03 14-End of the Line [2001 Remix]
DR7 -0.10 dB -7.50 dB 2:58 15-Working Girl [2001 Remix]
DR7 -0.10 dB -7.98 dB 4:26 16-All I Want to Do [2001 Remix]
DR7 -0.10 dB -8.32 dB 2:54 17-Don't Give It Away [2001 Remix]
DR8 -0.10 dB -10.25 dB 4:00 18-I Can Do without You [2001 Remix]
DR7 -0.10 dB -8.31 dB 3:14 19-So This Is Rock 'N' Roll [2001 Remix]
DR7 -0.10 dB -9.01 dB 5:11 20-Danger City [2001 Remix]
––––––––––––––––––––––––––––––––––––––––

Number of tracks: 20
Official DR value: DR7

Samplerate: 44100 Hz
Channels: 2
Bits per sample: 16
Bitrate: 976 kbps
Codec: FLAC

[CUETools log; Date: 02.05.2017 13:33:13; Version: 2.1.4]
[CTDB TOCID: WG39cCyCa6I9ewyw3Y6VNiZ3GmE-] found.
Track | CTDB Status
1 | (3/3) Accurately ripped
2 | (3/3) Accurately ripped
3 | (3/3) Accurately ripped
4 | (3/3) Accurately ripped
5 | (3/3) Accurately ripped
6 | (3/3) Accurately ripped
7 | (3/3) Accurately ripped
8 | (3/3) Accurately ripped
9 | (3/3) Accurately ripped
10 | (3/3) Accurately ripped
11 | (3/3) Accurately ripped
12 | (3/3) Accurately ripped
13 | (3/3) Accurately ripped
14 | (3/3) Accurately ripped
15 | (3/3) Accurately ripped
16 | (3/3) Accurately ripped
17 | (3/3) Accurately ripped
18 | (3/3) Accurately ripped
19 | (3/3) Accurately ripped
20 | (3/3) Accurately ripped
[AccurateRip ID: 003503ec-030b8df3-1a117b14] found.
Track [ CRC | V2 ] Status
01 [d5c986f3|20c801b7] (0+1/1) Accurately ripped
02 [9b5267cf|3fe3b296] (0+1/1) Accurately ripped
03 [ee38faf1|795ea440] (0+1/1) Accurately ripped
04 [a31c5d3b|1755628e] (0+1/1) Accurately ripped
05 [1e5dcebb|dd9738f3] (0+1/1) Accurately ripped
06 [fadddab4|f44c4b48] (0+1/1) Accurately ripped
07 [27f7984b|3d49c6c3] (0+1/1) Accurately ripped
08 [7ef8c880|867c7b3f] (0+1/1) Accurately ripped
09 [61c43976|3e143a52] (0+1/1) Accurately ripped
10 [f25b98dc|a22c8c75] (0+1/1) Accurately ripped
11 [8f19b735|60dcfffe] (0+1/1) Accurately ripped
12 [b301ca08|3830d44c] (0+1/1) Accurately ripped
13 [22628d22|2585b514] (0+1/1) Accurately ripped
14 [99ccea64|bb98fdeb] (0+0/1) No match
15 [2b788dcf|7021f1ba] (0+1/1) Accurately ripped
16 [c7ffa06c|20324554] (0+1/1) Accurately ripped
17 [b7d3b69e|b3acf126] (0+1/1) Accurately ripped
18 [e8f45776|9e0c36ca] (0+1/1) Accurately ripped
19 [9b365325|92943f95] (0+1/1) Accurately ripped
20 [2b1302ce|8ec21006] (0+1/1) Accurately ripped

Track Peak [ CRC32 ] [W/O NULL] [ LOG ]
– 98,8 [0117DDB4] [3DEBA564] CRC32
01 98,8 [DFF8FDA8] [32A7B934]
02 98,8 [37556928] [4EA64394]
03 98,8 [5840CBD6] [1282BB79]
04 98,8 [AB9B8910] [FB0F36BC]
05 98,8 [4DC34D32] [2E4A2D7B]
06 98,8 [EB37A5B1] [15A9CB2A]
07 98,8 [CD6679D0] [928FCE6D]
08 98,8 [0D7CDCC3] [04B82D47]
09 98,8 [C4320EFC] [D63C554F]
10 98,8 [62F65AD0] [B980EF8B]
11 98,8 [92834992] [E7BDA3DE]
12 98,8 [DF9B7E4B] [353F8BBD]
13 98,8 [929D00E7] [D566A523]
14 98,8 [E89A96C2] [2B2B4ABF]
15 98,8 [B1197EA2] [5A52E1DB]
16 98,8 [91A97CAE] [872B05D0]
17 98,8 [F1131BCA] [2A03EDB6]
18 98,8 [E4E4C83D] [9CE696C4]
19 98,8 [884ADC78] [EBBBD7BB]
20 98,8 [FDE16185] [B2FC2464]

TKO - In Your Face (1984)

All thanks go to Sket4er

TKO in my Blog

Download TKO - In Your Face (1984):