Subcategories
Tags
Language
Tags

The Ruins Of Beverast - Unlock The Shrine (2004) {Ván}

Posted By: TestTickles
The Ruins Of Beverast - Unlock The Shrine (2004) {Ván}

The Ruins Of Beverast - Unlock The Shrine (2004) {Ván}
EAC Rip | FLAC with CUE and LOG | scans | 532 mb
MP3 CBR 320 kbps | RAR | 156 mb
Genre: black metal, doom metal

Unlock The Shrine is the 2004 album by one-man atmospheric black metal German band The Ruins Of Beverast. The title is sometimes listed as Unlock The Shrine (Reliquary Of The White Abyss). This was released on the Ván label.

The Ruins Of Beverast - Unlock The Shrine (2004) {Ván}

01. Between Bronze Walls (8:40)
02. Skeleton Coast (3:07)
03. Euphoria When The Bombs Fell (5:44)
04. God Sent No Sign (3:25)
05. The Clockhand's Groaning Circles (10:44)
06. Procession Of Pawns (4:01)
07. Summer Decapitation Ritual (7:55)
08. Cellartunes (2:06)
09. Unlock The Shrine (9:05)
10. Subterranean Homicide Lamentation (2:00)
11. The Mine (12:01)
12. White Abyss (1:38)

EAC extraction logfile from 10. June 2008, 2:06 for CD

The Ruins Of Beverast / Unlock Rhe Shrine

Used drive : Optiarc DVD RW AD-7190A Adapter: 0 ID: 0
Read mode : Secure with NO C2, accurate stream, disable cache
Read offset correction : 6
Overread into Lead-In and Lead-Out : No

Used output format : C:\Program Files\Exact Audio Copy 0.94b\FLAC.EXE (User Defined Encoder)
128 kBit/s
Additional command line options : -V -5 -T "artist=%a" -T "title=%t" -T "album=%g" -T "date=%y" -T "tracknumber=%n" -T "genre=%m" %s

Other options :
Fill up missing offset samples with silence : Yes
Delete leading and trailing silent blocks : No
Native Win32 interface for Win NT & 2000


Track 1
Filename C:\cuntfist\FLAC\The Ruins Of Beverast - Unlock The Shrine (2004) [FLAC] {Van}\01 - Between Bronze Walls.wav

Pre-gap length 0:00:02.00

Peak level 100.0 %
Track quality 100.0 %
Test CRC F9D1AF62
Copy CRC F9D1AF62
Copy OK

Track 2
Filename C:\cuntfist\FLAC\The Ruins Of Beverast - Unlock The Shrine (2004) [FLAC] {Van}\02 - Skeleton Coast.wav

Peak level 100.0 %
Track quality 100.0 %
Test CRC 0118BA51
Copy CRC 0118BA51
Copy OK

Track 3
Filename C:\cuntfist\FLAC\The Ruins Of Beverast - Unlock The Shrine (2004) [FLAC] {Van}\03 - Euphoria When The Bombs Fell.wav

Peak level 100.0 %
Track quality 100.0 %
Test CRC 24FA231A
Copy CRC 24FA231A
Copy OK

Track 4
Filename C:\cuntfist\FLAC\The Ruins Of Beverast - Unlock The Shrine (2004) [FLAC] {Van}\04 - God Sent No Sign.wav

Peak level 100.0 %
Track quality 100.0 %
Test CRC A9D24B98
Copy CRC A9D24B98
Copy OK

Track 5
Filename C:\cuntfist\FLAC\The Ruins Of Beverast - Unlock The Shrine (2004) [FLAC] {Van}\05 - The Clockhand's Groaning Circles.wav

Peak level 100.0 %
Track quality 100.0 %
Test CRC 1920921E
Copy CRC 1920921E
Copy OK

Track 6
Filename C:\cuntfist\FLAC\The Ruins Of Beverast - Unlock The Shrine (2004) [FLAC] {Van}\06 - Procession Of Pawns.wav

Peak level 100.0 %
Track quality 100.0 %
Test CRC 2BCAAF47
Copy CRC 2BCAAF47
Copy OK

Track 7
Filename C:\cuntfist\FLAC\The Ruins Of Beverast - Unlock The Shrine (2004) [FLAC] {Van}\07 - Summer Decapitation Ritual.wav

Peak level 100.0 %
Track quality 100.0 %
Test CRC F5E9670B
Copy CRC F5E9670B
Copy OK

Track 8
Filename C:\cuntfist\FLAC\The Ruins Of Beverast - Unlock The Shrine (2004) [FLAC] {Van}\08 - Cellartunes.wav

Peak level 100.0 %
Track quality 100.0 %
Test CRC F8E69DBE
Copy CRC F8E69DBE
Copy OK

Track 9
Filename C:\cuntfist\FLAC\The Ruins Of Beverast - Unlock The Shrine (2004) [FLAC] {Van}\09 - Unlock The Shrine.wav

Peak level 100.0 %
Track quality 100.0 %
Test CRC 4838C705
Copy CRC 4838C705
Copy OK

Track 10
Filename C:\cuntfist\FLAC\The Ruins Of Beverast - Unlock The Shrine (2004) [FLAC] {Van}\10 - Subterranean Homicide Lamentation.wav

Peak level 100.0 %
Track quality 100.0 %
Test CRC B25B140E
Copy CRC B25B140E
Copy OK

Track 11
Filename C:\cuntfist\FLAC\The Ruins Of Beverast - Unlock The Shrine (2004) [FLAC] {Van}\11 - The Mine.wav

Peak level 100.0 %
Track quality 100.0 %
Test CRC F7106DBF
Copy CRC F7106DBF
Copy OK

Track 12
Filename C:\cuntfist\FLAC\The Ruins Of Beverast - Unlock The Shrine (2004) [FLAC] {Van}\12 - White Abyss.wav

Peak level 100.0 %
Track quality 100.0 %
Test CRC 09D7882F
Copy CRC 09D7882F
Copy OK

No errors occured


End of status report


The Ruins Of Beverast - Unlock The Shrine (2004) {Ván}


Thank you to the original uploader.