Subcategories

Symbian - No Man's Land (1995)

Posted By: gribovar
Symbian - No Man's Land (1995)

Symbian - No Man's Land (1995)
EAC Rip | FLAC (tracks+.cue+log) - 360 MB | MP3 CBR 320 kbps (LAME 3.93) - 174 MB | Covers (8 MB) included
Genre: New Age, Electronic, Ambient | RAR 3% Rec. | Label: Innovative Communication (87 2248-2)

Symbian is a duo of 2 artists: Peter De Backer and Johan Van den Abeele. Although they both have a completely different musical background (Peter’s great example is the work of Vangelis and Johan is more a classical/jazz type of person), their combined efforts as a group have yielded some spectacular results. Embark on breathtaking expedition through mythical and magical places where heaven meets the earth. Catch a glimpse of vast stretches of empty, high plains, inaccessible places of bare and desolate rock, through the overwhelming musical imagery of Symbian and discover the treasures of "No Man's Land".
Tracklist:
01. Outpost Diary - Prologue
02. No Man's Land
03. A Soil Untouched
04. Searching For The Truth
05. The Pilgrim's Trail
06. Frozen Fire
07. The Logic Of Life
08. Horizon Views
09. Elegy For A Dying Planet
10. Anthem
11. Lost In Echoing Silence - Epilogue

Total time: 01:10:26

Exact Audio Copy V0.99 prebeta 5 from 4. May 2009

EAC extraction logfile from 14. November 2009, 11:38

Symbian / No Man's Land

Used drive : GIGABYTEGO-W0804A Adapter: 0 ID: 0

Read mode : Secure
Utilize accurate stream : Yes
Defeat audio cache : Yes
Make use of C2 pointers : No

Read offset correction : 12
Overread into Lead-In and Lead-Out : No
Fill up missing offset samples with silence : Yes
Delete leading and trailing silent blocks : No
Null samples used in CRC calculations : Yes
Used interface : Native Win32 interface for Win NT & 2000
Gap handling : Appended to previous track

Used output format : User Defined Encoder
Selected bitrate : 1024 kBit/s
Quality : High
Add ID3 tag : No
Command line compressor : C:\Program Files\Exact Audio Copy\Flac\flac.exe
Additional command line options : -8 -V -T "ARTIST=%a" -T "TITLE=%t" -T "ALBUM=%g" -T "DATE=%y" -T "TRACKNUMBER=%n" -T "GENRE=%m" -T "COMMENT=%e" %s -o %d


TOC of the extracted CD

Track | Start | Length | Start sector | End sector
––––––––––––––––––––––––––––-
1 | 0:00.00 | 1:56.65 | 0 | 8764
2 | 1:56.65 | 7:40.25 | 8765 | 43289
3 | 9:37.15 | 4:22.65 | 43290 | 63004
4 | 14:00.05 | 5:35.52 | 63005 | 88181
5 | 19:35.57 | 12:10.10 | 88182 | 142941
6 | 31:45.67 | 5:41.35 | 142942 | 168551
7 | 37:27.27 | 5:39.13 | 168552 | 193989
8 | 43:06.40 | 5:56.45 | 193990 | 220734
9 | 49:03.10 | 10:34.55 | 220735 | 268339
10 | 59:37.65 | 9:03.40 | 268340 | 309104
11 | 68:41.30 | 1:45.60 | 309105 | 317039


Track 1

Filename C:\my flac\SYMBIAN - No Man`s Land\01 - Outpost Diary - Prologue.wav

Pre-gap length 0:00:02.00

Peak level 52.0 %
Track quality 99.9 %
Test CRC 6CF1058E
Copy CRC 6CF1058E
Track not present in AccurateRip database
Copy OK

Track 2

Filename C:\my flac\SYMBIAN - No Man`s Land\02 - No Man's Land.wav

Peak level 87.1 %
Track quality 100.0 %
Test CRC C191AA65
Copy CRC C191AA65
Track not present in AccurateRip database
Copy OK

Track 3

Filename C:\my flac\SYMBIAN - No Man`s Land\03 - A Soil Untouched.wav

Peak level 74.0 %
Track quality 100.0 %
Test CRC 157ACDE7
Copy CRC 157ACDE7
Track not present in AccurateRip database
Copy OK

Track 4

Filename C:\my flac\SYMBIAN - No Man`s Land\04 - Searching For The Truth.wav

Pre-gap length 0:00:02.32

Peak level 57.6 %
Track quality 99.9 %
Test CRC 5591EAEC
Copy CRC 5591EAEC
Track not present in AccurateRip database
Copy OK

Track 5

Filename C:\my flac\SYMBIAN - No Man`s Land\05 - The Pilgrim's Trail.wav

Pre-gap length 0:00:01.80

Peak level 69.7 %
Track quality 100.0 %
Test CRC CF73F04E
Copy CRC CF73F04E
Track not present in AccurateRip database
Copy OK

Track 6

Filename C:\my flac\SYMBIAN - No Man`s Land\06 - Frozen Fire.wav

Pre-gap length 0:00:02.10

Peak level 50.0 %
Track quality 100.0 %
Test CRC 395684E2
Copy CRC 395684E2
Track not present in AccurateRip database
Copy OK

Track 7

Filename C:\my flac\SYMBIAN - No Man`s Land\07 - The Logic of Life.wav

Pre-gap length 0:00:00.93

Peak level 85.1 %
Track quality 100.0 %
Test CRC 9E1021A0
Copy CRC 9E1021A0
Track not present in AccurateRip database
Copy OK

Track 8

Filename C:\my flac\SYMBIAN - No Man`s Land\08 - Horizon Views.wav

Pre-gap length 0:00:01.58

Peak level 82.1 %
Track quality 99.9 %
Test CRC E7D0C031
Copy CRC E7D0C031
Track not present in AccurateRip database
Copy OK

Track 9

Filename C:\my flac\SYMBIAN - No Man`s Land\09 - Elegy For a Dying Planet.wav

Peak level 56.2 %
Track quality 100.0 %
Test CRC 9172F27C
Copy CRC 9172F27C
Track not present in AccurateRip database
Copy OK

Track 10

Filename C:\my flac\SYMBIAN - No Man`s Land\10 - Anthem.wav

Peak level 89.0 %
Track quality 100.0 %
Test CRC 4E64436A
Copy CRC 4E64436A
Track not present in AccurateRip database
Copy OK

Track 11

Filename C:\my flac\SYMBIAN - No Man`s Land\11 - Lost in Echoing Silence - Epilogue.wav

Peak level 47.2 %
Track quality 100.0 %
Test CRC 3DD31F78
Copy CRC 3DD31F78
Track not present in AccurateRip database
Copy OK


None of the tracks are present in the AccurateRip database

No errors occurred

End of status report

[CUETools log; Date: 13.02.2020 1:06:03; Version: 2.1.4]
[CTDB TOCID: 9zU9nzrbDgwP4mK.PCGDu75Hkkk-] found.
Track | CTDB Status
1 | (7/7) Accurately ripped
2 | (7/7) Accurately ripped
3 | (7/7) Accurately ripped
4 | (7/7) Accurately ripped
5 | (7/7) Accurately ripped
6 | (7/7) Accurately ripped
7 | (7/7) Accurately ripped
8 | (7/7) Accurately ripped
9 | (7/7) Accurately ripped
10 | (7/7) Accurately ripped
11 | (6/7) Accurately ripped
[AccurateRip ID: 001bd4ca-00f8c921-ae10830b] found.
Track [ CRC | V2 ] Status
01 [959c698c|c75ea197] (2+0/2) Accurately ripped
02 [11672af7|02d8ecec] (2+0/2) Accurately ripped
03 [7a82273e|7049e8e5] (2+2/4) Accurately ripped
04 [58d9b1cd|9c4b7bdf] (2+2/4) Accurately ripped
05 [07da28fb|82ab9f3b] (2+0/2) Accurately ripped
06 [33701047|9fda6e12] (2+2/4) Accurately ripped
07 [2086afa9|59df0ffe] (2+2/4) Accurately ripped
08 [e34ea2c7|451281bd] (2+2/4) Accurately ripped
09 [061afe82|69e6e787] (2+0/2) Accurately ripped
10 [65f67a21|82e921ca] (2+2/4) Accurately ripped
11 [a64d7400|3c332d83] (2+2/4) Accurately ripped

Track Peak [ CRC32 ] [W/O NULL] [ LOG ]
– 89,0 [CF757B02] [2D9CB8D2]
01 52,0 [6CF1058E] [B4365852] CRC32
02 87,1 [C191AA65] [BB324E11] CRC32
03 74,0 [157ACDE7] [547DFCCF] CRC32
04 57,6 [5591EAEC] [593E610E] CRC32
05 69,7 [CF73F04E] [9FD1DD9A] CRC32
06 50,0 [395684E2] [F427FC8D] CRC32
07 85,1 [9E1021A0] [598CEFC4] CRC32
08 82,1 [E7D0C031] [78724EC9] CRC32
09 56,2 [9172F27C] [05FDF308] CRC32
10 89,0 [4E64436A] [ACE48354] CRC32
11 47,2 [3DD31F78] [1BE72D54] CRC32

Thanks to zaka2003

See also:
Symbian meets Venja - Floating Silence (1996)
Symbian - Navigator (1997)