Subcategories
Please register here if you want to download anything!

If domain in your address bar is different from the list below
PLEASE LEAVE THAT SITE IMMEDIATELY
❗IT'S A DANGEROUS FAKE❗



Spicy Magazines for Men! ;-)

Susanne Ryden, Stockholm Baroque Ensemble - Christina's Journey: Music from the Court of Queen Christina of Sweden (2004) Re-Up

Posted By: tirexiss
Susanne Ryden, Stockholm Baroque Ensemble - Christina's Journey: Music from the Court of Queen Christina of Sweden (2004) Re-Up

Susanne Ryden, Stockholm Baroque Ensemble - Christina's Journey: Music from the Court of Queen Christina of Sweden (2004
EAC | FLAC (image+.cue, log) | Covers Included | 74:11 | 370 MB
Genre: Classical, Cantata, Opera | Label: Caprice Records | Catalog: 21734

That's right, King! in Swedish, "Kong" rather than "Drottning"! Christina (1626-1689) was the only surviving child of Sweden's greatest monarch Gustavus Adolphus Vasa, who raised her to rule as a king and whose ministers executed his will by crowning the six-year-old girl King! Christina ruled under a regency until age 18, and then personally and earnestly over some eight years until her abdication in 1654. Her involvement in Swedish affair didn't terminate with her abdication, however. She returned to Sweden several times, on the last of which she might well have resumed her throne but for her whimsical conversion to Catholicism. She also drew her wealth, in her initial years in Italy, from vast estates in Sweden. Christina was probably the best known woman in Europe in her lifetime, surely one of the most interesting, personally the woman I'd most like to encounter among the Elysian Fields or in Valhalla. She was also one of the greatest patrons of music in the whole history of the baroque, and it's in that role that her biography figures in the program of music recorded on this CD. All the compositions were dedicated to her at some point in her career. The most familiar composer on the CD, Alessandro Stradella, was her particular favorite and protege. The others - Marco Marazzoli, Luigi Rossi, Vincenzo Albrici, Alessandro Cecconi, and Marc Antonio Cesti - were beneficiaries of her largesse and worthy thereof. Fine composers abounded in the 17th Century.
A tinge of nationalistic pride gleams through the notes and the selections of music on "Christinas Resa". Soprano Susanne Rydén is Swedish, as are most members of the Stockholm Baroque Ensemble which accompanies her vivaciously on these arias from baroque operas and cantatas. It's the superb singing of Susanne Rydén that makes this CD extremely attractive. Rydén has both the rich timbres of an operatic diva and the supple control of an Historically Informed performer specializing in the baroque.

Susanne Ryden, Stockholm Baroque Ensemble - Christina's Journey: Music from the Court of Queen Christina of Sweden (2004) Re-Up

Track List:

Marco Marazzoli (ca. 1602-1662)
1. La Vita Humana: Sinfonia e prologo, “L’Aurora”
Libretto Giulio Rospigliosi
Luigi Rossi (ca. 1597-1653)
2. Cantata per Gustavo Adolpho, Re di Svetia, morto in Guerra
Vincenzo Albrici (1631-1696)
3. Sinfonia a 2
From Alessandro Cecconi’s collection:
4. Pasqualini: Si bel volto
5. Anonymous: Poichè la bella Clori
6. Anonymous: E bugiardo chi dice
7. Anonymous: Pur mi parto
8. Carissimi: Vittoria, vittoria
Marc Antonio Cesti (1623-1669)
From the opera L’Argia
Libretto G F Appolloni
9. Duri lacci
10. Fuggi pur
11. Pietà Numi
Alessandro Stradella (1639-1682)
La Forza delle Stelle (excerpts)
Libretto Sebastiano Baldini
12. Sinfonia
13. RecitativL sopran
14. Damones Aria
Alessandro Stradella
From “Il duello” or “La Serenata”
Text Sebastiano Baldini
15. Sinfonia
16. Vola in altri petti
17. Balletto
18. Aria

Performers:
Susanne Ryden - Soprano
Stockholm Baroque Ensemble
Karl Nyhlin - Guitar (Baroque)
Eva Lindal - Violin
Mark Tatlow - Cembalo
Jonas Dominique - Double Bass
Anna Nyhlin - Soprano 13
Lars Warnstad - Violin
Maria Lindal - Violin
Asa Akerberg - Cello
Anna Ivanova - Violin
Joel Sundin - Viola

Exact Audio Copy V0.99 prebeta 5 from 4. May 2009

EAC extraction logfile from 30. November 2009, 21:55

Susanne Ryden, Stockholm Barock / Christina's Journey. Music from the Court of Queen Christina of Sweden

Used drive : BENQ DVD DD DW1640 Adapter: 1 ID: 0

Read mode : Secure
Utilize accurate stream : Yes
Defeat audio cache : Yes
Make use of C2 pointers : No

Read offset correction : 618
Overread into Lead-In and Lead-Out : No
Fill up missing offset samples with silence : Yes
Delete leading and trailing silent blocks : No
Null samples used in CRC calculations : Yes
Used interface : Native Win32 interface for Win NT & 2000

Used output format : User Defined Encoder
Selected bitrate : 192 kBit/s
Quality : High
Add ID3 tag : No
Command line compressor : C:\Program Files (x86)\FLAC\flac.exe
Additional command line options : -8 -V -T "ARTIST=%a" -T "TITLE=%t" -T "ALBUM=%g" -T "DATE=%y" -T "TRACKNUMBER=%n" -T "GENRE=%m" -T "COMMENT=EAC FLAC -8" %s


TOC of the extracted CD

Track | Start | Length | Start sector | End sector
––––––––––––––––––––––––––––-
1 | 0:00.00 | 8:09.64 | 0 | 36738
2 | 8:09.64 | 9:59.12 | 36739 | 81675
3 | 18:09.01 | 5:43.08 | 81676 | 107408
4 | 23:52.09 | 3:20.59 | 107409 | 122467
5 | 27:12.68 | 5:45.30 | 122468 | 148372
6 | 32:58.23 | 3:37.07 | 148373 | 164654
7 | 36:35.30 | 7:23.52 | 164655 | 197931
8 | 43:59.07 | 1:21.59 | 197932 | 204065
9 | 45:20.66 | 4:13.40 | 204066 | 223080
10 | 49:34.31 | 2:23.17 | 223081 | 233822
11 | 51:57.48 | 3:45.22 | 233823 | 250719
12 | 55:42.70 | 3:29.19 | 250720 | 266413
13 | 59:12.14 | 2:43.65 | 266414 | 278703
14 | 61:56.04 | 3:33.53 | 278704 | 294731
15 | 65:29.57 | 2:25.16 | 294732 | 305622
16 | 67:54.73 | 1:57.28 | 305623 | 314425
17 | 69:52.26 | 1:52.08 | 314426 | 322833
18 | 71:44.34 | 2:21.48 | 322834 | 333456


Range status and errors

Selected range

Filename F:\MUSIC\ RIP\Christina's Journey. Music from the Court of Queen Christina of Sweden.wav

Peak level 100.0 %
Range quality 100.0 %
Test CRC B421837F
Copy CRC B421837F
Copy OK

No errors occurred


AccurateRip summary

Track 1 not present in database
Track 2 not present in database
Track 3 not present in database
Track 4 not present in database
Track 5 not present in database
Track 6 not present in database
Track 7 not present in database
Track 8 not present in database
Track 9 not present in database
Track 10 not present in database
Track 11 not present in database
Track 12 not present in database
Track 13 not present in database
Track 14 not present in database
Track 15 not present in database
Track 16 not present in database
Track 17 not present in database
Track 18 not present in database

None of the tracks are present in the AccurateRip database

End of status report

[CUETools log; Date: 27.11.2016 16:23:51; Version: 2.1.5]
[CTDB TOCID: tiVRXBzHjznqzEYauqtKuhlbmI0-] disk not present in database.
CUETools DB: tiVRXBzHjznqzEYauqtKuhlbmI0- has been uploaded.
[AccurateRip ID: 003b501c-02e8aca6-0d115e12] found.
Track [ CRC | V2 ] Status
01 [8feb48b6|9604a2c8] (0+3/3) Accurately ripped
02 [3edf2a84|fbedb240] (0+3/3) Accurately ripped
03 [35381e42|ec593f47] (0+3/3) Accurately ripped
04 [9947ffa3|04f8d4ca] (0+3/3) Accurately ripped
05 [77a55c69|ad496ed7] (0+3/3) Accurately ripped
06 [a487ac38|224a759f] (0+3/3) Accurately ripped
07 [c8318f19|dede548e] (0+3/3) Accurately ripped
08 [066380af|8c17ad5d] (0+3/3) Accurately ripped
09 [4eadd9ff|03f235f2] (0+3/3) Accurately ripped
10 [072ef85c|2ef5a9fa] (0+3/3) Accurately ripped
11 [08e60629|c82c17d1] (0+3/3) Accurately ripped
12 [c79a4eca|48d3591c] (0+3/3) Accurately ripped
13 [9aff0b8a|eda12c3c] (0+3/3) Accurately ripped
14 [f482a231|72994b86] (0+3/3) Accurately ripped
15 [f494d9a2|34a7949d] (0+3/3) Accurately ripped
16 [2a017eaf|0ebe45c0] (0+3/3) Accurately ripped
17 [abc4e663|55e21d83] (0+3/3) Accurately ripped
18 [e88bcc93|bc10f949] (0+3/3) Accurately ripped

Track Peak [ CRC32 ] [W/O NULL] [ LOG ]
– 100,0 [B421837F] [08699606] CRC32
01 100,0 [6362F7BB] [5ECF0751]
02 93,7 [F89859A8] [4787F805]
03 28,8 [FC87D4EC] [D756B147]
04 94,2 [86B18ABB] [43801A3A]
05 80,6 [2863A9AA] [07C9EDDA]
06 74,5 [01CA4D85] [5694D945]
07 65,4 [FEEA16B6] [E84916D6]
08 62,3 [343BB673] [4F87B340]
09 66,1 [16427B95] [D44FEC1F]
10 61,3 [6207B0AA] [B8A64DB1]
11 58,3 [52D112AE] [D6F71D6C]
12 33,6 [18C0EB13] [586D6596]
13 97,8 [B4DAB7E4] [A993900D]
14 68,9 [242890E5] [A5F89660]
15 25,9 [8192B80A] [16FBCCC4]
16 96,2 [C8460DE8] [26C940ED]
17 25,4 [F18C4DDC] [0977E3C2]
18 99,9 [BD84E6E2] [E1BBB841]

Susanne Ryden, Stockholm Baroque Ensemble - Christina's Journey: Music from the Court of Queen Christina of Sweden (2004) Re-Up

Thanks to the Original ripper (unknown)!

Download: