Subcategories

Stevie Ray Vaughan & Double Trouble - In Step (1989)

Posted By: v3122
Stevie Ray Vaughan & Double Trouble - In Step (1989)

Stevie Ray Vaughan & Double Trouble - In Step (1989)
EAC | Flac(Image) + Cue + Log & MP3 CBR 320Kbps
JPCD9704288 | RU | ~ 256 or 97 Mb | Artwork(png) -> 96 Mb
Blues Rock, Electric Blues

Stevie Ray Vaughan had always been a phenomenal guitarist, but prior to In Step, his songwriting was hit or miss. Even when he wrote a classic modern blues song, it was firmly within the genre's conventions; only on Soul to Soul's exquisite soul-blues "Life Without You" did he attempt to stretch the boundaries of the form. As it turns out, that was the keynote for In Step, an album where Vaughan found his own songwriting voice, blending blues, soul, and rock in unique ways, and writing with startling emotional honesty. Yes, there are a few covers, all well chosen, but the heart of the album rests in the songs he co-wrote with Doyle Bramhall, the man who penned the Soul to Soul highlight "Change It." Bramhall proved to be an ideal collaborator for Vaughan; tunes like the terse "Tightrope" and the dense "Wall of Denial" feel so intensely personal, it's hard to believe that they weren't the product of just one man. Yet the lighter numbers – the dynamite boogie "The House Is Rockin'" and the breakneck blues of "Scratch-n-Sniff" – are just as effective as songs. Of course, he didn't need words to make effective music: "Travis Walk" is a blistering instrumental, complete with intricate fingerpicking reminiscent of the great country guitarist Merle Travis, while the shimmering "Riviera Paradise" is every bit as lyrical and lovely as his previous charmer, "Lenny." The magnificent thing about In Step is how it's fully realized, presenting every facet of Vaughan's musical personality, yet it still soars with a sense of discovery. It's a bittersweet triumph, given Vaughan's tragic death a little over a year after its release, yet it's a triumph all the same.

by Stephen Thomas Erlewine, allmusic
Stevie Ray Vaughan & Double Trouble - In Step (1989):

Stevie Ray Vaughan & Double Trouble - In Step (1989)

Tracklist:

01. The House Is Rockin' 02:24
02. Crossfire 04:11
03. Tightrope 04:41
04. Let Me Love You, Baby 02:44
05. Leave My Girl Alone 04:16
06. Travis Walk 02:20
07. Wall Of Denial 05:36
08. Scratch-N-Sniff 02:43
09. Love Me, Darlin' 03:21
10. Riviera Paradise 08:49

Stevie Ray Vaughan – Guitar, Vocals
Tommy Shannon – Bass
Reese Wynans – Keyboards
Chris Layton – Drums, Percussion

Darrell Leonard, Joe Sublett – Horns [Texacali] (tracks: 2,9)


Exact Audio Copy V1.0 beta 3 from 29. August 2011

EAC extraction logfile from 5. November 2019, 19:17

Stevie Ray Vaughan & Double Trouble / In Step (JPCD9704288)

Used drive : HL-DT-STDVD-RAM GSA-H22L Adapter: 4 ID: 4

Read mode : Secure
Utilize accurate stream : Yes
Defeat audio cache : Yes
Make use of C2 pointers : No

Read offset correction : 102
Overread into Lead-In and Lead-Out : No
Fill up missing offset samples with silence : Yes
Delete leading and trailing silent blocks : No
Null samples used in CRC calculations : Yes
Used interface : Native Win32 interface for Win NT & 2000

Used output format : User Defined Encoder
Selected bitrate : 768 kBit/s
Quality : High
Add ID3 tag : No
Command line compressor : C:\Program Files\FLAC Frontend\tools\flac.exe
Additional command line options : -V -8 %source%


TOC of the extracted CD

Track | Start | Length | Start sector | End sector
––––––––––––––––––––––––––––-
1 | 0:00.00 | 2:24.37 | 0 | 10836
2 | 2:24.37 | 4:11.10 | 10837 | 29671
3 | 6:35.47 | 4:41.08 | 29672 | 50754
4 | 11:16.55 | 2:44.02 | 50755 | 63056
5 | 14:00.57 | 4:16.18 | 63057 | 82274
6 | 18:17.00 | 2:20.40 | 82275 | 92814
7 | 20:37.40 | 5:36.72 | 92815 | 118086
8 | 26:14.37 | 2:43.25 | 118087 | 130336
9 | 28:57.62 | 3:21.40 | 130337 | 145451
10 | 32:19.27 | 8:49.20 | 145452 | 185146


Range status and errors

Selected range

Filename D:\Загрузки\Ready.zp\Stevie Ray Vaughan\Stevie Ray Vaughan & Double Trouble - 1989 - In Step (JPCD9704288)\Stevie Ray Vaughan & Double Trouble - In Step (JPCD9704288).wav

Peak level 100.0 %
Extraction speed 2.5 X
Range quality 100.0 %
Test CRC A240315F
Copy CRC A240315F
Copy OK

No errors occurred


AccurateRip summary

Track 1 cannot be verified as accurate (confidence 55) [D37AB6E4], AccurateRip returned [66E67326] (AR v2)
Track 2 cannot be verified as accurate (confidence 56) [B99CD173], AccurateRip returned [F53E4F76] (AR v2)
Track 3 cannot be verified as accurate (confidence 56) [8D672A8F], AccurateRip returned [68D5C394] (AR v2)
Track 4 cannot be verified as accurate (confidence 56) [5C5BF0B8], AccurateRip returned [CB16711F] (AR v2)
Track 5 cannot be verified as accurate (confidence 56) [0751F172], AccurateRip returned [2F73F9D7] (AR v2)
Track 6 cannot be verified as accurate (confidence 55) [E2FB7677], AccurateRip returned [B8737FC7] (AR v2)
Track 7 cannot be verified as accurate (confidence 55) [64C6EA70], AccurateRip returned [A3B8BDBD] (AR v2)
Track 8 cannot be verified as accurate (confidence 55) [182CC3AC], AccurateRip returned [D7BFFABC] (AR v2)
Track 9 cannot be verified as accurate (confidence 56) [79A53630], AccurateRip returned [5629B42E] (AR v2)
Track 10 cannot be verified as accurate (confidence 56) [E04BEDFC], AccurateRip returned [1F1AD654] (AR v2)

No tracks could be verified as accurate
You may have a different pressing from the one(s) in the database

End of status report

–– CUETools DB Plugin V2.1.3

[CTDB TOCID: 8kW64yxX6ttBbbebvS0dNyY7r8Q-] found, Submit result: 8kW64yxX6ttBbbebvS0dNyY7r8Q- has been confirmed
[d8496acd] (276/305) Accurately ripped
[286d0c06] (014/305) No match
[49475c29] (001/305) No match
[cce7cd5c] (001/305) No match
[61ace183] (001/305) No match
[4239379b] (001/305) No match
[f73981f7] (001/305) No match
[4aa6796c] (001/305) No match
[91610647] (001/305) No match
[3a62e9bd] (001/305) No match
[9a4a2e75] (001/305) No match
[d97644a4] (001/305) No match
[f713853f] (001/305) No match
[3de2948d] (001/305) No match
[22118e39] (001/305) No match
[2cc75f06] (001/305) No match
[f06838ce] (001/305) No match


==== Log checksum 3271E04A8675CB306294A7E20DED5B5F9309E9DAF54204B5DBF02AEEF7AAE0B4 ====


[CUETools log; Date: 13.12.2019 20:57:50; Version: 2.1.4]
[AccurateRip ID: 000ddc92-0070a0e1-9b09a40a] found.
Track [ CRC | V2 ] Status
01 [c3844d25|d37ab6e4] (000+000/265) No match
02 [c8a9e207|b99cd173] (000+000/270) No match
03 [9a339f6f|8d672a8f] (000+000/267) No match
04 [5a2d79e5|5c5bf0b8] (000+000/267) No match
05 [eb14b778|0751f172] (000+000/267) No match
06 [3ac3ca72|e2fb7677] (000+000/266) No match
07 [25fc6151|64c6ea70] (000+000/267) No match
08 [c6f4bb2c|182cc3ac] (000+000/268) No match
09 [287c3f92|79a53630] (000+000/268) No match
10 [756c5bc7|e04bedfc] (000+000/265) No match
Offsetted by -455:
01 [4b458260] (002/265) Accurately ripped
02 [6b6acf5a] (002/270) Accurately ripped
03 [436b3562] (002/267) Accurately ripped
04 [099b5e35] (002/267) Accurately ripped
05 [a69cd181] (002/267) Accurately ripped
06 [1f9c3626] (002/266) Accurately ripped
07 [a4f74e1d] (002/267) Accurately ripped
08 [a06378f9] (002/268) Accurately ripped
09 [4fe8049b] (002/268) Accurately ripped
10 [a68195cf] (002/265) Accurately ripped
Offsetted by 262:
01 [a7fbba97] (006/265) Accurately ripped
02 [075bfc89] (006/270) Accurately ripped
03 [74f6ebb1] (006/267) Accurately ripped
04 [67f072c5] (006/267) Accurately ripped
05 [25a2e65e] (006/267) Accurately ripped
06 [14f3566a] (006/266) Accurately ripped
07 [db2e0059] (006/267) Accurately ripped
08 [4ae0d96a] (006/268) Accurately ripped
09 [b7338078] (006/268) Accurately ripped
10 [1787b537] (006/265) Accurately ripped
Offsetted by 263:
01 [2eb7c9aa] (003/265) Accurately ripped
02 [30a30474] (003/270) Accurately ripped
03 [3743e13c] (003/267) Accurately ripped
04 [333a7995] (003/267) Accurately ripped
05 [9d10e0af] (003/267) Accurately ripped
06 [31245fbe] (003/266) Accurately ripped
07 [a3331385] (003/267) Accurately ripped
08 [6f88d59f] (003/268) Accurately ripped
09 [09d27dc9] (003/268) Accurately ripped
10 [8869c616] (003/265) Accurately ripped
Offsetted by 1177:
01 [3a259b80] (046/265) Accurately ripped
02 [903d497a] (046/270) Accurately ripped
03 [ee088b82] (046/267) Accurately ripped
04 [0186cc35] (045/267) Accurately ripped
05 [03b895e1] (045/267) Accurately ripped
06 [d837ada6] (045/266) Accurately ripped
07 [c551869d] (045/267) Accurately ripped
08 [4f4b4ad9] (045/268) Accurately ripped
09 [0576e8fb] (045/268) Accurately ripped
10 [0d886229] (044/265) Accurately ripped
Offsetted by 1333:
01 [54becb14] (043/265) Accurately ripped
02 [b7861cae] (044/270) Accurately ripped
03 [54ee2c36] (044/267) Accurately ripped
04 [e2a2f2f5] (044/267) Accurately ripped
05 [cabd1f3d] (043/267) Accurately ripped
06 [06195cd6] (044/266) Accurately ripped
07 [a869356d] (044/267) Accurately ripped
08 [a5a8fb25] (043/268) Accurately ripped
09 [5e594657] (043/268) Accurately ripped
10 [31c7e67d] (041/265) Accurately ripped
Offsetted by 2471:
01 [44b9cd8a] (013/265) Accurately ripped
02 [35474f54] (013/270) Accurately ripped
03 [0f09b01c] (013/267) Accurately ripped
04 [91b53b95] (013/267) Accurately ripped
05 [b19fdb4f] (014/267) Accurately ripped
06 [5814d43e] (013/266) Accurately ripped
07 [cef86f05] (014/267) Accurately ripped
08 [98681ebf] (014/268) Accurately ripped
09 [a51b5869] (014/268) Accurately ripped
10 [1254d950] (012/265) Accurately ripped
Offsetted by 385:
01 [6456f8b8] (000/265) No match (V2 was not tested)
02 [dc7cca72] (002/270) Accurately ripped
03 [cff0e57a] (002/267) Accurately ripped
04 [1481b8b5] (002/267) Accurately ripped
05 [877a2b49] (002/267) Accurately ripped
06 [a082d1c6] (002/266) Accurately ripped
07 [f59e367d] (002/267) Accurately ripped
08 [e79706e1] (002/268) Accurately ripped
09 [69973663] (002/268) Accurately ripped
10 [9a620e38] (002/265) Accurately ripped
Offsetted by 386:
01 [eb1307cb] (000/265) No match (V2 was not tested)
02 [05c3d25d] (000/270) No match (V2 was not tested)
03 [923ddb05] (000/267) No match (V2 was not tested)
04 [dfcbbf85] (000/267) No match (V2 was not tested)
05 [fee8259a] (000/267) No match (V2 was not tested)
06 [bcb3db1a] (000/266) No match (V2 was not tested)
07 [bda349a9] (000/267) No match (V2 was not tested)
08 [0c3f0316] (000/268) No match (V2 was not tested)
09 [bc3633b4] (000/268) No match (V2 was not tested)
10 [0dcd5492] (000/265) No match (V2 was not tested)
Offsetted by 2533:
01 [e6457424] (000/265) No match (V2 was not tested)
02 [347b3a3e] (000/270) No match (V2 was not tested)
03 [1dad27c6] (000/267) No match (V2 was not tested)
04 [cda2e1f5] (002/267) Accurately ripped
05 [9e427aed] (000/267) No match (V2 was not tested)
06 [2bf51696] (000/266) No match (V2 was not tested)
07 [403313ad] (000/267) No match (V2 was not tested)
08 [79173395] (000/268) No match (V2 was not tested)
09 [a79cb207] (000/268) No match (V2 was not tested)
10 [907750d2] (000/265) No match (V2 was not tested)

Track Peak [ CRC32 ] [W/O NULL] [ LOG ]
– 100,0 [A240315F] [7702DACA] CRC32
01 95,8 [77CB9E8F] [55DF2F73]
02 95,7 [8453139F] [66015411]
03 97,1 [7AD2456B] [FFEC1845]
04 83,0 [C5DF8D37] [4C4D1F2A]
05 99,3 [059A9F96] [ABBEA738]
06 99,1 [645F63C8] [1681DF12]
07 100,0 [E4CDC143] [AD1CDCEA]
08 100,0 [763D3F2C] [A93CA40C]
09 87,5 [69191C1A] [F3282533]
10 88,4 [1C091392] [9CD91079]


Stevie Ray Vaughan & Double Trouble - In Step (1989)

All thanks go to Ready.zp

Stevie Ray Vaughan in my Blog

Download Stevie Ray Vaughan & Double Trouble - In Step (1989):