Subcategories

Steve Hackett - Broken Skies Outspread Wings 1984-2006 (2018) [6CD + 2DVD Box Set]

Posted By: v3122
Steve Hackett - Broken Skies Outspread Wings 1984-2006 (2018) [6CD + 2DVD Box Set]

Steve Hackett - Broken Skies Outspread Wings 1984-2006 (2018)
EAC | Flac(Image) + Cue + Log & MP3 CBR 320Kbps
InsideOut Music, IOMLTDCD 513 | ~ 2256 or 980 Mb | Scans(jpg) -> 1.24 Gb
2xDVD: NTSC 4:3 & 16:9 (720x480) VBR | AC3, 2 ch & 6 ch / DTS, 6 ch
Art Rock / Progressive Rock

Deluxe eight disc (six CD + two NTSC/Region 0 DVDs) in artbook pressing. Broken Skies - Outspread Wings is the extensive, detailed sequel to Premonitions (2015) and covers the years 1984 to 2006 in the production history of legendary former Genesis guitarist Steve Hackett. The albums were all remastered in 2018 and often offer various bonus pieces. In addition to the albums Till We Have Faces, Guitar Noir, Darktown, Feedback 86, To Watch the Storms and Wild Orchids, this includes a superb Roger Dean (Yes, Uriah Heep) painting ennobled artbook. Features a 60-page booklet with all sorts of footage and liner notes and a DVD with various new 5.1 mixes, rare live recordings and the Somewhere in South America DVD from 2002. An excellent full service for all true Hackett connoisseurs!
Steve Hackett - Broken Skies Outspread Wings 1984-2006 (2018):

Steve Hackett - Broken Skies Outspread Wings 1984-2006 (2018) [6CD + 2DVD Box Set]

Tracklist CD1 - 1984 Til We Have Faces:

1 Duel
02 Matilda Smith-Williams Home For The Aged
03 Let Me Count The Ways
04 A Doll That's Made In Japan
05 Myopia
06 What's My Name
07 The Rio Connection
08 Taking The Easy Way Out
09 When You Wish Upon A Star

Exact Audio Copy V1.3 from 2. September 2016

EAC extraction logfile from 29. October 2018, 11:44

Steve Hackett / Till We Have Faces

Used drive : PLEXTOR BD-R PX-B950SA Adapter: 1 ID: 1

Read mode : Secure
Utilize accurate stream : Yes
Defeat audio cache : Yes
Make use of C2 pointers : No

Read offset correction : 6
Overread into Lead-In and Lead-Out : No
Fill up missing offset samples with silence : Yes
Delete leading and trailing silent blocks : No
Null samples used in CRC calculations : Yes
Used interface : Native Win32 interface for Win NT & 2000

Used output format : Internal WAV Routines
Sample format : 44.100 Hz; 16 Bit; Stereo


TOC of the extracted CD

Track | Start | Length | Start sector | End sector
––––––––––––––––––––––––––––-
1 | 0:00.00 | 4:48.37 | 0 | 21636
2 | 4:48.37 | 8:06.70 | 21637 | 58156
3 | 12:55.32 | 6:05.48 | 58157 | 85579
4 | 19:01.05 | 3:56.72 | 85580 | 103351
5 | 22:58.02 | 2:55.53 | 103352 | 116529
6 | 25:53.55 | 7:05.51 | 116530 | 148455
7 | 32:59.31 | 3:20.55 | 148456 | 163510
8 | 36:20.11 | 3:49.26 | 163511 | 180711
9 | 40:09.37 | 0:48.29 | 180712 | 184340


Range status and errors

Selected range

Filename C:\Users\Alex\Desktop\ALLexxess\Steve Hackett\2018 Broken Skies Outspread Wings (8-Disc Box Set InsideOut Music)\1984 Til We Have Faces\Steve Hackett - Till We Have Faces.wav

Peak level 94.4 %
Extraction speed 6.6 X
Range quality 100.0 %
Test CRC 04D9B687
Copy CRC 04D9B687
Copy OK

No errors occurred


AccurateRip summary

Track 1 not present in database
Track 2 not present in database
Track 3 not present in database
Track 4 not present in database
Track 5 not present in database
Track 6 not present in database
Track 7 not present in database
Track 8 not present in database
Track 9 not present in database

None of the tracks are present in the AccurateRip database

End of status report

–– CUETools DB Plugin V2.1.6

[CTDB TOCID: 4Nq7Ik61011sDI.oKzfq9wcnuXc-] found
Submit result: 4Nq7Ik61011sDI.oKzfq9wcnuXc- has been confirmed
Track | CTDB Status
1 | (8/8) Accurately ripped
2 | (8/8) Accurately ripped
3 | (8/8) Accurately ripped
4 | (8/8) Accurately ripped
5 | (8/8) Accurately ripped
6 | (8/8) Accurately ripped
7 | (8/8) Accurately ripped
8 | (8/8) Accurately ripped
9 | (8/8) Accurately ripped


==== Log checksum 7B088C82EC5DF7C68931639A7412A3092DBAD06685CE1B3A7E4BA1236A91627C ====


[CUETools log; Date: 02.11.2018 6:00:40; Version: 2.1.4]
[CTDB TOCID: 4Nq7Ik61011sDI.oKzfq9wcnuXc-] found.
Track | CTDB Status
1 | (10/10) Accurately ripped
2 | (10/10) Accurately ripped
3 | (10/10) Accurately ripped
4 | (10/10) Accurately ripped
5 | (10/10) Accurately ripped
6 | (10/10) Accurately ripped
7 | (10/10) Accurately ripped
8 | (10/10) Accurately ripped
9 | (10/10) Accurately ripped
[AccurateRip ID: 00103584-0073dc90-6f099909] disk not present in database.

Track Peak [ CRC32 ] [W/O NULL] [ LOG ]
– 94,4 [04D9B687] [B9345DC0] CRC32
01 94,4 [ECDBED69] [D5191D41]
02 94,4 [93C7EBA0] [825AA46C]
03 94,4 [32E94F34] [E63FD8A7]
04 94,3 [3BE90297] [FC578C56]
05 94,4 [F6225C0B] [DFB620EA]
06 94,3 [DC9CD6D5] [555F40A3]
07 94,4 [D9AAB985] [BB8F7C07]
08 94,3 [EBD8FB85] [D260627C]
09 27,2 [E76E0888] [7462D797]


Tracklist CD2 - 1986 Feedback '86:

01 Cassandra
02 Prizefighters
03 Slot Machine
04 Stadium Of The Damned
05 Don't Fall
06 Oh How I Love You
07 Notre Dame Des Fleurs
08 The Gulf
09 When The Heart Rules The Mind (2018 Re-Record Of GTR Track)

Exact Audio Copy V1.3 from 2. September 2016

EAC extraction logfile from 29. October 2018, 11:03

Steve Hackett / Feedback '86 2018

Used drive : PLEXTOR BD-R PX-B950SA Adapter: 1 ID: 1

Read mode : Secure
Utilize accurate stream : Yes
Defeat audio cache : Yes
Make use of C2 pointers : No

Read offset correction : 6
Overread into Lead-In and Lead-Out : No
Fill up missing offset samples with silence : Yes
Delete leading and trailing silent blocks : No
Null samples used in CRC calculations : Yes
Used interface : Native Win32 interface for Win NT & 2000

Used output format : Internal WAV Routines
Sample format : 44.100 Hz; 16 Bit; Stereo


TOC of the extracted CD

Track | Start | Length | Start sector | End sector
––––––––––––––––––––––––––––-
1 | 0:00.00 | 4:08.10 | 0 | 18609
2 | 4:08.10 | 5:13.15 | 18610 | 42099
3 | 9:21.25 | 4:22.73 | 42100 | 61822
4 | 13:44.23 | 4:42.70 | 61823 | 83042
5 | 18:27.18 | 4:25.49 | 83043 | 102966
6 | 22:52.67 | 3:58.29 | 102967 | 120845
7 | 26:51.21 | 3:12.05 | 120846 | 135250
8 | 30:03.26 | 7:20.60 | 135251 | 168310
9 | 37:24.11 | 5:20.06 | 168311 | 192316


Range status and errors

Selected range

Filename C:\Users\Alex\Desktop\ALLexxess\Steve Hackett\2018 Broken Skies Outspread Wings (8-Disc Box Set InsideOut Music)\1986 Feedback '86\Steve Hackett - Feedback '86 2018.wav

Peak level 94.4 %
Extraction speed 6.6 X
Range quality 100.0 %
Test CRC A80D4A18
Copy CRC A80D4A18
Copy OK

No errors occurred


AccurateRip summary

Track 1 not present in database
Track 2 not present in database
Track 3 not present in database
Track 4 not present in database
Track 5 not present in database
Track 6 not present in database
Track 7 not present in database
Track 8 not present in database
Track 9 not present in database

None of the tracks are present in the AccurateRip database

End of status report

–– CUETools DB Plugin V2.1.6

[CTDB TOCID: uBthBsgl.VhEx3Ykl3E5G6_GQOc-] found
Submit result: uBthBsgl.VhEx3Ykl3E5G6_GQOc- has been confirmed
Track | CTDB Status
1 | (8/8) Accurately ripped
2 | (8/8) Accurately ripped
3 | (8/8) Accurately ripped
4 | (8/8) Accurately ripped
5 | (8/8) Accurately ripped
6 | (8/8) Accurately ripped
7 | (8/8) Accurately ripped
8 | (8/8) Accurately ripped
9 | (8/8) Accurately ripped


==== Log checksum A3FE89F0C64FAAD9A848090987C6D727DB519504168D49A60F0EFA2B2CC5CA35 ====


[CUETools log; Date: 02.11.2018 6:01:07; Version: 2.1.4]
[CTDB TOCID: uBthBsgl.VhEx3Ykl3E5G6_GQOc-] found.
Track | CTDB Status
1 | (10/10) Accurately ripped
2 | (10/10) Accurately ripped
3 | (10/10) Accurately ripped
4 | (10/10) Accurately ripped
5 | (10/10) Accurately ripped
6 | (10/10) Accurately ripped
7 | (10/10) Accurately ripped
8 | (10/10) Accurately ripped
9 | (10/10) Accurately ripped
[AccurateRip ID: 000e1e54-0067e881-680a0409] disk not present in database.

Track Peak [ CRC32 ] [W/O NULL] [ LOG ]
– 94,4 [A80D4A18] [9111EAA4] CRC32
01 94,4 [3476DCE0] [1F5C3576]
02 94,4 [E72BE006] [4FAC0CFB]
03 94,4 [C75405E9] [DCE7D65A]
04 94,4 [C6CF1923] [20B2EF7F]
05 94,4 [430785B0] [7609F061]
06 94,4 [1494E452] [50916F5F]
07 59,2 [7095DFA4] [4DDBCEEC]
08 94,4 [57C27C34] [8054DDDE]
09 94,4 [734375E8] [69D1E519]


Tracklist CD3 - 1993 Guitar Noir:

01 Sierra Quemada
02 Take These Pearls
03 There Are Many Sides To The Night
04 In The Heart Of The City
05 Dark As The Grave
06 Lost In Your Eyes
07 Little America
08 Like An Arrow
09 Theatre Of Sleep
10 Walking Away From Rainbows
11 Paint Your Picture
12 Vampyre With A Healthy Appetite
13 Tristesse

Bonus Tracks:
14 Sierra Quemada (Demo)
15 Take These Pearls (Rough Mix)
16 In The Heart Of The City (Original Version)
17 Vampyre With A Healthy Appetite (Demo)

Exact Audio Copy V1.3 from 2. September 2016

EAC extraction logfile from 28. October 2018, 14:15

Steve Hackett / Guitar Noir

Used drive : PLEXTOR BD-R PX-B950SA Adapter: 1 ID: 1

Read mode : Secure
Utilize accurate stream : Yes
Defeat audio cache : Yes
Make use of C2 pointers : No

Read offset correction : 6
Overread into Lead-In and Lead-Out : No
Fill up missing offset samples with silence : Yes
Delete leading and trailing silent blocks : No
Null samples used in CRC calculations : Yes
Used interface : Native Win32 interface for Win NT & 2000

Used output format : Internal WAV Routines
Sample format : 44.100 Hz; 16 Bit; Stereo


TOC of the extracted CD

Track | Start | Length | Start sector | End sector
––––––––––––––––––––––––––––-
1 | 0:00.00 | 5:18.02 | 0 | 23851
2 | 5:18.02 | 4:14.49 | 23852 | 42950
3 | 9:32.51 | 7:22.73 | 42951 | 76173
4 | 16:55.49 | 4:34.48 | 76174 | 96771
5 | 21:30.22 | 4:38.38 | 96772 | 117659
6 | 26:08.60 | 4:55.48 | 117660 | 139832
7 | 31:04.33 | 4:55.73 | 139833 | 162030
8 | 36:00.31 | 2:50.70 | 162031 | 174850
9 | 38:51.26 | 3:04.09 | 174851 | 188659
10 | 41:55.35 | 3:10.07 | 188660 | 202916
11 | 45:05.42 | 2:57.69 | 202917 | 216260
12 | 48:03.36 | 5:29.39 | 216261 | 240974
13 | 53:33.00 | 4:01.45 | 240975 | 259094
14 | 57:34.45 | 4:30.56 | 259095 | 279400
15 | 62:05.26 | 4:11.11 | 279401 | 298236
16 | 66:16.37 | 4:19.12 | 298237 | 317673
17 | 70:35.49 | 4:41.39 | 317674 | 338787


Range status and errors

Selected range

Filename C:\Users\Alex\Desktop\ALLexxess\Steve Hackett\2018 Broken Skies Outspread Wings (8-Disc Box Set InsideOut Music)\1993 Guitar Noir\Steve Hackett - Guitar Noir.wav

Peak level 94.4 %
Extraction speed 8.3 X
Range quality 99.9 %
Test CRC 0DFB4745
Copy CRC 0DFB4745
Copy OK

No errors occurred


AccurateRip summary

Track 1 not present in database
Track 2 not present in database
Track 3 not present in database
Track 4 not present in database
Track 5 not present in database
Track 6 not present in database
Track 7 not present in database
Track 8 not present in database
Track 9 not present in database
Track 10 not present in database
Track 11 not present in database
Track 12 not present in database
Track 13 not present in database
Track 14 not present in database
Track 15 not present in database
Track 16 not present in database
Track 17 not present in database

None of the tracks are present in the AccurateRip database

End of status report

–– CUETools DB Plugin V2.1.6

[CTDB TOCID: pLM3qWG0Pr9lwdoQP1DqQaWFJyE-] found
Submit result: pLM3qWG0Pr9lwdoQP1DqQaWFJyE- has been confirmed
Track | CTDB Status
1 | (8/8) Accurately ripped
2 | (8/8) Accurately ripped
3 | (8/8) Accurately ripped
4 | (8/8) Accurately ripped
5 | (8/8) Accurately ripped
6 | (8/8) Accurately ripped
7 | (8/8) Accurately ripped
8 | (8/8) Accurately ripped
9 | (8/8) Accurately ripped
10 | (8/8) Accurately ripped
11 | (8/8) Accurately ripped
12 | (8/8) Accurately ripped
13 | (8/8) Accurately ripped
14 | (8/8) Accurately ripped
15 | (8/8) Accurately ripped
16 | (8/8) Accurately ripped
17 | (8/8) Accurately ripped


==== Log checksum B58D2ADEA949DE634D6E8DC771A748B987D40EAA77D87A324B7262AD9A244501 ====


[CUETools log; Date: 02.11.2018 6:01:53; Version: 2.1.4]
[CTDB TOCID: pLM3qWG0Pr9lwdoQP1DqQaWFJyE-] found.
Track | CTDB Status
1 | (10/10) Accurately ripped
2 | (10/10) Accurately ripped
3 | (10/10) Accurately ripped
4 | (10/10) Accurately ripped
5 | (10/10) Accurately ripped
6 | (10/10) Accurately ripped
7 | (10/10) Accurately ripped
8 | (10/10) Accurately ripped
9 | (10/10) Accurately ripped
10 | (10/10) Accurately ripped
11 | (10/10) Accurately ripped
12 | (10/10) Accurately ripped
13 | (10/10) Accurately ripped
14 | (10/10) Accurately ripped
15 | (10/10) Accurately ripped
16 | (10/10) Accurately ripped
17 | (10/10) Accurately ripped
[AccurateRip ID: 003076c4-025a096d-f711a511] disk not present in database.

Track Peak [ CRC32 ] [W/O NULL] [ LOG ]
– 94,4 [0DFB4745] [32EEA9CD] CRC32
01 94,4 [D7F4E55A] [FAB92FC6]
02 94,4 [C7698FB8] [D1AD2404]
03 94,4 [A0BDB412] [5EE0200C]
04 94,4 [D18FC65B] [F5DCC2F8]
05 94,4 [4BB00C22] [67004AFC]
06 94,4 [D0E3B680] [B1C50AEC]
07 94,4 [7AF5CAF9] [2E60A0E0]
08 94,4 [1A129F93] [28A0CF46]
09 94,4 [907C0E72] [6967FF2A]
10 83,0 [C0F6C90B] [ACD4CA40]
11 94,4 [2DCFF6FD] [AC3D4264]
12 94,4 [E0CED64E] [FD3EF97A]
13 83,0 [BE3301B2] [9C908523]
14 94,4 [4B461162] [8AD1BCB5]
15 94,4 [98727FF8] [DC28F647]
16 94,4 [DB08AE8A] [AF3E65B3]
17 94,4 [DDA151E3] [5F8FAE92]


Tracklist CD4 - 1999 Darktown:

01 Omega Metallicus
02 Darktown
03 Man Overboard
04 The Golden Age Of Steam
05 Days Of Long Ago
06 Dreaming With Open Eyes
07 Twice Around The Sun
08 Rise Again
09 Jane Austen's Door
10 Darktown Riot
11 In Memoriam
12 Flame
13 Coming Home To The Blues
14 Fast Flower

Exact Audio Copy V1.3 from 2. September 2016

EAC extraction logfile from 28. October 2018, 13:34

Steve Hackett / Darktown

Used drive : PLEXTOR BD-R PX-B950SA Adapter: 1 ID: 1

Read mode : Secure
Utilize accurate stream : Yes
Defeat audio cache : Yes
Make use of C2 pointers : No

Read offset correction : 6
Overread into Lead-In and Lead-Out : No
Fill up missing offset samples with silence : Yes
Delete leading and trailing silent blocks : No
Null samples used in CRC calculations : Yes
Used interface : Native Win32 interface for Win NT & 2000

Used output format : Internal WAV Routines
Sample format : 44.100 Hz; 16 Bit; Stereo


TOC of the extracted CD

Track | Start | Length | Start sector | End sector
––––––––––––––––––––––––––––-
1 | 0:00.00 | 3:48.52 | 0 | 17151
2 | 3:48.52 | 4:59.50 | 17152 | 39626
3 | 8:48.27 | 4:17.35 | 39627 | 58936
4 | 13:05.62 | 4:09.17 | 58937 | 77628
5 | 17:15.04 | 3:23.38 | 77629 | 92891
6 | 20:38.42 | 6:54.45 | 92892 | 123986
7 | 27:33.12 | 7:15.21 | 123987 | 156632
8 | 34:48.33 | 4:26.16 | 156633 | 176598
9 | 39:14.49 | 6:13.03 | 176599 | 204576
10 | 45:27.52 | 3:10.56 | 204577 | 218882
11 | 48:38.33 | 7:59.33 | 218883 | 254840
12 | 56:37.66 | 4:21.16 | 254841 | 274431
13 | 60:59.07 | 6:13.42 | 274432 | 302448
14 | 67:12.49 | 4:33.12 | 302449 | 322935


Range status and errors

Selected range

Filename C:\Users\Alex\Desktop\ALLexxess\Steve Hackett\2018 Broken Skies Outspread Wings (8-Disc Box Set InsideOut Music)\1999 Darktown\Steve Hackett - Darktown.wav

Peak level 94.4 %
Extraction speed 7.9 X
Range quality 100.0 %
Test CRC 8EF53BA4
Copy CRC 8EF53BA4
Copy OK

No errors occurred


AccurateRip summary

Track 1 not present in database
Track 2 not present in database
Track 3 not present in database
Track 4 not present in database
Track 5 not present in database
Track 6 not present in database
Track 7 not present in database
Track 8 not present in database
Track 9 not present in database
Track 10 not present in database
Track 11 not present in database
Track 12 not present in database
Track 13 not present in database
Track 14 not present in database

None of the tracks are present in the AccurateRip database

End of status report

–– CUETools DB Plugin V2.1.6

[CTDB TOCID: 1w9SqhPrW1de5vKpIfqpUYn5TzM-] found
Submit result: 1w9SqhPrW1de5vKpIfqpUYn5TzM- has been confirmed
Track | CTDB Status
1 | (8/8) Accurately ripped
2 | (8/8) Accurately ripped
3 | (8/8) Accurately ripped
4 | (8/8) Accurately ripped
5 | (8/8) Accurately ripped
6 | (8/8) Accurately ripped
7 | (8/8) Accurately ripped
8 | (8/8) Accurately ripped
9 | (8/8) Accurately ripped
10 | (8/8) Accurately ripped
11 | (8/8) Accurately ripped
12 | (8/8) Accurately ripped
13 | (8/8) Accurately ripped
14 | (8/8) Accurately ripped


==== Log checksum 0E93FBB7ABAD4F047EDB3A50CB1257AA0C2EF8FBC2CBC23E52778FEB5F111A48 ====


[CUETools log; Date: 02.11.2018 6:02:13; Version: 2.1.4]
[CTDB TOCID: 1w9SqhPrW1de5vKpIfqpUYn5TzM-] found.
Track | CTDB Status
1 | (10/10) Accurately ripped
2 | (10/10) Accurately ripped
3 | (10/10) Accurately ripped
4 | (10/10) Accurately ripped
5 | (10/10) Accurately ripped
6 | (10/10) Accurately ripped
7 | (10/10) Accurately ripped
8 | (10/10) Accurately ripped
9 | (10/10) Accurately ripped
10 | (10/10) Accurately ripped
11 | (10/10) Accurately ripped
12 | (10/10) Accurately ripped
13 | (10/10) Accurately ripped
14 | (10/10) Accurately ripped
[AccurateRip ID: 00236ca6-01808e88-b710d10e] disk not present in database.

Track Peak [ CRC32 ] [W/O NULL] [ LOG ]
– 94,4 [8EF53BA4] [E8BB86B7] CRC32
01 94,4 [E5F10C9F] [56B3C1B4]
02 94,4 [5C74C0C5] [B3625845]
03 94,4 [D468255F] [1CA579CD]
04 94,4 [698A4EB4] [B447324D]
05 94,4 [A5714AF0] [3613242D]
06 94,4 [984FE9F4] [6FE3C59D]
07 94,4 [93873345] [CEA7A594]
08 94,4 [DC0CC0C7] [9A7C1832]
09 94,4 [B63A6295] [6373C551]
10 94,4 [79413223] [92923686]
11 94,4 [4393C156] [2BD3BFD0]
12 93,2 [D0948261] [82E26129]
13 94,4 [5653DE11] [3DBDB90A]
14 94,4 [DFA977C0] [58852682]


Tracklist CD5 - 2003 To Watch The Storms:

01 Strutton Ground
02 Circus Of Becoming
03 The Devil Is An Englishman
04 Frozen Statues
05 Mechanical Bride
06 Wind, Sand And Stars
07 Brand New
08 This World
09 Rebecca
10 The Silk Road
11 Pollution B
12 Fire Island
13 Marijuana Assassin Of Youth
14 Come Away
15 The Moon Under Water
16 Serpentine Song
17 Reconditioned Nightmare
18 If You Only Knew

Exact Audio Copy V1.3 from 2. September 2016

EAC extraction logfile from 28. October 2018, 8:44

Steve Hackett / To Watch The Storms

Used drive : PLEXTOR BD-R PX-B950SA Adapter: 1 ID: 1

Read mode : Secure
Utilize accurate stream : Yes
Defeat audio cache : Yes
Make use of C2 pointers : No

Read offset correction : 6
Overread into Lead-In and Lead-Out : No
Fill up missing offset samples with silence : Yes
Delete leading and trailing silent blocks : No
Null samples used in CRC calculations : Yes
Used interface : Native Win32 interface for Win NT & 2000

Used output format : Internal WAV Routines
Sample format : 44.100 Hz; 16 Bit; Stereo


TOC of the extracted CD

Track | Start | Length | Start sector | End sector
––––––––––––––––––––––––––––-
1 | 0:00.00 | 3:05.36 | 0 | 13910
2 | 3:05.36 | 3:48.65 | 13911 | 31075
3 | 6:54.26 | 4:27.48 | 31076 | 51148
4 | 11:21.74 | 2:59.01 | 51149 | 64574
5 | 14:21.00 | 6:40.45 | 64575 | 94619
6 | 21:01.45 | 5:07.53 | 94620 | 117697
7 | 26:09.23 | 4:40.67 | 117698 | 138764
8 | 30:50.15 | 5:19.41 | 138765 | 162730
9 | 36:09.56 | 4:20.54 | 162731 | 182284
10 | 40:30.35 | 5:25.25 | 182285 | 206684
11 | 45:55.60 | 0:59.10 | 206685 | 211119
12 | 46:54.70 | 5:24.38 | 211120 | 235457
13 | 52:19.33 | 5:49.66 | 235458 | 261698
14 | 58:09.24 | 3:12.46 | 261699 | 276144
15 | 61:21.70 | 2:14.06 | 276145 | 286200
16 | 63:36.01 | 6:49.59 | 286201 | 316934
17 | 70:25.60 | 4:04.63 | 316935 | 335297
18 | 74:30.48 | 2:25.43 | 335298 | 346215


Range status and errors

Selected range

Filename C:\Users\Alex\Desktop\ALLexxess\Steve Hackett\2018 Broken Skies Outspread Wings (8-Disc Box Set InsideOut Music)\2003 To Watch The Storms\Steve Hackett - To Watch The Storms.wav

Peak level 97.7 %
Extraction speed 8.4 X
Range quality 100.0 %
Test CRC 3FB88B94
Copy CRC 3FB88B94
Copy OK

No errors occurred


AccurateRip summary

Track 1 not present in database
Track 2 not present in database
Track 3 not present in database
Track 4 not present in database
Track 5 not present in database
Track 6 not present in database
Track 7 not present in database
Track 8 not present in database
Track 9 not present in database
Track 10 not present in database
Track 11 not present in database
Track 12 not present in database
Track 13 not present in database
Track 14 not present in database
Track 15 not present in database
Track 16 not present in database
Track 17 not present in database
Track 18 not present in database

None of the tracks are present in the AccurateRip database

End of status report

–– CUETools DB Plugin V2.1.6

[CTDB TOCID: JOWCqRaGmvYFYjNUU7yi9AJGo.c-] found
Submit result: JOWCqRaGmvYFYjNUU7yi9AJGo.c- has been confirmed
Track | CTDB Status
1 | (7/7) Accurately ripped
2 | (7/7) Accurately ripped
3 | (7/7) Accurately ripped
4 | (7/7) Accurately ripped
5 | (7/7) Accurately ripped
6 | (7/7) Accurately ripped
7 | (7/7) Accurately ripped
8 | (7/7) Accurately ripped
9 | (7/7) Accurately ripped
10 | (7/7) Accurately ripped
11 | (7/7) Accurately ripped
12 | (7/7) Accurately ripped
13 | (7/7) Accurately ripped
14 | (7/7) Accurately ripped
15 | (7/7) Accurately ripped
16 | (7/7) Accurately ripped
17 | (7/7) Accurately ripped
18 | (7/7) Accurately ripped


==== Log checksum EA1D5B8966328AC5E92C3BB9D1E8C1A2182B5D856278FA680F1EE3179B25A4CC ====


[CUETools log; Date: 02.11.2018 6:02:45; Version: 2.1.4]
[CTDB TOCID: JOWCqRaGmvYFYjNUU7yi9AJGo.c-] found.
Track | CTDB Status
1 | (10/10) Accurately ripped
2 | (10/10) Accurately ripped
3 | (10/10) Accurately ripped
4 | (10/10) Accurately ripped
5 | (10/10) Accurately ripped
6 | (10/10) Accurately ripped
7 | (10/10) Accurately ripped
8 | (10/10) Accurately ripped
9 | (10/10) Accurately ripped
10 | (10/10) Accurately ripped
11 | (10/10) Accurately ripped
12 | (10/10) Accurately ripped
13 | (10/10) Accurately ripped
14 | (10/10) Accurately ripped
15 | (10/10) Accurately ripped
16 | (10/10) Accurately ripped
17 | (10/10) Accurately ripped
18 | (10/10) Accurately ripped
[AccurateRip ID: 0032d9d7-02a9f2b2-08120812] disk not present in database.

Track Peak [ CRC32 ] [W/O NULL] [ LOG ]
– 97,7 [3FB88B94] [1B7D8AF0] CRC32
01 71,6 [367E160B] [B43F69D3]
02 95,6 [CE0B489C] [74F292EC]
03 95,6 [FCBDA837] [1CE78DC5]
04 75,5 [C729BE55] [4C79DBED]
05 95,6 [D1CF3111] [0902E29B]
06 95,6 [970BAD4B] [7D041E51]
07 95,6 [42E96D5B] [BBDF2B7E]
08 95,6 [4AC7360C] [E5470335]
09 95,6 [B5DA88DF] [47488B66]
10 95,6 [6CF38C12] [4AC0E7FA]
11 46,9 [E102F98D] [284931E6]
12 95,6 [1D205588] [37059C74]
13 95,6 [38534E5A] [1F09F9F9]
14 95,6 [C5D51970] [27D2BCCF]
15 68,1 [CA9CDE38] [686D5B8A]
16 95,6 [9E92A8A1] [CD912752]
17 97,7 [2688F4F8] [084ADA3B]
18 76,0 [8C9FB006] [1930B6FA]


Tracklist CD6 - 2006 Wild Orchids:

01 Transylvanian Express
02 Waters Of The Wild
03 Set Your Compass
04 Down Street
05 A Girl Called Linda
06 Blue Child
07 To A Close
08 Ego And Id
09 Man In The Long Black Coat
10 Cedars Of Lebanon
11 Wolfwork
12 Why
13 She Moves In Memories
14 The Fundamentals Of Brainwashing
15 Howl
16 A Dark Night In Toytown
17 Until The Last Butterfly

Exact Audio Copy V1.3 from 2. September 2016

EAC extraction logfile from 28. October 2018, 8:12

Steve Hackett / Wild Orchids

Used drive : PLEXTOR BD-R PX-B950SA Adapter: 1 ID: 1

Read mode : Secure
Utilize accurate stream : Yes
Defeat audio cache : Yes
Make use of C2 pointers : No

Read offset correction : 6
Overread into Lead-In and Lead-Out : No
Fill up missing offset samples with silence : Yes
Delete leading and trailing silent blocks : No
Null samples used in CRC calculations : Yes
Used interface : Native Win32 interface for Win NT & 2000

Used output format : Internal WAV Routines
Sample format : 44.100 Hz; 16 Bit; Stereo


TOC of the extracted CD

Track | Start | Length | Start sector | End sector
––––––––––––––––––––––––––––-
1 | 0:00.00 | 3:44.51 | 0 | 16850
2 | 3:44.51 | 5:35.06 | 16851 | 41981
3 | 9:19.57 | 3:37.31 | 41982 | 58287
4 | 12:57.13 | 7:34.05 | 58288 | 92342
5 | 20:31.18 | 4:44.35 | 92343 | 113677
6 | 25:15.53 | 4:24.53 | 113678 | 133530
7 | 29:40.31 | 4:48.65 | 133531 | 155195
8 | 34:29.21 | 4:07.67 | 155196 | 173787
9 | 38:37.13 | 5:07.29 | 173788 | 196841
10 | 43:44.42 | 4:01.34 | 196842 | 214950
11 | 47:46.01 | 4:49.31 | 214951 | 236656
12 | 52:35.32 | 0:46.70 | 236657 | 240176
13 | 53:22.27 | 4:59.54 | 240177 | 262655
14 | 58:22.06 | 3:00.55 | 262656 | 276210
15 | 61:22.61 | 4:31.28 | 276211 | 296563
16 | 65:54.14 | 3:42.07 | 296564 | 313220
17 | 69:36.21 | 2:28.54 | 313221 | 324374


Range status and errors

Selected range

Filename C:\Users\Alex\Desktop\ALLexxess\Steve Hackett\2018 Broken Skies Outspread Wings (8-Disc Box Set InsideOut Music)\2006 Wild Orchids\Steve Hackett - Wild Orchids.wav

Peak level 97.7 %
Extraction speed 8.0 X
Range quality 100.0 %
Test CRC 10DCB573
Copy CRC 10DCB573
Copy OK

No errors occurred


AccurateRip summary

Track 1 not present in database
Track 2 not present in database
Track 3 not present in database
Track 4 not present in database
Track 5 not present in database
Track 6 not present in database
Track 7 not present in database
Track 8 not present in database
Track 9 not present in database
Track 10 not present in database
Track 11 not present in database
Track 12 not present in database
Track 13 not present in database
Track 14 not present in database
Track 15 not present in database
Track 16 not present in database
Track 17 not present in database

None of the tracks are present in the AccurateRip database

End of status report

–– CUETools DB Plugin V2.1.6

[CTDB TOCID: jezgTJIuSxZavXR5lvHS91AxZYI-] found
Submit result: jezgTJIuSxZavXR5lvHS91AxZYI- has been confirmed
Track | CTDB Status
1 | (7/7) Accurately ripped
2 | (7/7) Accurately ripped
3 | (7/7) Accurately ripped
4 | (7/7) Accurately ripped
5 | (7/7) Accurately ripped
6 | (7/7) Accurately ripped
7 | (7/7) Accurately ripped
8 | (7/7) Accurately ripped
9 | (7/7) Accurately ripped
10 | (7/7) Accurately ripped
11 | (7/7) Accurately ripped
12 | (7/7) Accurately ripped
13 | (7/7) Accurately ripped
14 | (7/7) Accurately ripped
15 | (7/7) Accurately ripped
16 | (7/7) Accurately ripped
17 | (7/7) Accurately ripped


==== Log checksum 6D29723ABEB2B8FD74161972D55F17E0BA23412FBA922346D28F9F785EF62729 ====


[CUETools log; Date: 02.11.2018 6:03:13; Version: 2.1.4]
[CTDB TOCID: jezgTJIuSxZavXR5lvHS91AxZYI-] found.
Track | CTDB Status
1 | (10/10) Accurately ripped
2 | (10/10) Accurately ripped
3 | (10/10) Accurately ripped
4 | (10/10) Accurately ripped
5 | (10/10) Accurately ripped
6 | (10/10) Accurately ripped
7 | (10/10) Accurately ripped
8 | (10/10) Accurately ripped
9 | (10/10) Accurately ripped
10 | (10/10) Accurately ripped
11 | (10/10) Accurately ripped
12 | (10/10) Accurately ripped
13 | (10/10) Accurately ripped
14 | (10/10) Accurately ripped
15 | (10/10) Accurately ripped
16 | (10/10) Accurately ripped
17 | (10/10) Accurately ripped
[AccurateRip ID: 0030062f-0257af2b-fe10e511] disk not present in database.

Track Peak [ CRC32 ] [W/O NULL] [ LOG ]
– 97,7 [10DCB573] [92414AF2] CRC32
01 93,3 [4694EA06] [657E2F83]
02 93,3 [E89F3E8E] [A6C80BB9]
03 77,3 [F716F51A] [49A8306D]
04 93,3 [58DB24DE] [FCD0C9B4]
05 66,1 [A2B1A68A] [7BA902EB]
06 97,7 [7D1E5FF9] [6C43CC90]
07 63,7 [928F527B] [7A833495]
08 86,9 [7181DB7B] [3BC7C66C]
09 92,6 [F6F09345] [2DF10637]
10 93,3 [2E66FBBF] [633CDBC7]
11 93,3 [31DE4DBE] [2F6EFC39]
12 23,8 [F5FF483C] [37EA9C99]
13 95,6 [9F91FBDC] [BD6B164A]
14 93,3 [01A9A5CF] [949996D9]
15 93,3 [EE82AF19] [ED1B6709]
16 93,3 [E878C3C7] [8477BA21]
17 50,6 [887263BC] [DA77B5D6]


Tracklist DVD1 - Selected 5.1 And Live Rarities:

5.1 Audio
01 Wolfwork
02 Set Your Compass
03 Cedars Of Lebanon
04 Brand New
05 Serpentine Song
06 Circus Of Becoming
07 When The Heart Rules The Mind 2018
–––––-
08 Mechanical Bride (Paris 2009)
09 Rainbows (Cologne 2011)
10 Rise Again (Offenbach 2017)

Title: DVD1
Size: 2.95 Gb ( 3 089 142,00 KBytes ) - DVD-5
Enabled regions: 1, 2, 3, 4, 5, 6, 7, 8

VTS_01 :
Play Length: 00:00:00+00:00:00
Video: NTSC 16:9 (720x480) VBR, Auto Letterboxed

VTS_02 :
Play Length: 00:33:18
Video: NTSC 16:9 (720x480) VBR, Auto Letterboxed
Audio:
English (DTS, 6 ch)
English (Dolby AC3, 6 ch)

VTS_03 :
Play Length: 00:09:57+{00:00:00}+{00:00:00}+00:04:04+{00:00:00}+00:00:00+00:05:40+{00:00:00}+{00:00:00}
Video: NTSC 16:9 (720x480) VBR, Auto Letterboxed
Audio:
English (LinearPCM, 2 ch)


Tracklist DVD2 - 2002 Somewhere In South America
Live In Buenos Aires:


01 The Floating Seventh
02 Mechanical Bride
03 Medley
04 Serpentine Song
05 Watcher Of The Skies
06 Hairless Heart
07 Firth Of Fifth
08 Riding The Colossus
09 Pollution
10 The Steppes
11 Gnossienne #1
12 Walking Away From Rainbows
13 Sierra Quemada
14 The Wall Of Knives
15 Vampyre With A Healthy Appetite
16 A Tower Struck Down
17 Lucridus
18 Darktown
19 Camino Royale
20 Intros
21 In Memoriam
22 Horizons
23 Los Endos

Title: DVD2
Size: 6.19 Gb ( 6 494 484,00 KBytes ) - DVD-9
Enabled regions: 1, 2, 3, 4, 5, 6, 7, 8

VTS_01 :
Play Length: 00:15:20
Video: NTSC 4:3 (720x480) VBR
Audio:
Not specified (Dolby AC3, 2 ch)

VTS_02 :
Play Length: 01:42:54
Video: NTSC 16:9 (720x480) VBR, Auto Pan&Scan
Audio:
Not specified (Dolby AC3, 2 ch)
Not specified (Dolby AC3, 6 ch)


Steve Hackett - Broken Skies Outspread Wings 1984-2006 (2018) [6CD + 2DVD Box Set]

Steve Hackett - Broken Skies Outspread Wings 1984-2006 (2018) [6CD + 2DVD Box Set]

Steve Hackett - Broken Skies Outspread Wings 1984-2006 (2018) [6CD + 2DVD Box Set]

Steve Hackett - Broken Skies Outspread Wings 1984-2006 (2018) [6CD + 2DVD Box Set]

Steve Hackett - Broken Skies Outspread Wings 1984-2006 (2018) [6CD + 2DVD Box Set]

Steve Hackett - Broken Skies Outspread Wings 1984-2006 (2018) [6CD + 2DVD Box Set]

All thanks go to ALLexxess

Steve Hackett in my Blog

Download Steve Hackett - Broken Skies Outspread Wings 1984-2006 (2018):