Subcategories
Please register here if you want to download anything!

If domain in your address bar is different from the list below
PLEASE LEAVE THAT SITE IMMEDIATELY
❗IT'S A DANGEROUS FAKE❗



Spicy Magazines for Men! ;-)

Corrado Rovaris, I Virtuosi Italiani - Spontini: La Fuga In Maschera (2014) [Blu-Ray]

Posted By: Vilboa
Corrado Rovaris, I Virtuosi Italiani - Spontini: La Fuga In Maschera (2014) [Blu-Ray]

Corrado Rovaris, I Virtuosi Italiani - Spontini: La Fuga In Maschera (2014) [Blu-Ray]
BluRay | BDMV | MPEG-4 AVC Video / 23921 kbps / 1080i / 29,970 fps | 149 min | 33,1 Gb
Audio1: Italiano / LPCM Audio / 2.0 / 24-bit | Audio2: DTS Audio / 5.1 / 48 kHz / 1509 kbps / 24-bit
––––––
BluRay-rip | AVC | MKV 1920x1080 / 6215 kbps / 29,97 fps | 149 min | 8,10 Gb
Audio: Italiano / DTS / 6ch / 48.0 KHz / 24 bits
Classical | EuroArts | Sub: Italian, French, German, English

Once known for his stately grand operas Gaspare Spontini posthumously surprised posterity with a light-hearted “commedia per musica” that was found at an antiquarian book dealer in England in 2006 and performed for the first time since 1800 at the Festival Pergolesi e Spontini in Jesi, Italy. With its motoric ensembles, intensifying rhythmic repetitions, and imaginative play with word fragments, La fuga in maschera anticipates Rossini at his best. Known for their historically informed performances, I Virtuosi Italiani is considered as “one of the most dynamic and able-bodied ensembles in the international musical world” (Milano Finanza).

Cast:
Elena - Ruth Rosique
Olimpia - Caterina Di Tonno
Corallina - Alessandra Marianelli
Nardullo - Clementine Carlotti
Marzucco - Filippo Morace
Nastagio - Alessandro Spina
Doralbo - Dionigi D’Ostuni
I Virtuosi Italiani
Conductor - Corrado Rovaris


Disc Title: LA FUGA IN MASCHERA
Disc Size: 35 537 567 335 bytes
Protection: AACS
BD-Java: Yes
Playlist: 01002.MPLS
Size: 32 886 355 968 bytes
Length: 2:29:29.160
Total Bitrate: 29,33 Mbps
Video: MPEG-4 AVC Video / 23921 kbps / 1080i / 29,970 fps / 16:9 / High Profile 4.1
Audio: Italian / LPCM Audio / 2.0 / 48 kHz / 2304 kbps / 24-bit
Audio: Italian / DTS Audio / 5.1 / 48 kHz / 1509 kbps / 24-bit
Subtitle: Italian / 19,636 kbps
Subtitle: French / 21,270 kbps
Subtitle: German / 22,177 kbps
Subtitle: English / 20,025 kbps


General
Unique ID : 192761232646128929596261556329234897141 (0x91047687A0BD9A8CBCAACAED043D18F5)
Complete name : C:\LA FUGA IN MASCHERA.mkv
Format : Matroska
Format version : Version 2
File size : 8.11 GiB
Duration : 2h 29mn
Overall bit rate : 7 764 Kbps
Movie name : LA FUGA IN MASCHERA
Encoded date : UTC 2019-08-14 10:34:06
Writing application : DVDFab 9.1.6.8
Writing library : libebml v0.7.8 + libmatroska v0.8.1

Video
ID : 1
Format : AVC
Format/Info : Advanced Video Codec
Format profile : High@L4.1
Format settings, CABAC : Yes
Format settings, ReFrames : 2 frames
Codec ID : V_MPEG4/ISO/AVC
Duration : 2h 29mn
Bit rate : 6 215 Kbps
Width : 1 920 pixels
Height : 1 080 pixels
Display aspect ratio : 16:9
Frame rate mode : Constant
Frame rate : 29.970 fps
Color space : YUV
Chroma subsampling : 4:2:0
Bit depth : 8 bits
Scan type : Progressive
Bits/(Pixel*Frame) : 0.100
Stream size : 6.37 GiB (79%)
Writing library : x264 core 142
Encoding settings : cabac=1 / ref=1 / deblock=1:-1:-1 / analyse=0x3:0 / me=hex / subme=5 / psy=0 / mixed_ref=0 / me_range=16 / chroma_me=1 / trellis=0 / 8x8dct=1 / cqm=0 / deadzone=21,11 / fast_pskip=1 / chroma_qp_offset=0 / threads=8 / lookahead_threads=2 / sliced_threads=0 / nr=0 / decimate=1 / interlaced=0 / bluray_compat=0 / constrained_intra=0 / bframes=2 / b_pyramid=0 / b_adapt=1 / b_bias=0 / direct=1 / weightb=1 / open_gop=0 / weightp=0 / keyint=24 / keyint_min=13 / scenecut=40 / intra_refresh=0 / rc=abr / mbtree=0 / bitrate=6215 / ratetol=1.0 / qcomp=0.60 / qpmin=0 / qpmax=69 / qpstep=4 / ip_ratio=1.40 / pb_ratio=1.30 / aq=1:1.00
Default : Yes
Forced : No
Color primaries : BT.709
Transfer characteristics : BT.709
Matrix coefficients : BT.709
Color range : Limited

Audio
ID : 2
Format : DTS
Format/Info : Digital Theater Systems
Mode : 16
Format settings, Endianness : Big
Codec ID : A_DTS
Duration : 2h 29mn
Bit rate mode : Constant
Bit rate : 1 509 Kbps
Channel(s) : 6 channels
Channel positions : Front: L C R, Side: L R, LFE
Sampling rate : 48.0 KHz
Bit depth : 24 bits
Compression mode : Lossy
Stream size : 1.58 GiB (19%)
Language : Italian
Default : Yes
Forced : No

Text #1
ID : 3
Format : VobSub
Codec ID : S_VOBSUB
Codec ID/Info : The same subtitle format used on DVDs
Language : Italian
Default : Yes
Forced : No

Text #2
ID : 4
Format : VobSub
Codec ID : S_VOBSUB
Codec ID/Info : The same subtitle format used on DVDs
Language : French
Default : No
Forced : No

Text #3
ID : 5
Format : VobSub
Codec ID : S_VOBSUB
Codec ID/Info : The same subtitle format used on DVDs
Language : German
Default : No
Forced : No

Text #4
ID : 6
Format : VobSub
Codec ID : S_VOBSUB
Codec ID/Info : The same subtitle format used on DVDs
Language : English
Default : No
Forced : No

Menu
00:00:00.000 : en:Chapter 01
00:02:31.384 : en:Chapter 02
00:07:03.623 : en:Chapter 03
00:12:46.165 : en:Chapter 04
00:14:55.794 : en:Chapter 05
00:19:06.411 : en:Chapter 06
00:19:56.028 : en:Chapter 07
00:21:10.869 : en:Chapter 08
00:25:55.820 : en:Chapter 09
00:27:49.901 : en:Chapter 10
00:31:47.906 : en:Chapter 11
00:33:34.212 : en:Chapter 12
00:36:25.650 : en:Chapter 13
00:40:19.250 : en:Chapter 14
00:43:53.864 : en:Chapter 15
00:47:23.740 : en:Chapter 16
00:54:30.133 : en:Chapter 17
00:58:13.022 : en:Chapter 18
01:03:02.745 : en:Chapter 19
01:04:17.086 : en:Chapter 20
01:04:54.490 : en:Chapter 21
01:10:25.387 : en:Chapter 22
01:11:08.230 : en:Chapter 23
01:26:17.972 : en:Chapter 24
01:27:33.548 : en:Chapter 25
01:30:28.723 : en:Chapter 26
01:33:41.215 : en:Chapter 27
01:40:15.442 : en:Chapter 28
01:41:31.618 : en:Chapter 29
01:45:31.458 : en:Chapter 30
01:48:01.842 : en:Chapter 31
01:52:01.781 : en:Chapter 32
01:52:52.031 : en:Chapter 33
01:58:28.067 : en:Chapter 34
02:00:50.743 : en:Chapter 35
02:08:38.510 : en:Chapter 36
02:10:31.223 : en:Chapter 37
02:13:11.550 : en:Chapter 38
02:13:35.640 : en:Chapter 39
02:23:50.521 : en:Chapter 40

All screenshots taken from BDRip

Corrado Rovaris, I Virtuosi Italiani - Spontini: La Fuga In Maschera (2014) [Blu-Ray]