Subcategories

Spice Girls - Albums Collection 1996-2007 (4CD)

Posted By: Designol
Spice Girls - Albums Collection 1996-2007 (4CD)

Spice Girls - Albums Collection 1996-2007 (4CD)
EAC | FLAC | Tracks (Cue&Log) ~ 1.33 Gb | Mp3 (CBR320) ~ 469 Mb | Scans included
Genre: Dance-Pop, R&B, Female Group | Time: 03:03:20

The Spice Girls are an English pop girl group formed in 1994. The group comprised Melanie Brown, also known as Mel B ("Scary Spice"), Melanie Chisholm, also known as Mel C ("Sporty Spice"), Emma Bunton ("Baby Spice"), Geri Halliwell ("Ginger Spice"), and Victoria Beckham ("Posh Spice"). They were signed to Virgin Records and released their debut single "Wannabe" in 1996, which hit number one in 37 countries and established their global success. Their debut album Spice sold more than 31 million copies worldwide, becoming the best-selling album by a female group in history.

Spice Girls were the first major British pop music phenomenon of the mid-'90s to not have a debt to independent pop/rock. Instead, the all-female quintet derived from the dance-pop tradition that made Take That the most popular British group of the early '90s, but there was one crucial difference. Spice Girls used dance-pop as a musical base, but they infused the music with a fiercely independent, feminist stance that was equal parts Madonna, post-riot grrrl alternative rock feminism, and a co-opting of the good-times-all-the-time stance of England's new lad culture. Their proud, all-girl image and catchy dance-pop appealed to younger listeners, while their colorful, sexy personalities and sense of humor appealed to older music fans, making Spice Girls a cross-generational success. The group also became chart-toppers throughout Europe in 1996, before concentrating in America in early 1997.

Every member of Spice Girls was given a specific identity by the British press from the outset, and each label was as much an extension of their own personality as it was a marketing tool, since each name derived from their debut single and video, "Wannabe." Geri Estelle Halliwell was the "sexy Spice"; Melanie Janine Brown was the "scary Spice"; Victoria Adams was "the posh Spice"; Melanie Jayne Chisholm was "the sporty Spice"; Emma Lee Bunton was "the baby Spice." Each persona was exploited in the group's press articles and videos, which helped send "Wannabe" to the top of the charts upon its summer release in 1996. If all of the invented personalities made Spice Girls seem manufactured, that's because they were to a certain extent. Every member of the group was active in England's theatrical, film, and modeling circuit before the group's formation, and they all responded to an advertisement requesting five "lively girls" for a musical group in the summer of 1993. The manager who placed the ad chose all five members of Spice Girls, yet the women rejected his plans for their career and set out on their own two months after forming. For the next two years, the Girls fought to get a record contract, since most record labels insisted that the band pick one member as a clear leader, which is something the group refused.

Eventually, Spice Girls signed a contract to Virgin Records. They were without a manager, though, which made recording a debut album nearly impossible. All five members moved into a house and went on the dole as they searched for a manager. By the end of 1995, the group had signed with Annie Lennox's manager Simon Fuller, and began writing songs with Elliot Kennedy. "Wannabe," Spice Girls' first single, was released in the summer of 1996 and became the first debut single by an all-female band to enter the British charts at number one. It remained there for seven weeks, and by the end of the year, "Wannabe" had hit number one in 21 other countries. Immediately following the success of "Wannabe," Spice Girls became media icons in Britain as stories of their encounters with other celebrities became fodder for numerous tabloids, as did nude photos of Halliwell that she posed for earlier in her career. All of this added to the group's momentum, and their second single, "Say You'll Be There," entered the charts at number one in the fall, selling 200,000 copies a week. Spice, their debut album, was released at the end of the year, accompanied by their first ballad, "2 Become 1." Both the album and single went directly to number one, staying there for several weeks; both records were at number one over the Christmas week, making Spice Girls one of three artists to achieve that feat.
Having topped the charts in virtually every other country in the Western world, Spice Girls concentrated on America in early 1997, releasing "Wannabe" in January and Spice in February.

They became massive stars in the U.S. as well, also scoring the hits "Say You'll Be There" and "2 Become 1"; Spiceworld, their second LP, appeared later in the year in conjunction with their feature film of the same name. In May 1998, Geri Halliwell departed from the band, not citing major reasons for leaving the group. She did release a solo album, Schizophonic, a year later, but nothing chart-topping to match the success of her former band. Still not deterred by the absence of Ginger Spice, Spice Girls trudged on – Melanie B. married Spice Girls dancer Jimmy Gulzar and released the solo single, a duet with Missy "Misdemeanor" Elliot called "I Want You Back." By Christmas, Spice Girls scored a number one hit with Goodbye and with a career floating high, their personal lives were moving as well. Melanie B. gave birth to a daughter named Phoenix Chi in February 1999, and Adams followed a month later with a son, Brooklyn Joseph. And now only known as Victoria Beckham, Posh Spice married Manchester United soccer star David Beckham later that summer. Becoming now more noticeable for their social status than their singing, Spice Girls took a well-deserved break while Melanie C. took over the English charts with her successful solo effort Northern Star, which was released in the U.S. in fall 1999. The following year, the girls headed back into the studio with high-profile producers Rodney Jerkins, Terry Lewis, and Jimmy Jam (Janet Jackson, Mary J. Blige) to record a follow-up to their pop-friendly Spiceworld.
In the middle of recording, Melanie B. divorced Gulzar and endured a bitter custody battle throughout the remainder of 2000. Spice Girls' creative power overruled media scrutiny so that they could fully focus on the new R&B sound they were trying for and a the new collaboration united the foursome once again to release the third album Forever, which hit American shores in fall 2000.

The group began to splinter not long after the release of Forever, which made little impact outside of the UK where it only had one hit single – the chart-topping double-sided single “Holler”/”Let Love Lead the Way” – before the Spice Girls stopped promoting the album. Just three months after the album's November 2000 release, the band announced that they were separating in February of 2001.

Over the next few years, the Spice Girls may not have existed as a group, but they were never out of various taboild headlines in the UK and America. As the wife of football superstar David Beckham, Victoria got the most attention, but Mel B wasn't far behind thanks to her ill-fated romance with actor Eddie Murphy, which resulted in an out-of-wedlock child. Mel Chisholm had a steady career as a pop singer while Emma Bunton had some chart success of her own with her 2001 album A Girl Like Me and its 2004 successor, Free Me. Meanwhile, Geri Halliwell split her time between recording and TV projects.

After years of persistent rumors of a reunion – peaking heavily yet never materializing for Bob Geldolf's 2005 charity event Live 8 – the Spice Girls announced in June 2007 that they would be reuniting for an eleven-concert tour beginning that December, which would be accompanied by a new greatest hits album and documentary.

In 2010, it was announced that the Spice Girls had joined forces with Simon Fuller to develop a musical based on their songs. Viva Forever: The Musical - penned by British comedienne Jennifer Saunders - was announced at a press conference in June 2012. After much speculation in the British press, the Spice Girls reformed once more for the closing ceremony of the London 2012 Olympics.

Stephen Thomas Erlewine, Allmusic.com


Spice Girls - Albums Collection 1996-2007 (4CD)





Spice Girls - Albums Collection 1996-2007 (4CD)

Spice Girls - Spice (1996)
EAC | FLAC | Tracks (Cue&Log) ~ 304 Mb | Mp3 (CBR320) ~ 120 Mb | Scans included
Label: Virgin | # CDV2812, 7243 8 42174 2 6 | Time: 00:40:05

Spice doesn't need to be original to be entertaining, nor do the Spice Girls need to be good singers. It just has to be executed well, and the innocuous dance-pop of Spice is infectious. None of the Girls have great voices, but they do exude personality and charisma, which is what drives bouncy dance-pop like "Wannabe," with its ridiculous "zig-a-zig-ahhh" hook, into pure pop guilty pleasure. What is surprising is how the sultry soul of "Say You'll Be There" is more than just a guilty pleasure, and how ballads like "2 Become 1" are perfect adult contemporary confections. The rest of the album isn't quite as catchy as those first three singles, but it is still irresistible, immaculately crafted pop that gets by on the skills of the producer and the charisma of the five Spices. Sure, the last half of the album is forgettable, but it sounds good while it's on, which is the key to a good dance-pop record.

Review by Stephen Thomas Erlewine, Allmusic.com

Tracklist:

01. Wannabe (2:53)
02. Say You'll Be There (3:56)
03. 2 Become 1 (4:01)
04. Love Thing (3:39)
05. Last Time Lover (4:12)
06. Mama (5:05)
07. Who Do You Think You Are (4:01)
08. Something Kinda Funny (4:05)
09. Naked (4:26)
10. If U Can't Dance (3:49)


Exact Audio Copy V0.99 prebeta 5 from 4. May 2009

EAC extraction logfile from 30. July 2009, 3:03

Spice Girls / Spice

Used drive : Optiarc DVD RW AD-7200S Adapter: 0 ID: 0

Read mode : Secure
Utilize accurate stream : Yes
Defeat audio cache : Yes
Make use of C2 pointers : No

Read offset correction : 48
Overread into Lead-In and Lead-Out : No
Fill up missing offset samples with silence : Yes
Delete leading and trailing silent blocks : No
Null samples used in CRC calculations : Yes
Used interface : Native Win32 interface for Win NT & 2000
Gap handling : Appended to previous track

Used output format : User Defined Encoder
Selected bitrate : 320 kBit/s
Quality : High
Add ID3 tag : No
Command line compressor : C:\Program Files\Exact Audio Copy\Flac\flac.exe
Additional command line options : -6 -V -T "ARTIST=%a" -T "TITLE=%t" -T "ALBUM=%g" -T "DATE=%y" -T "TRACKNUMBER=%n" -T "GENRE=%m" -T "COMMENT=%e" %s -o %d


TOC of the extracted CD

Track | Start | Length | Start sector | End sector
––––––––––––––––––––––––––––-
1 | 0:00.00 | 2:53.02 | 0 | 12976
2 | 2:53.02 | 3:55.73 | 12977 | 30674
3 | 6:49.00 | 4:01.02 | 30675 | 48751
4 | 10:50.02 | 3:38.43 | 48752 | 65144
5 | 14:28.45 | 4:11.40 | 65145 | 84009
6 | 18:40.10 | 5:04.72 | 84010 | 106881
7 | 23:45.07 | 4:00.53 | 106882 | 124934
8 | 27:45.60 | 4:05.02 | 124935 | 143311
9 | 31:50.62 | 4:25.48 | 143312 | 163234
10 | 36:16.35 | 3:48.40 | 163235 | 180374


Track 1

Filename C:\Recovered Files\Audio\Spice Girls\Updates\FLAC\Spice Girls - Spice (1996)\01 - Wannabe.wav

Pre-gap length 0:00:02.00

Peak level 98.0 %
Copy CRC 071A58DB
Accurately ripped (confidence 3) [DBA26F3D]
Copy OK

Track 2

Filename C:\Recovered Files\Audio\Spice Girls\Updates\FLAC\Spice Girls - Spice (1996)\02 - Say You'll Be There.wav

Pre-gap length 0:00:00.02

Peak level 97.9 %
Copy CRC ED66FF77
Accurately ripped (confidence 3) [04A15DFA]
Copy OK

Track 3

Filename C:\Recovered Files\Audio\Spice Girls\Updates\FLAC\Spice Girls - Spice (1996)\03 - 2 Become 1.wav

Pre-gap length 0:00:00.03

Peak level 98.0 %
Copy CRC 463A4017
Accurately ripped (confidence 2) [F92960CB]
Copy OK

Track 4

Filename C:\Recovered Files\Audio\Spice Girls\Updates\FLAC\Spice Girls - Spice (1996)\04 - Love Thing.wav

Pre-gap length 0:00:00.02

Peak level 98.0 %
Copy CRC 49325ACE
Accurately ripped (confidence 2) [C9321FC4]
Copy OK

Track 5

Filename C:\Recovered Files\Audio\Spice Girls\Updates\FLAC\Spice Girls - Spice (1996)\05 - Last Time Lover.wav

Pre-gap length 0:00:00.03

Peak level 98.0 %
Copy CRC 1D857BF3
Accurately ripped (confidence 2) [0DBBEA08]
Copy OK

Track 6

Filename C:\Recovered Files\Audio\Spice Girls\Updates\FLAC\Spice Girls - Spice (1996)\06 - Mama.wav

Pre-gap length 0:00:00.03

Peak level 98.0 %
Copy CRC DCD9CEEF
Accurately ripped (confidence 2) [BCDF978E]
Copy OK

Track 7

Filename C:\Recovered Files\Audio\Spice Girls\Updates\FLAC\Spice Girls - Spice (1996)\07 - Who Do You Think You Are.wav

Pre-gap length 0:00:00.02

Peak level 98.0 %
Copy CRC B5F82141
Accurately ripped (confidence 2) [B30D6D34]
Copy OK

Track 8

Filename C:\Recovered Files\Audio\Spice Girls\Updates\FLAC\Spice Girls - Spice (1996)\08 - Something Kinda Funny.wav

Pre-gap length 0:00:00.03

Peak level 98.0 %
Copy CRC 83AB01DC
Accurately ripped (confidence 2) [29A0615D]
Copy OK

Track 9

Filename C:\Recovered Files\Audio\Spice Girls\Updates\FLAC\Spice Girls - Spice (1996)\09 - Naked.wav

Pre-gap length 0:00:00.02

Peak level 98.0 %
Copy CRC 523AEE88
Accurately ripped (confidence 2) [A20F01BA]
Copy OK

Track 10

Filename C:\Recovered Files\Audio\Spice Girls\Updates\FLAC\Spice Girls - Spice (1996)\10 - If U Can't Dance.wav

Pre-gap length 0:00:00.03

Peak level 98.0 %
Copy CRC 384736C9
Accurately ripped (confidence 2) [0DF82703]
Copy OK


All tracks accurately ripped

No errors occurred

End of status report

[CUETools log; Date: 08.11.2019 17:22:09; Version: 2.1.4]
[CTDB TOCID: DfYi1._B33vbv9LOQCoezaWRxGE-] found.
Track | CTDB Status
1 | (3060/3095) Accurately ripped
2 | (3067/3095) Accurately ripped
3 | (468/3095) Accurately ripped
4 | (466/3095) Accurately ripped
5 | (3066/3095) Accurately ripped
6 | (3071/3095) Accurately ripped
7 | (3069/3095) Accurately ripped
8 | (465/3095) Accurately ripped
9 | (462/3095) Accurately ripped
10 | (3056/3095) Accurately ripped
[AccurateRip ID: 000ea72a-0076f7e6-7809650a] found.
Track [ CRC | V2 ] Status
01 [dba26f3d|a3e707c8] (005+000/1425) Accurately ripped
02 [04a15dfa|a940f58b] (005+000/1421) Accurately ripped
03 [f92960cb|f214eaac] (005+000/1418) Accurately ripped
04 [c9321fc4|143bf79e] (005+000/1395) Accurately ripped
05 [0dbbea08|ab4ae355] (005+000/1389) Accurately ripped
06 [bcdf978e|2806dd8c] (005+000/1392) Accurately ripped
07 [b30d6d34|2017d386] (005+000/1395) Accurately ripped
08 [29a0615d|7bcfa58b] (005+000/1384) Accurately ripped
09 [a20f01ba|6d1a9f9f] (005+000/1379) Accurately ripped
10 [0df82703|dad0f281] (005+000/1373) Accurately ripped
Offsetted by -664:
01 [0d30135d] (003/1425) Accurately ripped
02 [f40ce115] (003/1421) Accurately ripped
03 [765b3a43] (003/1418) Accurately ripped
04 [f7b5aa75] (002/1395) Accurately ripped
05 [dcefd052] (002/1389) Accurately ripped
06 [ed898c20] (002/1392) Accurately ripped
07 [62791b74] (002/1395) Accurately ripped
08 [18ac777d] (002/1384) Accurately ripped
09 [5fa7b1d8] (002/1379) Accurately ripped
10 [ba0046a1] (002/1373) Accurately ripped
Offsetted by 7:
01 [f23ea0c9] (005/1425) Accurately ripped
02 [bca98af4] (005/1421) Accurately ripped
03 [1c02594a] (005/1418) Accurately ripped
04 [4423210e] (005/1395) Accurately ripped
05 [aadddc95] (005/1389) Accurately ripped
06 [0c8e8ce8] (005/1392) Accurately ripped
07 [2dbbb68c] (005/1395) Accurately ripped
08 [471b3da9] (005/1384) Accurately ripped
09 [c77ece26] (005/1379) Accurately ripped
10 [3bd3f9cd] (005/1373) Accurately ripped
Offsetted by 405:
01 [6581a1e1] (005/1425) Accurately ripped
02 [bd9bbf3b] (005/1421) Accurately ripped
03 [7c99774a] (005/1418) Accurately ripped
04 [cd3d1731] (005/1395) Accurately ripped
05 [066699dd] (005/1389) Accurately ripped
06 [a6984f9a] (005/1392) Accurately ripped
07 [4871253c] (005/1395) Accurately ripped
08 [f7d27441] (005/1384) Accurately ripped
09 [51cfe4de] (005/1379) Accurately ripped
10 [be3917bb] (005/1373) Accurately ripped
Offsetted by 676:
01 [ac45200d] (181/1425) Accurately ripped
02 [a9b514ca] (181/1421) Accurately ripped
03 [209f27ba] (181/1418) Accurately ripped
04 [e7d6bced] (174/1395) Accurately ripped
05 [41db3fd6] (175/1389) Accurately ripped
06 [dbf6b7bc] (176/1392) Accurately ripped
07 [8ccc85d4] (175/1395) Accurately ripped
08 [b642572d] (172/1384) Accurately ripped
09 [df111bec] (171/1379) Accurately ripped
10 [ab10a40b] (170/1373) Accurately ripped
Offsetted by -972:
01 [2a578f4d] (006/1425) Accurately ripped
02 [a40e31ff] (006/1421) Accurately ripped
03 [18addaf5] (000/1418) No match
04 [bd2f4c81] (000/1395) No match (V2 was not tested)
05 [d2cd98c4] (006/1389) Accurately ripped
06 [45dfd342] (006/1392) Accurately ripped
07 [4c848054] (006/1395) Accurately ripped
08 [078e9a6d] (000/1384) No match
09 [ecc96c84] (000/1379) No match (V2 was not tested)
10 [93564e95] (005/1373) Accurately ripped
Offsetted by -517:
01 [e80023d9] (002/1425) Accurately ripped
02 [4159fa88] (002/1421) Accurately ripped
03 [5b3fc3eb] (000/1418) No match
04 [10e82aa1] (000/1395) No match (V2 was not tested)
05 [757d6e0c] (002/1389) Accurately ripped
06 [e7f18741] (002/1392) Accurately ripped
07 [72c51fac] (002/1395) Accurately ripped
08 [83c089b9] (000/1384) No match
09 [49027736] (000/1379) No match (V2 was not tested)
10 [f3514095] (002/1373) Accurately ripped
Offsetted by -122:
01 [9ab70fb5] (002/1425) Accurately ripped
02 [def2a921] (002/1421) Accurately ripped
03 [da6c9542] (000/1418) No match
04 [476d0220] (000/1395) No match (V2 was not tested)
05 [50118890] (002/1389) Accurately ripped
06 [58546718] (000/1392) No match (V2 was not tested)
07 [eb2fdca4] (000/1395) No match (V2 was not tested)
08 [958c3d55] (000/1384) No match
09 [3ab34e20] (000/1379) No match (V2 was not tested)
10 [db60d76f] (002/1373) Accurately ripped
Offsetted by -106:
01 [f2f780f5] (000/1425) No match
02 [0b0435b7] (000/1421) No match
03 [f798fa66] (000/1418) No match
04 [ce0306ba] (000/1395) No match
05 [050518ce] (000/1389) No match
06 [ddbcb5b2] (000/1392) No match
07 [4cbe3b24] (000/1395) No match
08 [8fc9a295] (000/1384) No match (V2 was not tested)
09 [17239d34] (000/1379) No match
10 [286e2495] (000/1373) No match
Offsetted by -71:
01 [640478b1] (117/1425) Accurately ripped
02 [6fbd6930] (118/1421) Accurately ripped
03 [66533fc8] (000/1418) No match
04 [3443100e] (000/1395) No match (V2 was not tested)
05 [64f2185e] (115/1389) Accurately ripped
06 [95e3b3c9] (112/1392) Accurately ripped
07 [b225a9dc] (115/1395) Accurately ripped
08 [232ff011] (000/1384) No match
09 [80be2b58] (000/1379) No match (V2 was not tested)
10 [6ef6cd23] (111/1373) Accurately ripped
Offsetted by -59:
01 [6634cda1] (016/1425) Accurately ripped
02 [17622861] (016/1421) Accurately ripped
03 [22ca25fc] (000/1418) No match
04 [992912f9] (000/1395) No match (V2 was not tested)
05 [5318b75c] (016/1389) Accurately ripped
06 [720064d7] (016/1392) Accurately ripped
07 [3b5070bc] (016/1395) Accurately ripped
08 [9eddfc01] (000/1384) No match
09 [97044e14] (000/1379) No match (V2 was not tested)
10 [d44d4f49] (016/1373) Accurately ripped
Offsetted by 12:
01 [ddd2c42d] (000/1425) No match (V2 was not tested)
02 [631da6d4] (000/1421) No match (V2 was not tested)
03 [4f424485] (000/1418) No match (V2 was not tested)
04 [2e3f21f0] (000/1395) No match (V2 was not tested)
05 [76a18190] (000/1389) No match (V2 was not tested)
06 [8e6f3bb2] (000/1392) No match (V2 was not tested)
07 [3c383414] (000/1395) No match (V2 was not tested)
08 [a54e6d4d] (000/1384) No match (V2 was not tested)
09 [a142ff6a] (000/1379) No match (V2 was not tested)
10 [7b68c771] (000/1373) No match (V2 was not tested)
Offsetted by 65:
01 [d2283b51] (000/1425) No match
02 [04ceb3ed] (000/1421) No match
03 [54526abc] (000/1418) No match
04 [ad1d2969] (000/1395) No match
05 [63fd95b5] (000/1389) No match
06 [4d9a68b2] (000/1392) No match
07 [6f5fcd1c] (000/1395) No match
08 [f239ccb1] (000/1384) No match (V2 was not tested)
09 [beb61a64] (000/1379) No match
10 [c8e8ed95] (000/1373) No match
Offsetted by 147:
01 [b6727fb9] (087/1425) Accurately ripped
02 [23fb98a4] (089/1421) Accurately ripped
03 [56c0f226] (000/1418) No match
04 [df032e8a] (000/1395) No match (V2 was not tested)
05 [f99271fd] (087/1389) Accurately ripped
06 [1b4b63c4] (087/1392) Accurately ripped
07 [c359716c] (087/1395) Accurately ripped
08 [94b47399] (000/1384) No match
09 [69dae38e] (000/1379) No match (V2 was not tested)
10 [814aa9f1] (087/1373) Accurately ripped
Offsetted by 153:
01 [378aaa31] (000/1425) No match
02 [0846a41c] (000/1421) No match
03 [0bfbac12] (000/1418) No match
04 [914c2eb4] (000/1395) No match
05 [8c74fb81] (000/1389) No match
06 [80eb301e] (000/1392) No match
07 [07eed4dc] (000/1395) No match (V2 was not tested)
08 [d28b7991] (000/1384) No match
09 [43aa3c9a] (000/1379) No match
10 [138351ef] (000/1373) No match
Offsetted by 171:
01 [bad32999] (000/1425) No match
02 [f7ff687d] (000/1421) No match
03 [2fe4856e] (000/1418) No match (V2 was not tested)
04 [a7fb2f15] (000/1395) No match
05 [6031cc95] (000/1389) No match
06 [b10b943c] (000/1392) No match
07 [d5aeff2c] (000/1395) No match
08 [8c108b79] (000/1384) No match
09 [3c5d5992] (000/1379) No match
10 [bf68071b] (000/1373) No match
Offsetted by 336:
01 [18ebb97d] (000/1425) No match
02 [b296d243] (000/1421) No match
03 [9a55df16] (000/1418) No match
04 [cbf023f0] (000/1395) No match
05 [802b65ef] (000/1389) No match
06 [d1c2c96b] (000/1392) No match
07 [b3bb2db4] (000/1395) No match
08 [b0a9af9d] (000/1384) No match (V2 was not tested)
09 [4505ea50] (000/1379) No match
10 [c3236bdb] (000/1373) No match
Offsetted by 349:
01 [b0a01581] (000/1425) No match
02 [29937462] (000/1421) No match
03 [96d9ba89] (000/1418) No match
04 [f8ca21cb] (000/1395) No match
05 [60f57fdb] (000/1389) No match
06 [78a1682c] (000/1392) No match
07 [72feda7c] (000/1395) No match
08 [0bfb91e1] (000/1384) No match (V2 was not tested)
09 [583e60e6] (000/1379) No match
10 [19be1d49] (000/1373) No match
Offsetted by 416:
01 [d22defbd] (034/1425) Accurately ripped
02 [45bc0139] (034/1421) Accurately ripped
03 [4b76e249] (000/1418) No match
04 [692d14e3] (000/1395) No match (V2 was not tested)
05 [13f7a6a3] (035/1389) Accurately ripped
06 [7feea527] (034/1392) Accurately ripped
07 [9b830634] (034/1395) Accurately ripped
08 [93dca9dd] (000/1384) No match
09 [374ad87c] (000/1379) No match (V2 was not tested)
10 [833dfe57] (033/1373) Accurately ripped
Offsetted by 442:
01 [0196a7c5] (000/1425) No match
02 [3ad5ace1] (000/1421) No match
03 [f26acf1c] (000/1418) No match (V2 was not tested)
04 [c26c0f1a] (000/1395) No match
05 [ee94fff2] (000/1389) No match
06 [c2cec346] (000/1392) No match
07 [1a0a5fc4] (000/1395) No match
08 [4a806e65] (000/1384) No match
09 [e72f4d60] (000/1379) No match
10 [53232285] (000/1373) No match
Offsetted by 455:
01 [994b03c9] (000/1425) No match
02 [e7b62c6f] (000/1421) No match
03 [ec6ca5b5] (000/1418) No match (V2 was not tested)
04 [ef190c00] (000/1395) No match
05 [dfd515b1] (000/1389) No match
06 [614b4d10] (000/1392) No match
07 [d94e0c8c] (000/1395) No match
08 [a5d250a9] (000/1384) No match
09 [684d7302] (000/1379) No match
10 [c526a113] (000/1373) No match
Offsetted by 580:
01 [9ac2788d] (000/1425) No match
02 [dcbdd1c2] (000/1421) No match
03 [daec0dbc] (000/1418) No match
04 [c367e69b] (000/1395) No match
05 [62c4aff2] (000/1389) No match
06 [b21a75c0] (000/1392) No match
07 [43764ed4] (000/1395) No match (V2 was not tested)
08 [d8d1f7ad] (000/1384) No match
09 [486804b8] (000/1379) No match
10 [261234d3] (000/1373) No match
More than 16 offsets match!

Track Peak [ CRC32 ] [W/O NULL] [ LOG ]
– 98,0 [AA790293] [949B94B2]
01 97,9 [B0E9ACB4] [071A58DB] W/O NULL
02 97,9 [32570454] [ED66FF77] W/O NULL
03 98,0 [8A472051] [463A4017] W/O NULL
04 97,9 [2E7E7E4B] [49325ACE] W/O NULL
05 97,9 [84FA0EC3] [1D857BF3] W/O NULL
06 97,9 [643EEDD2] [DCD9CEEF] W/O NULL
07 97,9 [16D7EE38] [B5F82141] W/O NULL
08 98,0 [15001975] [83AB01DC] W/O NULL
09 97,9 [AFBC9A1A] [523AEE88] W/O NULL
10 97,9 [6ECCEF15] [384736C9] W/O NULL

foobar2000 1.2 / Dynamic Range Meter 1.1.1
log date: 2019-11-08 17:10:06

––––––––––––––––––––––––––––––––––––––––
Analyzed: Spice Girls / Spice
––––––––––––––––––––––––––––––––––––––––

DR Peak RMS Duration Track
––––––––––––––––––––––––––––––––––––––––
DR8 -0.18 dB -9.68 dB 2:53 01-Wannabe
DR9 -0.18 dB -10.80 dB 3:56 02-Say You'll Be There
DR8 -0.18 dB -10.35 dB 4:01 03-2 Become 1
DR9 -0.18 dB -10.26 dB 3:39 04-Love Thing
DR10 -0.18 dB -10.99 dB 4:12 05-Last Time Lover
DR8 -0.18 dB -10.62 dB 5:05 06-Mama
DR9 -0.18 dB -10.28 dB 4:01 07-Who Do You Think You Are
DR9 -0.18 dB -10.16 dB 4:05 08-Something Kinda Funny
DR9 -0.18 dB -10.37 dB 4:26 09-Naked
DR8 -0.18 dB -9.11 dB 3:49 10-If U Can't Dance
––––––––––––––––––––––––––––––––––––––––

Number of tracks: 10
Official DR value: DR9

Samplerate: 44100 Hz
Channels: 2
Bits per sample: 16
Bitrate: 979 kbps
Codec: FLAC
================================================================================




Spice Girls - Albums Collection 1996-2007 (4CD)

Spice Girls - Spiceworld (1997)
EAC | FLAC | Tracks (Cue&Log) ~ 291 Mb | Mp3 (CBR320) ~ 97 Mb | Scans included
Label: Virgin | # CDV2850, 7243 8 45111 2 8 | Time: 00:38:44

The Spice Girls, as well as their managers and songwriters, are nothing if not clever, and Spiceworld, the group's second album, illustrates exactly how sharp they are. Conventional wisdom dictates that Spiceworld should be a weak facsimile of Spice, which itself featured a handful of great singles surrounded by filler. Conventional wisdom, in this case, is wrong – Spiceworld is a better record than its predecessor, boasting a more consistent (and catchier) set of songs and an intoxicating sense of fun. Instead of merely rewriting Spice, Spiceworld consolidates and expands the group's style, adding Latin flourishes ("Spice Up Your Life"), kitschy blues ("The Lady Is a Vamp"), and stomping, neo-Motown blue-eyed soul in the vein of Culture Club ("Stop"). The girls – Mel C. in particular – are actually turning into good vocalists, and each song plays to their strengths, giving each Spice a chance to shine. Best of all, each song has a strong melody and a strong, solid beat, whether it's a ballad or a dance number. It's a pure, unadulterated guilty pleasure and some of the best manufactured mainstream dance-pop of the late '90s.

Review by Stephen Thomas Erlewine, Allmusic.com

Tracklist:

01. Spice Up Your Life (2:54)
02. Stop (3:25)
03. Too Much (4:32)
04. Saturday Night Divas (4:26)
05. Never Give Up On The Good Times (4:30)
06. Move Over (2:47)
07. Do It (4:04)
08. Denying (3:47)
09. Viva Forever (5:11)
10. The Lady Is A Vamp (3:09)


Exact Audio Copy V0.99 prebeta 5 from 4. May 2009

EAC extraction logfile from 22. July 2009, 6:46

Spice Girls / Spiceworld

Used drive : Optiarc DVD RW AD-7200S Adapter: 0 ID: 0

Read mode : Secure
Utilize accurate stream : Yes
Defeat audio cache : Yes
Make use of C2 pointers : No

Read offset correction : 48
Overread into Lead-In and Lead-Out : No
Fill up missing offset samples with silence : Yes
Delete leading and trailing silent blocks : No
Null samples used in CRC calculations : Yes
Used interface : Native Win32 interface for Win NT & 2000
Gap handling : Appended to previous track

Used output format : User Defined Encoder
Selected bitrate : 320 kBit/s
Quality : High
Add ID3 tag : No
Command line compressor : C:\Program Files\Exact Audio Copy\Flac\flac.exe
Additional command line options : -6 -V -T "ARTIST=%a" -T "TITLE=%t" -T "ALBUM=%g" -T "DATE=%y" -T "TRACKNUMBER=%n" -T "GENRE=%m" -T "COMMENT=%e" %s -o %d


TOC of the extracted CD

Track | Start | Length | Start sector | End sector
––––––––––––––––––––––––––––-
1 | 0:00.00 | 2:53.62 | 0 | 13036
2 | 2:53.62 | 3:24.60 | 13037 | 28396
3 | 6:18.47 | 4:31.70 | 28397 | 48791
4 | 10:50.42 | 4:25.65 | 48792 | 68731
5 | 15:16.32 | 4:30.15 | 68732 | 88996
6 | 19:46.47 | 2:46.43 | 88997 | 101489
7 | 22:33.15 | 4:04.02 | 101490 | 119791
8 | 26:37.17 | 3:46.73 | 119792 | 136814
9 | 30:24.15 | 5:10.50 | 136815 | 160114
10 | 35:34.65 | 3:09.32 | 160115 | 174321


Track 1

Filename C:\Recovered Files\Audio\Spice Girls\Updates\FLAC\Spice Girls - Spice World (1997)\01 - Spice Up Your Life.wav

Pre-gap length 0:00:02.00

Peak level 92.2 %
Track quality 100.0 %
Test CRC DDC50F42
Copy CRC DDC50F42
Accurately ripped (confidence 101) [DC83D151]
Copy OK

Track 2

Filename C:\Recovered Files\Audio\Spice Girls\Updates\FLAC\Spice Girls - Spice World (1997)\02 - Stop.wav

Peak level 99.2 %
Track quality 100.0 %
Test CRC AF3D9D64
Copy CRC AF3D9D64
Accurately ripped (confidence 101) [B6D88A3E]
Copy OK

Track 3

Filename C:\Recovered Files\Audio\Spice Girls\Updates\FLAC\Spice Girls - Spice World (1997)\03 - Too Much.wav

Peak level 99.2 %
Track quality 100.0 %
Test CRC 0AA7CC40
Copy CRC 0AA7CC40
Accurately ripped (confidence 100) [CB87CEF2]
Copy OK

Track 4

Filename C:\Recovered Files\Audio\Spice Girls\Updates\FLAC\Spice Girls - Spice World (1997)\04 - Saturday Night Divas.wav

Peak level 99.2 %
Track quality 100.0 %
Test CRC 8C243607
Copy CRC 8C243607
Accurately ripped (confidence 100) [B40ED5EE]
Copy OK

Track 5

Filename C:\Recovered Files\Audio\Spice Girls\Updates\FLAC\Spice Girls - Spice World (1997)\05 - Never Give Up On The Good Times.wav

Peak level 99.2 %
Track quality 100.0 %
Test CRC 4EE20489
Copy CRC 4EE20489
Accurately ripped (confidence 100) [23662618]
Copy OK

Track 6

Filename C:\Recovered Files\Audio\Spice Girls\Updates\FLAC\Spice Girls - Spice World (1997)\06 - Move Over.wav

Peak level 99.2 %
Track quality 100.0 %
Test CRC 32A96007
Copy CRC 32A96007
Accurately ripped (confidence 100) [BA42BB10]
Copy OK

Track 7

Filename C:\Recovered Files\Audio\Spice Girls\Updates\FLAC\Spice Girls - Spice World (1997)\07 - Do It.wav

Peak level 99.2 %
Track quality 100.0 %
Test CRC 5EE0EF4F
Copy CRC 5EE0EF4F
Accurately ripped (confidence 99) [7B29B6BF]
Copy OK

Track 8

Filename C:\Recovered Files\Audio\Spice Girls\Updates\FLAC\Spice Girls - Spice World (1997)\08 - Denying.wav

Peak level 99.2 %
Track quality 100.0 %
Test CRC AD8D68AB
Copy CRC AD8D68AB
Accurately ripped (confidence 99) [94F3900B]
Copy OK

Track 9

Filename C:\Recovered Files\Audio\Spice Girls\Updates\FLAC\Spice Girls - Spice World (1997)\09 - Viva Forever.wav

Peak level 99.2 %
Track quality 100.0 %
Test CRC 7B97843E
Copy CRC 7B97843E
Accurately ripped (confidence 100) [5EDB8E65]
Copy OK

Track 10

Filename C:\Recovered Files\Audio\Spice Girls\Updates\FLAC\Spice Girls - Spice World (1997)\10 - The Lady Is A Vamp.wav

Peak level 99.2 %
Track quality 100.0 %
Test CRC 134762D1
Copy CRC 134762D1
Accurately ripped (confidence 99) [38D02C4E]
Copy OK


All tracks accurately ripped

No errors occurred

End of status report

[CUETools log; Date: 08.11.2019 17:22:28; Version: 2.1.4]
[CTDB TOCID: d33P4E.fT.Cor8LvTqIR6CNhFHg-] found.
Track | CTDB Status
1 | (900/921) Accurately ripped, or (2/921) differs in 2197 samples @02:53:58-02:53:60
2 | (906/921) Accurately ripped
3 | (907/921) Accurately ripped, or (2/921) differs in 1471 samples @04:31:66-04:31:68
4 | (903/921) Accurately ripped
5 | (901/921) Accurately ripped, or (2/921) differs in 1803 samples @04:30:11-04:30:13
6 | (905/921) Accurately ripped, or (2/921) differs in 2260 samples @02:46:39-02:46:41
7 | (904/921) Accurately ripped, or (2/921) differs in 2277 samples @04:03:73-04:04:00
8 | (903/921) Accurately ripped
9 | (908/921) Accurately ripped
10 | (908/921) Accurately ripped
[AccurateRip ID: 000e59c9-007402b5-8e09140a] found.
Track [ CRC | V2 ] Status
01 [dc83d151|5b2dc5a0] (188+200/513) Accurately ripped
02 [b6d88a3e|12206ffb] (189+200/513) Accurately ripped
03 [cb87cef2|5489b768] (188+200/507) Accurately ripped
04 [b40ed5ee|094432cd] (189+200/509) Accurately ripped
05 [23662618|3f84c89a] (190+200/509) Accurately ripped
06 [ba42bb10|dcf909bc] (187+200/506) Accurately ripped
07 [7b29b6bf|94722f18] (188+200/506) Accurately ripped
08 [94f3900b|d0c764fb] (187+200/507) Accurately ripped
09 [5edb8e65|507e6bed] (186+200/509) Accurately ripped
10 [38d02c4e|06893d7b] (184+200/500) Accurately ripped
Offsetted by -664:
01 [ae5e2c26] (004/513) Accurately ripped
02 [000edcd1] (004/513) Accurately ripped
03 [99e3702f] (004/507) Accurately ripped
04 [7d389d81] (003/509) Accurately ripped
05 [41b59661] (003/509) Accurately ripped
06 [90981d10] (003/506) Accurately ripped
07 [96204f76] (003/506) Accurately ripped
08 [dd7fab67] (003/507) Accurately ripped
09 [b3586c95] (003/509) Accurately ripped
10 [2a1fd356] (002/500) Accurately ripped
Offsetted by 233:
01 [322ba62e] (046/513) Accurately ripped
02 [3c8adb6a] (047/513) Accurately ripped
03 [e057e22b] (044/507) Accurately ripped
04 [a26a38df] (045/509) Accurately ripped
05 [057f7516] (045/509) Accurately ripped
06 [05ba7dc0] (044/506) Accurately ripped
07 [1a0dd9b1] (044/506) Accurately ripped
08 [02e411d0] (045/507) Accurately ripped
09 [225e0133] (045/509) Accurately ripped
10 [57062294] (040/500) Accurately ripped
Offsetted by -676:
01 [24e116ca] (000/513) No match (V2 was not tested)
02 [2785918d] (000/513) No match (V2 was not tested)
03 [e0aed3ce] (000/507) No match (V2 was not tested)
04 [30698e62] (000/509) No match (V2 was not tested)
05 [280dbdff] (000/509) No match (V2 was not tested)
06 [2915e34e] (000/506) No match (V2 was not tested)
07 [22453395] (000/506) No match (V2 was not tested)
08 [472f1d1c] (000/507) No match (V2 was not tested)
09 [1dbd612d] (000/509) No match (V2 was not tested)
10 [fd3ee19e] (000/500) No match (V2 was not tested)
Offsetted by 6:
01 [08e960a0] (000/513) No match (V2 was not tested)
02 [9e0a9825] (000/513) No match (V2 was not tested)
03 [2a130ccc] (000/507) No match (V2 was not tested)
04 [5a1a50b8] (000/509) No match (V2 was not tested)
05 [8a9cf456] (000/509) No match (V2 was not tested)
06 [457958fa] (000/506) No match (V2 was not tested)
07 [770aab86] (000/506) No match (V2 was not tested)
08 [8b3bf926] (000/507) No match (V2 was not tested)
09 [29a91419] (002/509) Accurately ripped
10 [88e4db32] (002/500) Accurately ripped

Track Peak [ CRC32 ] [W/O NULL] [ LOG ]
– 99,2 [F50CFE65] [4D332963]
01 92,2 [DDC50F42] [ACC46FF4] CRC32
02 99,2 [AF3D9D64] [EB4A2764] CRC32
03 99,2 [0AA7CC40] [4F56F4D8] CRC32
04 99,2 [8C243607] [C8EBF410] CRC32
05 99,2 [4EE20489] [F45DD95E] CRC32
06 99,2 [32A96007] [590D3EB1] CRC32
07 99,2 [5EE0EF4F] [0C826484] CRC32
08 99,2 [AD8D68AB] [49675C32] CRC32
09 99,2 [7B97843E] [7D9BE09A] CRC32
10 99,2 [134762D1] [E3CC00C9] CRC32

foobar2000 1.2 / Dynamic Range Meter 1.1.1
log date: 2019-11-08 17:10:23

––––––––––––––––––––––––––––––––––––––––
Analyzed: Spice Girls / Spiceworld
––––––––––––––––––––––––––––––––––––––––

DR Peak RMS Duration Track
––––––––––––––––––––––––––––––––––––––––
DR7 -0.70 dB -9.36 dB 2:54 01-Spice Up Your Life
DR7 -0.07 dB -8.77 dB 3:25 02-Stop
DR6 -0.07 dB -8.36 dB 4:32 03-Too Much
DR9 -0.07 dB -11.07 dB 4:26 04-Saturday Night Divas
DR8 -0.07 dB -9.37 dB 4:30 05-Never Give Up On The Good Times
DR8 -0.07 dB -9.99 dB 2:47 06-Move Over
DR7 -0.07 dB -9.19 dB 4:04 07-Do It
DR7 -0.07 dB -9.55 dB 3:47 08-Denying
DR8 -0.07 dB -9.78 dB 5:11 09-Viva Forever
DR7 -0.07 dB -8.66 dB 3:09 10-The Lady Is A Vamp
––––––––––––––––––––––––––––––––––––––––

Number of tracks: 10
Official DR value: DR7

Samplerate: 44100 Hz
Channels: 2
Bits per sample: 16
Bitrate: 1046 kbps
Codec: FLAC
================================================================================




Spice Girls - Albums Collection 1996-2007 (4CD)

Spice Girls - Forever (2000)
EAC | FLAC | Tracks (Cue&Log) ~ 375 Mb | Mp3 (CBR320) ~ 123 Mb | Scans included
Label: Virgin | # 7243 8 50468 27, CDVX 2928 | Time: 00:49:38

The Spice Girls waited three years to deliver their third album, Forever. While they were away, a number of things changed – things have that tendency – but the pop scene didn't shift so drastically that it was chilly to a Spice comeback. Many pundits argued, fairly accurately, that they were the trailblazers for the resurgence of frothy, unabashed teen pop in the last two years of the 20th century. But, just like there was a decade separating the ages of the Spices and Britney Spears, there's a huge difference between the cheery, featherweight "Wannabe" and the calculated sex and shock of "…Baby One More Time" – ironically, the older girls made music that was lighter and more innocent. With Forever, they continue to follow that path, with a sleek, stylish attempt at maturity, but they seem lost because they just don't sound interested any more. Sure, they make all the right moves, hiring superstar producer Rodney Jerkins to helm most of the tracks, but the record is curiously self-conscious and flat. Neither the production, songs, nor performances have much life to them, with the exception of the closer, "Goodbye," which significantly was released as a Christmas single back in 1999. There's little of the giddy sense of friendship that marked their first two records, and the ballads aren't as sweetly sentimental; there's little of the charm that made the Spice Girls so irresistible. Often, Forever plays like the Girls realized that it's their final album, and they put in just enough effort to make it palatable, but not enough to make it appetizing. That's not the best way to go out, but it seems like the best the Spice Girls could do in 2000, considering that their hearts and minds were clearly on their ever-increasing solo projects.

Review by Stephen Thomas Erlewine, Allmusic.com

Tracklist:

01. Holler (4:16)
02. Tell Me Why (4:15)
03. Let Love Lead The Way (4:58)
04. Right Back At Ya (4:11)
05. Get Down With Me (3:46)
06. Wasting My Time (4:15)
07. Weekend Love (4:07)
08. Time Goes By (4:52)
09. If You Wanna Have Some Fun (5:27)
10. Oxygen (4:57)
11. Goodbye (4:35)


Exact Audio Copy V0.99 prebeta 5 from 4. May 2009

EAC extraction logfile from 28. July 2009, 17:51

Spice Girls / Forever

Used drive : Optiarc DVD RW AD-7200S Adapter: 0 ID: 0

Read mode : Secure
Utilize accurate stream : Yes
Defeat audio cache : Yes
Make use of C2 pointers : No

Read offset correction : 48
Overread into Lead-In and Lead-Out : No
Fill up missing offset samples with silence : Yes
Delete leading and trailing silent blocks : No
Null samples used in CRC calculations : Yes
Used interface : Native Win32 interface for Win NT & 2000
Gap handling : Appended to previous track

Used output format : User Defined Encoder
Selected bitrate : 320 kBit/s
Quality : High
Add ID3 tag : No
Command line compressor : C:\Program Files\Exact Audio Copy\Flac\flac.exe
Additional command line options : -6 -V -T "ARTIST=%a" -T "TITLE=%t" -T "ALBUM=%g" -T "DATE=%y" -T "TRACKNUMBER=%n" -T "GENRE=%m" -T "COMMENT=%e" %s -o %d


TOC of the extracted CD

Track | Start | Length | Start sector | End sector
––––––––––––––––––––––––––––-
1 | 0:00.00 | 4:15.65 | 0 | 19189
2 | 4:15.65 | 4:14.50 | 19190 | 38289
3 | 8:30.40 | 4:58.22 | 38290 | 60661
4 | 13:28.62 | 4:11.00 | 60662 | 79486
5 | 17:39.62 | 3:46.20 | 79487 | 96456
6 | 21:26.07 | 4:14.58 | 96457 | 115564
7 | 25:40.65 | 4:06.45 | 115565 | 134059
8 | 29:47.35 | 4:51.45 | 134060 | 155929
9 | 34:39.05 | 5:26.62 | 155930 | 180441
10 | 40:05.67 | 4:57.03 | 180442 | 202719
11 | 45:02.70 | 4:35.32 | 202720 | 223376


Track 1

Filename D:\Spice Girls\2000 - Forever\Spice Girls - 01 - Holler.wav

Pre-gap length 0:00:02.00

Peak level 98.8 %
Track quality 100.0 %
Test CRC CB175F45
Copy CRC CB175F45
Accurately ripped (confidence 24) [4B6E7C41]
Copy OK

Track 2

Filename D:\Spice Girls\2000 - Forever\Spice Girls - 02 - Tell Me Why.wav

Pre-gap length 0:00:00.13

Peak level 98.8 %
Track quality 99.9 %
Test CRC 590B6D0F
Copy CRC 590B6D0F
Accurately ripped (confidence 22) [87F9ED3C]
Copy OK

Track 3

Filename D:\Spice Girls\2000 - Forever\Spice Girls - 03 - Let Love Lead The Way.wav

Pre-gap length 0:00:01.13

Peak level 98.8 %
Track quality 100.0 %
Test CRC 6E0658E3
Copy CRC 6E0658E3
Accurately ripped (confidence 22) [A475C857]
Copy OK

Track 4

Filename D:\Spice Girls\2000 - Forever\Spice Girls - 04 - Right Back At Ya.wav

Pre-gap length 0:00:01.13

Peak level 98.8 %
Track quality 100.0 %
Test CRC B333ED69
Copy CRC B333ED69
Accurately ripped (confidence 21) [7945557F]
Copy OK

Track 5

Filename D:\Spice Girls\2000 - Forever\Spice Girls - 05 - Get Down With Me.wav

Pre-gap length 0:00:02.36

Peak level 98.8 %
Track quality 100.0 %
Test CRC 88472C5B
Copy CRC 88472C5B
Accurately ripped (confidence 22) [5950B16C]
Copy OK

Track 6

Filename D:\Spice Girls\2000 - Forever\Spice Girls - 06 - Wasting My Time.wav

Pre-gap length 0:00:01.16

Peak level 98.8 %
Track quality 100.0 %
Test CRC 79DD104C
Copy CRC 79DD104C
Accurately ripped (confidence 22) [87B91B1A]
Copy OK

Track 7

Filename D:\Spice Girls\2000 - Forever\Spice Girls - 07 - Weekend Love.wav

Pre-gap length 0:00:01.33

Peak level 98.8 %
Track quality 100.0 %
Test CRC B8036DAC
Copy CRC B8036DAC
Accurately ripped (confidence 21) [307D7030]
Copy OK

Track 8

Filename D:\Spice Girls\2000 - Forever\Spice Girls - 08 - Time Goes By.wav

Pre-gap length 0:00:02.10

Peak level 98.8 %
Track quality 100.0 %
Test CRC A121867A
Copy CRC A121867A
Accurately ripped (confidence 21) [8081B406]
Copy OK

Track 9

Filename D:\Spice Girls\2000 - Forever\Spice Girls - 09 - If You Wanna Have Some Fun.wav

Pre-gap length 0:00:00.53

Peak level 98.8 %
Track quality 100.0 %
Test CRC 6BEF688D
Copy CRC 6BEF688D
Accurately ripped (confidence 20) [9C0A6F73]
Copy OK

Track 10

Filename D:\Spice Girls\2000 - Forever\Spice Girls - 10 - Oxygen.wav

Pre-gap length 0:00:01.40

Peak level 98.8 %
Track quality 100.0 %
Test CRC 2DEE92CC
Copy CRC 2DEE92CC
Accurately ripped (confidence 21) [2CF625E6]
Copy OK

Track 11

Filename D:\Spice Girls\2000 - Forever\Spice Girls - 11 - Goodbye.wav

Pre-gap length 0:00:01.50

Peak level 98.8 %
Track quality 100.0 %
Test CRC C0FD2C92
Copy CRC C0FD2C92
Accurately ripped (confidence 23) [FE93B01F]
Copy OK


All tracks accurately ripped

No errors occurred

End of status report

[CUETools log; Date: 08.11.2019 17:22:43; Version: 2.1.4]
[CTDB TOCID: 4PL_Vjej2UlQSxrAXPNQzJYAe50-] found.
Track | CTDB Status
1 | (183/183) Accurately ripped
2 | (181/183) Accurately ripped
3 | (180/183) Accurately ripped
4 | (181/183) Accurately ripped
5 | (181/183) Accurately ripped
6 | (181/183) Accurately ripped
7 | (182/183) Accurately ripped
8 | (181/183) Accurately ripped
9 | (181/183) Accurately ripped
10 | (182/183) Accurately ripped
11 | (182/183) Accurately ripped
[AccurateRip ID: 0013ee44-00ad84e1-860ba20b] found.
Track [ CRC | V2 ] Status
01 [5d8ac127|29bff7db] (000+002/136) Accurately ripped
02 [d0e1a9eb|47c54501] (000+002/134) Accurately ripped
03 [d34cd2ab|3e917c32] (000+002/133) Accurately ripped
04 [23ce2165|4933aeca] (000+002/131) Accurately ripped
05 [bdacb1f7|898fb142] (000+002/133) Accurately ripped
06 [fcae37db|03ef0845] (000+002/135) Accurately ripped
07 [7ca776cf|ecdf3372] (000+002/134) Accurately ripped
08 [4e4c53c0|f81e7e36] (000+002/133) Accurately ripped
09 [b5d4e0be|d1322050] (000+002/131) Accurately ripped
10 [1daec9a4|1a00945b] (000+002/131) Accurately ripped
11 [55a3b910|5c66f750] (000+000/129) No match
Offsetted by 659:
01 [4b6e7c41] (059/136) Accurately ripped
02 [87f9ed3c] (057/134) Accurately ripped
03 [a475c857] (056/133) Accurately ripped
04 [7945557f] (055/131) Accurately ripped
05 [5950b16c] (056/133) Accurately ripped
06 [87b91b1a] (057/135) Accurately ripped
07 [307d7030] (056/134) Accurately ripped
08 [8081b406] (056/133) Accurately ripped
09 [9c0a6f73] (054/131) Accurately ripped
10 [2cf625e6] (054/131) Accurately ripped
11 [fe93b01f] (054/129) Accurately ripped
Offsetted by -5:
01 [a43e8b00] (000/136) No match (V2 was not tested)
02 [4153eb4d] (000/134) No match (V2 was not tested)
03 [a4a6a2f7] (000/133) No match (V2 was not tested)
04 [5efb10af] (000/131) No match (V2 was not tested)
05 [4283d3c4] (000/133) No match (V2 was not tested)
06 [e1fc9b22] (000/135) No match (V2 was not tested)
07 [9f6acb28] (000/134) No match (V2 was not tested)
08 [40b595d6] (000/133) No match (V2 was not tested)
09 [cb6497cb] (000/131) No match (V2 was not tested)
10 [46be8fd6] (000/131) No match (V2 was not tested)
11 [b74bf269] (000/129) No match (V2 was not tested)

Track Peak [ CRC32 ] [W/O NULL] [ LOG ]
– 98,8 [208ADFC5] [ED0DE6C6]
01 98,8 [D2F3350D] [B1F1BE96] CRC32 : offset 659
02 98,8 [9E1CA277] [FD9F3469] CRC32 : offset 659
03 98,8 [ED889F33] [6232E3BF] CRC32 : offset 659
04 98,8 [F11CC73B] [C3E7B3BA] CRC32 : offset 659
05 98,8 [79B12534] [2712A35E] CRC32 : offset 659
06 98,8 [AEDF89CD] [8BF4D44C] CRC32 : offset 659
07 98,8 [491B3818] [64C9C05D] CRC32 : offset 659
08 98,8 [EFD9A48B] [E6018F41] CRC32 : offset 659
09 98,8 [47283DD4] [189B1F00] CRC32 : offset 659
10 98,8 [210C5148] [B0F961D7] CRC32 : offset 659
11 98,8 [D5F9BB65] [B77EC9B8] [C0FD2C92]

foobar2000 1.2 / Dynamic Range Meter 1.1.1
log date: 2019-11-08 17:10:47

––––––––––––––––––––––––––––––––––––––––
Analyzed: Spice Girls / Forever
––––––––––––––––––––––––––––––––––––––––

DR Peak RMS Duration Track
––––––––––––––––––––––––––––––––––––––––
DR5 -0.10 dB -6.79 dB 4:16 01-Holler
DR7 -0.10 dB -8.38 dB 4:15 02-Tell Me Why
DR6 -0.10 dB -8.10 dB 4:58 03-Let Love Lead The Way
DR7 -0.10 dB -8.96 dB 4:11 04-Right Back At Ya
DR7 -0.10 dB -7.83 dB 3:46 05-Get Down With Me
DR5 -0.10 dB -6.85 dB 4:15 06-Wasting My Time
DR5 -0.10 dB -7.39 dB 4:07 07-Weekend Love
DR6 -0.10 dB -8.77 dB 4:52 08-Time Goes By
DR5 -0.10 dB -7.14 dB 5:27 09-If You Wanna Have Some Fun
DR5 -0.10 dB -7.51 dB 4:57 10-Oxygen
DR5 -0.10 dB -6.96 dB 4:35 11-Goodbye
––––––––––––––––––––––––––––––––––––––––

Number of tracks: 11
Official DR value: DR6

Samplerate: 44100 Hz
Channels: 2
Bits per sample: 16
Bitrate: 1033 kbps
Codec: FLAC
================================================================================




Spice Girls - Albums Collection 1996-2007 (4CD)

Spice Girls - Greatest Hits (2007)
EAC | FLAC | Tracks (Cue&Log) ~ 396 Mb | Mp3 (CBR320) ~ 129 Mb | Scans included
Label: EMI | # 5099950776726, SPICECD 1 | Time: 00:54:53

Well, of course the Spice Girls needed a greatest-hits album. They'd need one even if they weren't reuniting for a world tour that is as heavily hyped if not as anticipated as Led Zeppelin's (which of course is just a one-time shot, right?), as they were a singles-oriented group without a singles album in their catalog. And so, 2007's Greatest Hits, which has everything you know plus a few songs you don't and no left-field choices (if you were hoping that "Bumper to Bumper" would gain its rightful place as one of their finest, you're out of luck!). The songs have aged exactly as you thought they might: "Wannabe" is still too familiar, "2 Become 1" too drippy, "Spice Up Your Life" plain ridiculous, but "Say You'll Be There" is still sexy, "Stop" is as awesome a slice of obligatory British Tamla/Motown as you'll get, and "Goodbye" is actually a pretty good finale, while the rest is forgettable, as are the two new songs, the sleepy "Headlines (Friendship Never Ends)" – which isn't as self-referential or clever as its title suggests – and the peppy "Voodoo." But music was always secondary to the Spice Girls' girl power image: they had enough great singles to be huge for a couple years but not enough to be more than a quicksilver pop culture phenomenon and that brief moment in time is documented better on this Greatest Hits than any of their three albums.

Review by Stephen Thomas Erlewine, Allmusic.com

Tracklist:

01. Wannabe (2:54)
02. Say You'll Be There (3:58)
03. 2 Become 1 (4:04)
04. Mama (3:42)
05. Who Do You Think You Are (3:46)
06. Move Over (2:44)
07. Spice Up Your Life (2:56)
08. Too Much (3:53)
09. Stop (3:26)
10. Viva Forever (4:14)
11. Let Love Lead The Way (4:16)
12. Holler (3:57)
13. Headlines (Friendship Never Ends) (3:31)
14. Voodoo (3:11)
15. Goodbye (4:22)


Exact Audio Copy V0.99 prebeta 5 from 4. May 2009

EAC extraction logfile from 4. August 2009, 4:07

Spice Girls / Greatest Hits

Used drive : Optiarc DVD RW AD-7200S Adapter: 0 ID: 0

Read mode : Secure
Utilize accurate stream : Yes
Defeat audio cache : Yes
Make use of C2 pointers : No

Read offset correction : 48
Overread into Lead-In and Lead-Out : No
Fill up missing offset samples with silence : Yes
Delete leading and trailing silent blocks : No
Null samples used in CRC calculations : Yes
Used interface : Native Win32 interface for Win NT & 2000
Gap handling : Appended to previous track

Used output format : User Defined Encoder
Selected bitrate : 320 kBit/s
Quality : High
Add ID3 tag : No
Command line compressor : C:\Program Files\Exact Audio Copy\Flac\flac.exe
Additional command line options : -6 -V -T "ARTIST=%a" -T "TITLE=%t" -T "ALBUM=%g" -T "DATE=%y" -T "TRACKNUMBER=%n" -T "GENRE=%m" -T "COMMENT=%e" %s -o %d


TOC of the extracted CD

Track | Start | Length | Start sector | End sector
––––––––––––––––––––––––––––-
1 | 0:00.00 | 2:54.12 | 0 | 13061
2 | 2:54.12 | 3:57.73 | 13062 | 30909
3 | 6:52.10 | 4:04.28 | 30910 | 49237
4 | 10:56.38 | 3:41.67 | 49238 | 65879
5 | 14:38.30 | 3:45.70 | 65880 | 82824
6 | 18:24.25 | 2:43.57 | 82825 | 95106
7 | 21:08.07 | 2:55.61 | 95107 | 108292
8 | 24:03.68 | 3:53.20 | 108293 | 125787
9 | 27:57.13 | 3:25.62 | 125788 | 141224
10 | 31:23.00 | 4:13.42 | 141225 | 160241
11 | 35:36.42 | 4:16.17 | 160242 | 179458
12 | 39:52.59 | 3:56.44 | 179459 | 197202
13 | 43:49.28 | 3:30.39 | 197203 | 212991
14 | 47:19.67 | 3:11.16 | 212992 | 227332
15 | 50:31.08 | 4:21.52 | 227333 | 246959


Track 1

Filename C:\Recovered Files\Audio\Spice Girls\Updates\FLAC\Spice Girls - Greatest Hits (2007)\01 - Wannabe.wav

Pre-gap length 0:00:02.00

Peak level 98.0 %
Track quality 100.0 %
Test CRC 119BFB51
Copy CRC 119BFB51
Accurately ripped (confidence 51) [E4E18563]
Copy OK

Track 2

Filename C:\Recovered Files\Audio\Spice Girls\Updates\FLAC\Spice Girls - Greatest Hits (2007)\02 - Say You'll Be There.wav

Pre-gap length 0:00:01.60

Peak level 98.0 %
Track quality 100.0 %
Test CRC 271F7CD0
Copy CRC 271F7CD0
Accurately ripped (confidence 51) [97F736C1]
Copy OK

Track 3

Filename C:\Recovered Files\Audio\Spice Girls\Updates\FLAC\Spice Girls - Greatest Hits (2007)\03 - 2 Become 1.wav

Pre-gap length 0:00:01.60

Peak level 87.3 %
Track quality 100.0 %
Test CRC 08581156
Copy CRC 08581156
Accurately ripped (confidence 50) [E4AB1C61]
Copy OK

Track 4

Filename C:\Recovered Files\Audio\Spice Girls\Updates\FLAC\Spice Girls - Greatest Hits (2007)\04 - Mama.wav

Pre-gap length 0:00:01.60

Peak level 100.0 %
Track quality 100.0 %
Test CRC F8D4F5D6
Copy CRC F8D4F5D6
Accurately ripped (confidence 50) [B031898A]
Copy OK

Track 5

Filename C:\Recovered Files\Audio\Spice Girls\Updates\FLAC\Spice Girls - Greatest Hits (2007)\05 - Who Do You Think You Are.wav

Pre-gap length 0:00:01.60

Peak level 87.2 %
Track quality 100.0 %
Test CRC AB757FEF
Copy CRC AB757FEF
Accurately ripped (confidence 52) [6A87F302]
Copy OK

Track 6

Filename C:\Recovered Files\Audio\Spice Girls\Updates\FLAC\Spice Girls - Greatest Hits (2007)\06 - Move Over.wav

Pre-gap length 0:00:01.60

Peak level 99.2 %
Track quality 100.0 %
Test CRC 8A175E86
Copy CRC 8A175E86
Accurately ripped (confidence 50) [DC6604C5]
Copy OK

Track 7

Filename C:\Recovered Files\Audio\Spice Girls\Updates\FLAC\Spice Girls - Greatest Hits (2007)\07 - Spice Up Your Life.wav

Pre-gap length 0:00:01.60

Peak level 90.3 %
Track quality 100.0 %
Test CRC ADB6A558
Copy CRC ADB6A558
Accurately ripped (confidence 52) [F733915C]
Copy OK

Track 8

Filename C:\Recovered Files\Audio\Spice Girls\Updates\FLAC\Spice Girls - Greatest Hits (2007)\08 - Too Much.wav

Pre-gap length 0:00:01.60

Peak level 88.4 %
Track quality 100.0 %
Test CRC 26A9C656
Copy CRC 26A9C656
Accurately ripped (confidence 50) [2C9E287B]
Copy OK

Track 9

Filename C:\Recovered Files\Audio\Spice Girls\Updates\FLAC\Spice Girls - Greatest Hits (2007)\09 - Stop.wav

Pre-gap length 0:00:01.60

Peak level 86.3 %
Track quality 100.0 %
Test CRC 2C79D443
Copy CRC 2C79D443
Accurately ripped (confidence 51) [D83BDAE2]
Copy OK

Track 10

Filename C:\Recovered Files\Audio\Spice Girls\Updates\FLAC\Spice Girls - Greatest Hits (2007)\10 - Viva Forever.wav

Pre-gap length 0:00:01.60

Peak level 97.9 %
Track quality 100.0 %
Test CRC D7D9953A
Copy CRC D7D9953A
Accurately ripped (confidence 49) [5C8394D5]
Copy OK

Track 11

Filename C:\Recovered Files\Audio\Spice Girls\Updates\FLAC\Spice Girls - Greatest Hits (2007)\11 - Let Love Lead The Way.wav

Pre-gap length 0:00:01.60

Peak level 91.8 %
Track quality 100.0 %
Test CRC 44EBEA57
Copy CRC 44EBEA57
Accurately ripped (confidence 49) [86558DBF]
Copy OK

Track 12

Filename C:\Recovered Files\Audio\Spice Girls\Updates\FLAC\Spice Girls - Greatest Hits (2007)\12 - Holler.wav

Pre-gap length 0:00:01.60

Peak level 87.3 %
Track quality 100.0 %
Test CRC 5E1063D4
Copy CRC 5E1063D4
Accurately ripped (confidence 48) [F81D3986]
Copy OK

Track 13

Filename C:\Recovered Files\Audio\Spice Girls\Updates\FLAC\Spice Girls - Greatest Hits (2007)\13 - Headlines (Friendship Never Ends).wav

Pre-gap length 0:00:02.16

Peak level 89.1 %
Track quality 99.9 %
Test CRC E5B2E6CB
Copy CRC E5B2E6CB
Accurately ripped (confidence 49) [2F7DCD1F]
Copy OK

Track 14

Filename C:\Recovered Files\Audio\Spice Girls\Updates\FLAC\Spice Girls - Greatest Hits (2007)\14 - Voodoo.wav

Pre-gap length 0:00:00.38

Peak level 99.4 %
Track quality 100.0 %
Test CRC EAE99D0D
Copy CRC EAE99D0D
Accurately ripped (confidence 56) [48D28BE0]
Copy OK

Track 15

Filename C:\Recovered Files\Audio\Spice Girls\Updates\FLAC\Spice Girls - Greatest Hits (2007)\15 - Goodbye.wav

Pre-gap length 0:00:01.14

Peak level 98.0 %
Track quality 99.9 %
Test CRC 05423F1F
Copy CRC 05423F1F
Accurately ripped (confidence 47) [686C1B02]
Copy OK


All tracks accurately ripped

No errors occurred

End of status report

[CUETools log; Date: 08.11.2019 17:23:00; Version: 2.1.4]
[CTDB TOCID: nYeSUpKI6MA8rwdVcAV0I73QK2k-] found.
Track | CTDB Status
1 | (408/431) Accurately ripped
2 | (408/431) Accurately ripped
3 | (407/431) Accurately ripped
4 | (409/431) Accurately ripped
5 | (408/431) Accurately ripped
6 | (408/431) Accurately ripped
7 | (409/431) Accurately ripped
8 | (405/431) Accurately ripped
9 | (408/431) Accurately ripped
10 | (408/431) Accurately ripped
11 | (409/431) Accurately ripped
12 | (408/431) Accurately ripped
13 | (408/431) Accurately ripped
14 | (428/431) Accurately ripped
15 | (401/431) Accurately ripped
[AccurateRip ID: 001d8c85-0150542c-cd0cdc0f] found.
Track [ CRC | V2 ] Status
01 [8db70c8f|c0886cf5] (003+006/339) Accurately ripped
02 [59af3147|961f9593] (003+006/338) Accurately ripped
03 [6619570f|e54d63b4] (003+006/336) Accurately ripped
04 [4f2b0062|ec679861] (003+006/337) Accurately ripped
05 [4f147688|3926c167] (003+006/336) Accurately ripped
06 [f82c3d75|03d2a143] (003+006/334) Accurately ripped
07 [705ef432|0e27b1b4] (003+006/336) Accurately ripped
08 [d5df1ef7|1e6ce9d2] (003+006/336) Accurately ripped
09 [7fad8130|385e505a] (003+006/331) Accurately ripped
10 [ab2609e9|a9e177e4] (003+006/335) Accurately ripped
11 [ea71e431|4ade5067] (003+006/330) Accurately ripped
12 [f67f09a4|aa50c053] (003+006/333) Accurately ripped
13 [5c32db15|c271d8c1] (003+006/334) Accurately ripped
14 [895bb118|e00c5c7a] (003+006/331) Accurately ripped
15 [9319603a|f2cd7a3a] (003+006/331) Accurately ripped
Offsetted by 6:
01 [001a8a2b] (004/339) Accurately ripped
02 [6e71ddc5] (004/338) Accurately ripped
03 [3af498d5] (004/336) Accurately ripped
04 [1a2d2e1a] (004/337) Accurately ripped
05 [02e5a006] (004/336) Accurately ripped
06 [443f7fe5] (004/334) Accurately ripped
07 [f2a5d340] (004/336) Accurately ripped
08 [9d742223] (004/336) Accurately ripped
09 [f2879f16] (004/331) Accurately ripped
10 [3b9a8d8d] (004/335) Accurately ripped
11 [1e68720b] (004/330) Accurately ripped
12 [f709199a] (004/333) Accurately ripped
13 [a2a12bc3] (004/334) Accurately ripped
14 [73d8a4b0] (004/331) Accurately ripped
15 [da34f3d2] (004/331) Accurately ripped
Offsetted by 18:
01 [e4e18563] (116/339) Accurately ripped
02 [97f736c1] (115/338) Accurately ripped
03 [e4ab1c61] (114/336) Accurately ripped
04 [b031898a] (114/337) Accurately ripped
05 [6a87f302] (117/336) Accurately ripped
06 [dc6604c5] (114/334) Accurately ripped
07 [f733915c] (116/336) Accurately ripped
08 [2c9e287b] (115/336) Accurately ripped
09 [d83bdae2] (115/331) Accurately ripped
10 [5c8394d5] (114/335) Accurately ripped
11 [86558dbf] (112/330) Accurately ripped
12 [f81d3986] (113/333) Accurately ripped
13 [2f7dcd1f] (112/334) Accurately ripped
14 [48d28be0] (123/331) Accurately ripped
15 [686c1b02] (112/331) Accurately ripped
Offsetted by -646:
01 [c7348df3] (002/339) Accurately ripped
02 [f3cf5049] (002/338) Accurately ripped
03 [8b3802c9] (000/336) No match (V2 was not tested)
04 [434070aa] (002/337) Accurately ripped
05 [aec7588a] (002/336) Accurately ripped
06 [f967f705] (002/334) Accurately ripped
07 [fb3b24a4] (002/336) Accurately ripped
08 [3ade1ecb] (002/336) Accurately ripped
09 [31f198ca] (002/331) Accurately ripped
10 [ea255745] (002/335) Accurately ripped
11 [651590d7] (002/330) Accurately ripped
12 [bc6e532e] (002/333) Accurately ripped
13 [127841e7] (002/334) Accurately ripped
14 [eace9380] (002/331) Accurately ripped
15 [55d5a2a2] (002/331) Accurately ripped
Offsetted by -162:
01 [7d38cd1b] (000/339) No match (V2 was not tested)
02 [2926fffd] (000/338) No match (V2 was not tested)
03 [f2f9672d] (000/336) No match (V2 was not tested)
04 [e5f02dfa] (000/337) No match (V2 was not tested)
05 [5805163e] (000/336) No match (V2 was not tested)
06 [f2243ba5] (000/334) No match (V2 was not tested)
07 [b2e56db8] (000/336) No match (V2 was not tested)
08 [c927c953] (000/336) No match (V2 was not tested)
09 [62ac59ee] (000/331) No match (V2 was not tested)
10 [6edc279d] (000/335) No match (V2 was not tested)
11 [6f70ee33] (000/330) No match (V2 was not tested)
12 [e7ef5ab2] (000/333) No match (V2 was not tested)
13 [ee9058bb] (000/334) No match (V2 was not tested)
14 [ce2e0010] (000/331) No match (V2 was not tested)
15 [1330cf32] (000/331) No match (V2 was not tested)
Offsetted by -68:
01 [27fa27a7] (000/339) No match (V2 was not tested)
02 [1910e3b3] (000/338) No match (V2 was not tested)
03 [4f0f184b] (000/336) No match (V2 was not tested)
04 [fd124f92] (000/337) No match (V2 was not tested)
05 [59274af4] (000/336) No match (V2 was not tested)
06 [99fca1d5] (000/334) No match (V2 was not tested)
07 [5691143e] (000/336) No match (V2 was not tested)
08 [aa9ba5af] (000/336) No match (V2 was not tested)
09 [6a0583ac] (000/331) No match (V2 was not tested)
10 [45fd8b51] (000/335) No match (V2 was not tested)
11 [48324735] (000/330) No match (V2 was not tested)
12 [f06254c0] (000/333) No match (V2 was not tested)
13 [e8a5f361] (000/334) No match (V2 was not tested)
14 [27d39308] (000/331) No match (V2 was not tested)
15 [c28b822a] (000/331) No match (V2 was not tested)
Offsetted by -48:
01 [fa9b1faf] (000/339) No match (V2 was not tested)
02 [b399cd57] (000/338) No match (V2 was not tested)
03 [bf3f48df] (000/336) No match (V2 was not tested)
04 [f71992a2] (000/337) No match (V2 was not tested)
05 [b08b2a98] (000/336) No match (V2 was not tested)
06 [979229f5] (000/334) No match (V2 was not tested)
07 [5e27fbc2] (000/336) No match (V2 was not tested)
08 [99370597] (000/336) No match (V2 was not tested)
09 [e8dc9200] (000/331) No match (V2 was not tested)
10 [2781ecc9] (000/335) No match (V2 was not tested)
11 [4abd7561] (000/330) No match (V2 was not tested)
12 [f22e89f4] (000/333) No match (V2 was not tested)
13 [28c055a5] (000/334) No match (V2 was not tested)
14 [35741458] (000/331) No match (V2 was not tested)
15 [5a3cc37a] (000/331) No match (V2 was not tested)
Offsetted by -18:
01 [368c93bb] (000/339) No match (V2 was not tested)
02 [1b672bcd] (000/338) No match (V2 was not tested)
03 [e78791bd] (000/336) No match (V2 was not tested)
04 [ee24773a] (000/337) No match (V2 was not tested)
05 [33a0fa0e] (000/336) No match (V2 was not tested)
06 [13f27625] (000/334) No match (V2 was not tested)
07 [e98a5708] (000/336) No match (V2 was not tested)
08 [7f201573] (000/336) No match (V2 was not tested)
09 [271f277e] (000/331) No match (V2 was not tested)
10 [f9c87efd] (000/335) No match (V2 was not tested)
11 [4e8e3aa3] (000/330) No match (V2 was not tested)
12 [f4e0d9c2] (000/333) No match (V2 was not tested)
13 [88e7e90b] (000/334) No match (V2 was not tested)
14 [c9e4d650] (000/331) No match (V2 was not tested)
15 [bdc6a572] (000/331) No match (V2 was not tested)
Offsetted by -12:
01 [a8f01157] (000/339) No match (V2 was not tested)
02 [3029d84b] (000/338) No match (V2 was not tested)
03 [bc62d383] (000/336) No match (V2 was not tested)
04 [b926a4f2] (000/337) No match (V2 was not tested)
05 [e772238c] (000/336) No match (V2 was not tested)
06 [6005b895] (000/334) No match (V2 was not tested)
07 [6bd13616] (000/336) No match (V2 was not tested)
08 [46b5189f] (000/336) No match (V2 was not tested)
09 [99f94564] (000/331) No match (V2 was not tested)
10 [8a3d02a1] (000/335) No match (V2 was not tested)
11 [8284c87d] (000/330) No match (V2 was not tested)
12 [f56ae9b8] (000/333) No match (V2 was not tested)
13 [cf5639b9] (000/334) No match (V2 was not tested)
14 [b461c9e8] (000/331) No match (V2 was not tested)
15 [04e2390a] (000/331) No match (V2 was not tested)
Offsetted by 24:
01 [574502ff] (000/339) No match
02 [acb9e33f] (002/338) Accurately ripped
03 [b9865e27] (000/336) No match (V2 was not tested)
04 [7b33b742] (000/337) No match
05 [1e591c80] (000/336) No match
06 [28794735] (000/334) No match
07 [797a706a] (000/336) No match
08 [f4332ba7] (000/336) No match
09 [4b15f8c8] (000/331) No match
10 [ecf81879] (000/335) No match
11 [ba4c1b99] (000/330) No match
12 [f8a7497c] (000/333) No match
13 [75ec1dcd] (000/334) No match
14 [334f7f78] (000/331) No match
15 [af87ae9a] (000/331) No match

Track Peak [ CRC32 ] [W/O NULL] [ LOG ]
– 100,0 [5ECF65C3] [5F8067F4]
01 98,0 [119BFB51] [0BC8D5F0] CRC32
02 97,9 [271F7CD0] [27834940] CRC32
03 87,3 [08581156] [BB656B6F] CRC32
04 100,0 [F8D4F5D6] [ABF8ECF7] CRC32
05 87,2 [AB757FEF] [581324CC] CRC32
06 99,2 [8A175E86] [338BE746] CRC32
07 90,3 [ADB6A558] [8F1B758E] CRC32
08 88,4 [26A9C656] [C0830FB2] CRC32
09 86,3 [2C79D443] [A43D9AE3] CRC32
10 97,9 [D7D9953A] [73EC1E39] CRC32
11 91,8 [44EBEA57] [95824C75] CRC32
12 87,3 [5E1063D4] [C0057FC3] CRC32
13 89,1 [E5B2E6CB] [56A3346E] CRC32
14 99,4 [EAE99D0D] [8A4C75C3] CRC32
15 98,0 [05423F1F] [BD752738] CRC32

foobar2000 1.2 / Dynamic Range Meter 1.1.1
log date: 2019-11-08 17:11:13

––––––––––––––––––––––––––––––––––––––––
Analyzed: Spice Girls / Greatest Hits
––––––––––––––––––––––––––––––––––––––––

DR Peak RMS Duration Track
––––––––––––––––––––––––––––––––––––––––
DR7 -0.17 dB -8.67 dB 2:54 01-Wannabe
DR9 -0.18 dB -10.85 dB 3:58 02-Say You'll Be There
DR8 -1.18 dB -11.49 dB 4:04 03-2 Become 1
DR9 0.00 dB -11.17 dB 3:42 04-Mama
DR8 -1.18 dB -10.55 dB 3:46 05-Who Do You Think You Are
DR8 -0.07 dB -9.91 dB 2:44 06-Move Over
DR7 -0.88 dB -9.77 dB 2:56 07-Spice Up Your Life
DR7 -1.06 dB -9.79 dB 3:53 08-Too Much
DR7 -1.27 dB -9.98 dB 3:26 09-Stop
DR9 -0.18 dB -10.44 dB 4:14 10-Viva Forever
DR7 -0.74 dB -9.83 dB 4:16 11-Let Love Lead The Way
DR7 -1.18 dB -9.87 dB 3:57 12-Holler
DR9 -0.99 dB -11.47 dB 3:31 13-Headlines (Friendship Never Ends)
DR8 -0.05 dB -9.87 dB 3:11 14-Voodoo
DR8 -0.18 dB -10.03 dB 4:22 15-Goodbye
––––––––––––––––––––––––––––––––––––––––

Number of tracks: 15
Official DR value: DR8

Samplerate: 44100 Hz
Channels: 2
Bits per sample: 16
Bitrate: 995 kbps
Codec: FLAC
================================================================================




All thanks to original releasers

More interesting music in My Blog