Subcategories

Sonny Rollins Quartet - Tenor Madness (1956) [DCC 24 KT Gold CD, 1996]

Posted By: gribovar
Sonny Rollins Quartet - Tenor Madness (1956) [DCC 24 KT Gold CD, 1996]

Sonny Rollins Quartet - Tenor Madness (1956) [DCC 24 KT Gold CD, 1996]
EAC Rip | FLAC (image+.cue+log) - 197 MB | MP3 CBR 320 kbps (LAME 3.93) - 103 MB | Covers (19 MB) included
Genre: Jazz | RAR 3% Rec. | Label: DCC Compact Classics (GZS-1087)

At a time when he was a member of the legendary Clifford Brown/Max Roach sextet, Sonny Rollins was still the apple fallen not too far from the tree of Miles Davis. Tenor Madness was the recording that, once and for all, established Newk as one of the premier tenor saxophonists, an accolade that in retrospect, has continued through six full decades and gives an indication why a young Rollins was so well liked, as his fluency, whimsical nature, and solid construct of melodies and solos gave him the title of the next Coleman Hawkins or Lester Young of mainstream jazz. With the team of pianist Red Garland, bassist Paul Chambers, and drummer Philly Joe Jones, staples of that era's Miles Davis combos, Rollins has all the rhythmic ammunition to cut loose, be free, and extrapolate on themes as only he could, and still can. This is most evident on his version of "The Most Beautiful Girl in the World," started in its normal choppy waltz time, followed by a sax/drums prelude, a drum solo from Jones, and steamed from there on in, a hot 4/4 romp. Garland is particularly outstanding for keeping up the pace, depth and placement on this one. A bluesy version of "When Your Lover Has Gone," again enlivened by Jones, and the legendary title track with Rollins and John Coltrane trading long solos, and fours with Jones, are tunes that in the mid-'50s defined the parlance "blowing session." "Paul's Pal," in tribute to Chambers, has become a standard in its own right with a bright, memorable melody showing the good humor of Rollins, especially on the second time through, while the saxophonist's ability to sing vocal like tones through his horn is no better evinced as during the light ballad "My Reverie." A recording that should stand proudly alongside Saxophone Colossus as some of the best work of Sonny Rollins in his early years, it's also a testament to the validity, vibrancy, and depth of modern jazz in the post-World War era.
Tracklist:
01. Tenor Madness
02. When Your Lover Has Gone
03. Paul's Pal
04. My Reverie
05. The Most Beautiful Girl in the World

Total time: 35:37

Exact Audio Copy V0.99 prebeta 3 from 28. July 2007

EAC extraction logfile from 6. October 2007, 13:57

Sonny Rollins Quartet / Tenor Madness (DCC Gold)

Used drive : PLEXTOR DVDR PX-755A Adapter: 3 ID: 0

Read mode : Secure
Utilize accurate stream : Yes
Defeat audio cache : Yes
Make use of C2 pointers : No

Read offset correction : 30
Overread into Lead-In and Lead-Out : Yes
Fill up missing offset samples with silence : Yes
Delete leading and trailing silent blocks : No
Null samples used in CRC calculations : Yes
Used interface : Installed external ASPI interface

Used output format : Internal WAV Routines
Sample format : 44.100 Hz; 16 Bit; Stereo


TOC of the extracted CD

Track | Start | Length | Start sector | End sector
––––––––––––––––––––––––––––-
1 | 0:00.00 | 12:17.64 | 0 | 55338
2 | 12:17.64 | 6:14.06 | 55339 | 83394
3 | 18:31.70 | 5:14.55 | 83395 | 106999
4 | 23:46.50 | 6:12.10 | 107000 | 134909
5 | 29:58.60 | 5:38.17 | 134910 | 160276


Range status and errors

Selected range

Filename E:\_NL\Sonny Rollins Quartet - Tenor Madness (DCC Gold).wav

Peak level 100.0 %
Range quality 100.0 %
Copy CRC A19DCA18
Copy OK

No errors occurred


AccurateRip summary

Track 1 accurately ripped (confidence 1) [83E9ECEF]
Track 2 accurately ripped (confidence 1) [4110A26A]
Track 3 accurately ripped (confidence 1) [CC6B5EB0]
Track 4 accurately ripped (confidence 1) [6082EB98]
Track 5 accurately ripped (confidence 1) [6BCB1E6A]

All tracks accurately ripped

End of status report

[CUETools log; Date: 15.03.2019 16:46:13; Version: 2.1.4]
[CTDB TOCID: PpL4hb_qC3LU_rTyixzerRS.riQ-] found.
Track | CTDB Status
1 | (17/20) Accurately ripped
2 | (18/20) Accurately ripped
3 | (20/20) Accurately ripped
4 | (20/20) Accurately ripped
5 | (20/20) Accurately ripped
[AccurateRip ID: 000840f9-002500f4-33085905] found.
Track [ CRC | V2 ] Status
01 [83e9ecef|9d1788d0] (10+15/25) Accurately ripped
02 [4110a26a|dda31884] (10+16/26) Accurately ripped
03 [cc6b5eb0|377d214c] (10+16/26) Accurately ripped
04 [6082eb98|4784e80b] (10+16/26) Accurately ripped
05 [6bcb1e6a|66ece390] (10+15/25) Accurately ripped

Track Peak [ CRC32 ] [W/O NULL] [ LOG ]
– 100,0 [A19DCA18] [22AFA1AE] CRC32
01 100,0 [5A313441] [D52DD1C5]
02 100,0 [49A4CD84] [D36C58D8]
03 99,9 [5BF4B9CE] [6A0AA964]
04 85,8 [EC3DB442] [B47C30B9]
05 99,7 [B0297334] [6F8F0A5E]

Thanks to yury_usa

See also: