Subcategories

SnakeyeS - Metal Monster (2017)

Posted By: Andi_Deris
SnakeyeS - Metal Monster (2017)

SnakeyeS - Metal Monster (2017)
EAC Rip | FLAC: Image+Cue+Log | 435 Mb | MP3 CBR 320 kbps | 138 Mb | Scans | 29 Mb | 55:59
Rock CD Records | RCDR2100
Heavy Metal

Many influences from Judas Priest, Now Or Never, Manowar, Paragon, Nightmare…you will find endless influences that SnakeyeS is inspired by to give such a brilliant album. Cosmin Aionita has the voice of the future of heavy metal. It’s like the perfect mix of Rob Halford and U.D.O. with the intensity of Ralf Scheepers. Every song highlights the awesomeness of his range and obvious dedication to his craft. The guitar work is second to none with ripping shred solos and heavy as hell riffs.

SnakeyeS - Metal Monster (2017)




Track Listing

01. Into The Unknown (04:17)
02. Evolution (04:43)
03. (Point Of) No Return (04:47)
04. Cyberkiller (05:11)
05. Metal Monster (04:53)
06. Edge Of The World (04:24)
07. Sign Of Death (05:20)
08. Facing The Darkness (04:42)
09. Your Own Shadow (04:13)
10. Circus Of Fools (05:12)
11. Rise Up (The Red Plague) (08:16)

Produced by José Pineda

The Band

• Cosmin Aioniţă - Vocals
• José Pineda - Bass
• Justi Bala - Rhythm and Lead Guitars
• Carlos Delgado - Drums

Exact Audio Copy V1.3 from 2. September 2016

EAC extraction logfile from 10. January 2018, 11:24

Snakeyes / Metal Monster

Used drive : ATAPI iHAS122 W Adapter: 2 ID: 0

Read mode : Secure
Utilize accurate stream : Yes
Defeat audio cache : Yes
Make use of C2 pointers : No

Read offset correction : 48
Overread into Lead-In and Lead-Out : No
Fill up missing offset samples with silence : Yes
Delete leading and trailing silent blocks : No
Null samples used in CRC calculations : Yes
Used interface : Installed external ASPI interface

Used output format : User Defined Encoder
Selected bitrate : 1024 kBit/s
Quality : High
Add ID3 tag : No
Command line compressor : C:\Program Files\FLAC\flac.exe
Additional command line options : -V -8 -T "Date=%year%" -T "Genre=%genre%" -T"COMMENT=Ripped by Ilijan" -8 -V %source%


TOC of the extracted CD

Track | Start | Length | Start sector | End sector
––––––––––––––––––––––––––––-
1 | 0:00.00 | 4:17.20 | 0 | 19294
2 | 4:17.20 | 4:43.10 | 19295 | 40529
3 | 9:00.30 | 4:47.21 | 40530 | 62075
4 | 13:47.51 | 5:10.55 | 62076 | 85380
5 | 18:58.31 | 4:53.18 | 85381 | 107373
6 | 23:51.49 | 4:24.24 | 107374 | 127197
7 | 28:15.73 | 5:20.02 | 127198 | 151199
8 | 33:36.00 | 4:42.18 | 151200 | 172367
9 | 38:18.18 | 4:12.62 | 172368 | 191329
10 | 42:31.05 | 5:11.49 | 191330 | 214703
11 | 47:42.54 | 8:15.53 | 214704 | 251881


Range status and errors

Selected range

Filename D:\Snakeyes - Metal Monster.wav

Peak level 99.0 %
Extraction speed 3.1 X
Range quality 100.0 %
Test CRC FE558118
Copy CRC FE558118
Copy OK

No errors occurred


AccurateRip summary

Track 1 not present in database
Track 2 not present in database
Track 3 not present in database
Track 4 not present in database
Track 5 not present in database
Track 6 not present in database
Track 7 not present in database
Track 8 not present in database
Track 9 not present in database
Track 10 not present in database
Track 11 not present in database

None of the tracks are present in the AccurateRip database

End of status report

–– CUETools DB Plugin V2.1.6

[CTDB TOCID: J7moj8Dum4a0d38SwrqkLgMGwcw-] found
Submit result: J7moj8Dum4a0d38SwrqkLgMGwcw- has been confirmed
Track | CTDB Status
1 | (2/2) Accurately ripped
2 | (2/2) Accurately ripped
3 | (2/2) Accurately ripped
4 | (2/2) Accurately ripped
5 | (2/2) Accurately ripped
6 | (2/2) Accurately ripped
7 | (2/2) Accurately ripped
8 | (2/2) Accurately ripped
9 | (2/2) Accurately ripped
10 | (2/2) Accurately ripped
11 | (2/2) Accurately ripped


==== Log checksum 768E8C8349174865833772EA8026DEBF52D17BE00A5CF98618AEA489742ACC6B ====


Many thanks to the original uploader: Ilijan

SEE also:
SnakeyeS 2015 Ultimate Sin



Password: pass