Subcategories

Siouxsie And The Banshees - Twice Upon A Time: The Singles (1992)

Posted By: Designol
Siouxsie And The Banshees - Twice Upon A Time: The Singles (1992)

Siouxsie & The Banshees - Twice Upon A Time: The Singles (1992)
EAC | FLAC | Image (Cue&Log) ~ 498 Mb | Mp3 (CBR320) ~ 185 Mb | Scans included | 01:16:00
Post Punk, Goth Rock, New Wave, Alternative Rock | Label: Polydor | # 517 160-2

Siouxsie Sioux has always maintained that it was not her intention to create the goth rock movement. While that lofty statement may be a little self-serving, it's partly right. The Banshees' post-1982 singles (documented in entirety on Twice Upon a Time) have a lush and expansive sound that directly influenced the goth sound. From the opening of "Fireworks" it is immediately apparent that Siouxsie and the Banshees were growing up. By the time of "Peek-a-Boo," the band had learned how to incorporate its early dissonance with its majestic, late-'80s sound. The Twice Upon a Time collection is one great step after another, with the only drawback being a poor remix of 1991's "Fear of the Unknown." A solid introduction for the unknowing.

Review by Chris True, Allmusic.com

Siouxsie And The Banshees - Twice Upon A Time: The Singles (1992)



Tracklist:

01. Fireworks (04:23)
02. Slowdive (04:18)
03. Melt! (03:47)
04. Dear Prudence (03:51)
05. Swimming Horses (04:04)
06. Dazzle (05:30)
07. Overground (03:51)
08. Cities In Dust (04:07)
09. Candyman (03:43)
10. This Wheel's On Fire (04:03)
11. The Passenger (04:09)
12. Peek-A-Boo (03:10)
13. The Killing Jar (03:59)
14. The Last Beat Of My Heart (05:26)
15. Kiss Them For Me (04:29)
16. Shadowtime (04:20)
17. Fear (Of The Unknown) (04:19)
18. Face To Face (04:23)


Exact Audio Copy V0.99 prebeta 4 from 23. January 2008

EAC extraction logfile from 27. May 2009, 12:37

Siouxsie and the Banshees / Twice Upon a Time - The Singles

Used drive : PIONEER DVD-RW DVR-115D Adapter: 4 ID: 0

Read mode : Secure
Utilize accurate stream : Yes
Defeat audio cache : Yes
Make use of C2 pointers : No

Read offset correction : 48
Overread into Lead-In and Lead-Out : No
Fill up missing offset samples with silence : Yes
Delete leading and trailing silent blocks : No
Null samples used in CRC calculations : Yes
Used interface : Installed external ASPI interface

Used output format : User Defined Encoder
Selected bitrate : 1024 kBit/s
Quality : High
Add ID3 tag : No
Command line compressor : C:\Program Files\Exact Audio Copy\Flac\flac.exe
Additional command line options : -8 -A tukey(0.25) -A gauss(0.1875) -b 4096 -V -T "artist=%a" -T "title=%t" -T "album=%g" -T "date=%y" -T "tracknumber=%n" -T "genre=%m" %s –sector-align


TOC of the extracted CD

Track | Start | Length | Start sector | End sector
––––––––––––––––––––––––––––-
1 | 0:00.33 | 4:23.00 | 33 | 19757
2 | 4:23.33 | 4:18.22 | 19758 | 39129
3 | 8:41.55 | 3:47.65 | 39130 | 56219
4 | 12:29.45 | 3:51.05 | 56220 | 73549
5 | 16:20.50 | 4:04.45 | 73550 | 91894
6 | 20:25.20 | 5:30.13 | 91895 | 116657
7 | 25:55.33 | 3:51.37 | 116658 | 134019
8 | 29:46.70 | 4:07.38 | 134020 | 152582
9 | 33:54.33 | 3:43.62 | 152583 | 169369
10 | 37:38.20 | 4:03.38 | 169370 | 187632
11 | 41:41.58 | 4:09.00 | 187633 | 206307
12 | 45:50.58 | 3:10.25 | 206308 | 220582
13 | 49:01.08 | 3:59.00 | 220583 | 238507
14 | 53:00.08 | 5:26.62 | 238508 | 263019
15 | 58:26.70 | 4:29.25 | 263020 | 283219
16 | 62:56.20 | 4:20.38 | 283220 | 302757
17 | 67:16.58 | 4:19.62 | 302758 | 322244
18 | 71:36.45 | 4:23.63 | 322245 | 342032


Range status and errors

Selected range

Filename D:\REQUEST\Siouxsie & The Banshees - 1992 - Twice Upon A Time - The Singles\Siouxsie and the Banshees - Twice Upon a Time - The Singles.wav

Peak level 100.0 %
Range quality 100.0 %
Test CRC EBA5B89D
Copy CRC EBA5B89D
Copy OK

No errors occurred


AccurateRip summary

Track 1 accurately ripped (confidence 29) [3D9FBAF8]
Track 2 accurately ripped (confidence 29) [75326572]
Track 3 accurately ripped (confidence 29) [C3E253D3]
Track 4 accurately ripped (confidence 29) [CC85695F]
Track 5 accurately ripped (confidence 29) [A453B764]
Track 6 accurately ripped (confidence 29) [7F719E1E]
Track 7 accurately ripped (confidence 29) [B66D46AA]
Track 8 accurately ripped (confidence 29) [6F313CB0]
Track 9 accurately ripped (confidence 29) [70C5D788]
Track 10 accurately ripped (confidence 29) [09AB4097]
Track 11 accurately ripped (confidence 29) [58B8BEC2]
Track 12 accurately ripped (confidence 29) [B09FC5E2]
Track 13 accurately ripped (confidence 29) [086B424F]
Track 14 accurately ripped (confidence 28) [F8D5651C]
Track 15 accurately ripped (confidence 29) [B17C4E87]
Track 16 accurately ripped (confidence 29) [06C470DA]
Track 17 accurately ripped (confidence 29) [946C546D]
Track 18 accurately ripped (confidence 29) [BC16C35D]

All tracks accurately ripped

End of status report

[CUETools log; Date: 11.10.2018 18:27:37; Version: 2.1.4]
Pregap length 00:00:33.
[CTDB TOCID: ypRwbfrvFCejIe1rakMoZWqkGJA-] found.
Track | CTDB Status
1 | (135/136) Accurately ripped
2 | (135/136) Accurately ripped
3 | (136/136) Accurately ripped
4 | (136/136) Accurately ripped
5 | (136/136) Accurately ripped
6 | (133/136) Accurately ripped
7 | (136/136) Accurately ripped
8 | (136/136) Accurately ripped
9 | (136/136) Accurately ripped
10 | (134/136) Accurately ripped
11 | (136/136) Accurately ripped
12 | (133/136) Accurately ripped
13 | (134/136) Accurately ripped
14 | (136/136) Accurately ripped
15 | (136/136) Accurately ripped
16 | (133/136) Accurately ripped
17 | (115/136) Accurately ripped
18 | (133/136) Accurately ripped
[AccurateRip ID: 00312045-028efeb1-0e11d012] found.
Track [ CRC | V2 ] Status
01 [3d9fbaf8|e92086af] (054+071/159) Accurately ripped
02 [75326572|db0f2963] (055+071/160) Accurately ripped
03 [c3e253d3|e083d8aa] (054+071/160) Accurately ripped
04 [cc85695f|a7515c30] (053+070/158) Accurately ripped
05 [a453b764|536d2336] (054+069/158) Accurately ripped
06 [7f719e1e|2cdbd684] (055+066/156) Accurately ripped
07 [b66d46aa|ab8d478f] (054+068/157) Accurately ripped
08 [6f313cb0|a73e543b] (055+070/160) Accurately ripped
09 [70c5d788|e64cd7bb] (054+067/156) Accurately ripped
10 [09ab4097|366872ed] (055+068/158) Accurately ripped
11 [58b8bec2|f867d3b6] (055+069/159) Accurately ripped
12 [b09fc5e2|07392f3f] (055+068/158) Accurately ripped
13 [086b424f|b757d4f4] (054+070/159) Accurately ripped
14 [f8d5651c|79f2f809] (053+069/156) Accurately ripped
15 [b17c4e87|6973b037] (054+068/157) Accurately ripped
16 [06c470da|cfbd39a7] (054+068/157) Accurately ripped
17 [946c546d|c6a5a5bd] (049+059/143) Accurately ripped
18 [bc16c35d|10c607f7] (053+064/153) Accurately ripped
Offsetted by -2140:
01 [0a0a96fc] (004/159) Accurately ripped
02 [79442cb2] (004/160) Accurately ripped
03 [e780e30b] (005/160) Accurately ripped
04 [72acca97] (005/158) Accurately ripped
05 [4cbac44e] (005/158) Accurately ripped
06 [db51f84c] (005/156) Accurately ripped
07 [6d23b9e6] (005/157) Accurately ripped
08 [c7248d58] (005/160) Accurately ripped
09 [824fa9ec] (005/156) Accurately ripped
10 [0a612097] (005/158) Accurately ripped
11 [2958c71a] (005/159) Accurately ripped
12 [99aca052] (005/158) Accurately ripped
13 [1215df15] (005/159) Accurately ripped
14 [0d1ef57e] (004/156) Accurately ripped
15 [714336f7] (005/157) Accurately ripped
16 [adaa08b2] (005/157) Accurately ripped
17 [33f0fe91] (005/143) Accurately ripped
18 [ff1d73ef] (005/153) Accurately ripped
Offsetted by -124:
01 [79cc33dc] (000/159) No match (V2 was not tested)
02 [4ad882b2] (000/160) No match (V2 was not tested)
03 [3c9dff4b] (000/160) No match (V2 was not tested)
04 [a9a5d6d7] (000/158) No match (V2 was not tested)
05 [3e3e8980] (000/158) No match (V2 was not tested)
06 [d0a4979e] (000/156) No match (V2 was not tested)
07 [03ffc8ec] (000/157) No match (V2 was not tested)
08 [94a7b78a] (000/160) No match (V2 was not tested)
09 [e9e4cbcc] (000/156) No match (V2 was not tested)
10 [d04a2097] (000/158) No match (V2 was not tested)
11 [7f9b425a] (000/159) No match (V2 was not tested)
12 [441bf8d2] (000/158) No match (V2 was not tested)
13 [64de603f] (000/159) No match (V2 was not tested)
14 [c7601184] (000/156) No match (V2 was not tested)
15 [b1979f77] (000/157) No match (V2 was not tested)
16 [8be467f2] (000/157) No match (V2 was not tested)
17 [9cb59271] (000/143) No match (V2 was not tested)
18 [ebc4599f] (000/153) No match (V2 was not tested)

Track Peak [ CRC32 ] [W/O NULL] [ LOG ]
– 100,0 [EBA5B89D] [8B79695E] CRC32
01 91,5 [3A870499] [648D224E]
02 98,8 [D0C4306E] [010498C2]
03 92,1 [355FC1F2] [E7097735]
04 100,0 [A84E0914] [CB4FAFC4]
05 91,2 [CE0575C3] [21054470]
06 99,9 [8B8D714D] [F985E44F]
07 98,8 [7C17B50E] [B2D93A50]
08 100,0 [D75A0365] [E3917C22]
09 100,0 [10EA73D6] [63008FC3]
10 98,8 [801D93B3] [B0641AC8]
11 100,0 [18E305C3] [B72D0F76]
12 100,0 [623C4D0D] [B16EF304]
13 100,0 [C0C63E52] [362783FC]
14 83,8 [428FB0E3] [926B78CD]
15 100,0 [E1300EAA] [B68D326E]
16 100,0 [0559CDAF] [2155F12B]
17 80,3 [DBA9DF7C] [3E7077DE]
18 100,0 [11E4D2F6] [DAE2F0FB]

foobar2000 1.2 / Dynamic Range Meter 1.1.1
log date: 2018-10-11 18:25:18

––––––––––––––––––––––––––––––––––––––––
Analyzed: Siouxsie and the Banshees / Twice Upon a Time - The Singles
––––––––––––––––––––––––––––––––––––––––

DR Peak RMS Duration Track
––––––––––––––––––––––––––––––––––––––––
DR11 -0.77 dB -14.58 dB 4:23 01-Fireworks
DR12 -0.10 dB -14.45 dB 4:18 02-Slowdive
DR11 -0.71 dB -14.13 dB 3:48 03-Melt!
DR12 0.00 dB -13.79 dB 3:51 04-Dear Prudence
DR12 -0.79 dB -14.57 dB 4:05 05-Swimming Horses
DR12 0.00 dB -14.67 dB 5:30 06-Dazzle
DR13 -0.10 dB -16.85 dB 3:51 07-Overground
DR13 0.00 dB -14.44 dB 4:08 08-Cities in Dust
DR13 0.00 dB -14.48 dB 3:44 09-Candyman
DR13 -0.10 dB -15.63 dB 4:04 10-This Wheel's on Fire
DR13 0.00 dB -15.86 dB 4:09 11-The Passenger
DR14 0.00 dB -16.38 dB 3:10 12-Peek-A-Boo
DR13 0.00 dB -14.61 dB 3:59 13-The Killing Jar
DR12 -1.53 dB -17.05 dB 5:27 14-The Last Beat of My Heart
DR14 0.00 dB -16.28 dB 4:29 15-Kiss Them for Me
DR14 0.00 dB -15.66 dB 4:21 16-Shadowtime
DR14 -1.90 dB -17.65 dB 4:20 17-Fear (of the Unknown)
DR15 0.00 dB -17.85 dB 4:24 18-Face to Face
––––––––––––––––––––––––––––––––––––––––

Number of tracks: 18
Official DR value: DR13

Samplerate: 44100 Hz
Channels: 2
Bits per sample: 16
Bitrate: 895 kbps
Codec: FLAC
================================================================================

Siouxsie And The Banshees - Twice Upon A Time: The Singles (1992)

Siouxsie And The Banshees - Twice Upon A Time: The Singles (1992)