Subcategories
Please register here if you want to download anything!

If domain in your address bar is different from the list below
PLEASE LEAVE THAT SITE IMMEDIATELY
❗IT'S A DANGEROUS FAKE❗



Spicy Magazines for Men! ;-)

Siena Root - Kaleidoscope (2006)

Posted By: popsakov
Siena Root - Kaleidoscope (2006)

Siena Root - Kaleidoscope (2006)
EAC Rip | FLAC (Img) + Cue + Log ~ 367 Mb | MP3 CBR320 ~ 139 Mb
Full Scans | RAR 5% Recovery
Blues Rock, Psychedelic Rock, Stoner Rock | Nasoni Records #Nasoni049CD

Siena Root is group well known for its rainbow spectra of appearances, its many great guest artists, its broad musical range and its unique interpretations of classic rock music. Six full length studio albums, one double live album, one DVD and three 7” singles have been released so far, each one marking the development and refinement of the bands spectra of music style. Siena Root came to life in Stockholm in the late 90’s and is today considered one of the pioneering Swedish bands in old school rock music.

The live act came to be an uncompromising show, using all the heavy vintage equipment that most bands lack the strength and passion to carry along. Even a full size multi-track tape recorder was brought all over Europe during the recording of their live album. With the immense dedication to do it all the way, Siena Root would always stand out from the others. A Siena Root concert is dramatic and exciting, visually, as well as emotionally. It's a dynamic root rock experience.

But why Siena Root? In the sense that blues is blue, hard rock is black, and reggae is pan African coloured, this music has the colour of siena. It is a warm colour, originally from the muddy roots of the earth. Because this sound has roots that go deep, it was also natural to let root be a part of the bands name.

***************

Siena Root - Kaleidoscope (2006)

Track List:

01. Good and bad [07:57]
02. Nightstalker [04:36]
03. Blues 276 [03:46]
04. Bhairavi Dhun [09:11]
05. Crossing the stratosphere [04:15]
06. There and back again [03:32]
07. Ridin' slow [06:02]
08. Reverberations [11:49]

Personnel:
Sanya - lead vocals
KG West - lead guitar, organ, sitar, Rhodes, Mellotron
Sam Riffer - bass, percussion, vocals, double bass
Love H Forsberg - drums, percussion
Anna Sandberg - flute
Anurag Choudhari - Bansuri
Tangman - Hurdy Gurdy

Exact Audio Copy V0.99 prebeta 5 from 4. May 2009

EAC extraction logfile from 21. December 2009, 17:27

Siena Root / Kaleidoscope

Used drive : _NEC DVD_RW ND-3520A Adapter: 1 ID: 0

Read mode : Secure
Utilize accurate stream : Yes
Defeat audio cache : Yes
Make use of C2 pointers : No

Read offset correction : 48
Overread into Lead-In and Lead-Out : No
Fill up missing offset samples with silence : Yes
Delete leading and trailing silent blocks : No
Null samples used in CRC calculations : Yes
Used interface : Installed external ASPI interface

Used output format : Internal WAV Routines
Sample format : 44.100 Hz; 16 Bit; Stereo


TOC of the extracted CD

Track | Start | Length | Start sector | End sector
––––––––––––––––––––––––––––-
1 | 0:00.00 | 7:56.29 | 0 | 35728
2 | 7:56.29 | 4:35.20 | 35729 | 56373
3 | 12:31.49 | 3:45.05 | 56374 | 73253
4 | 16:16.54 | 9:10.62 | 73254 | 114565
5 | 25:27.41 | 4:14.17 | 114566 | 133632
6 | 29:41.58 | 3:31.10 | 133633 | 149467
7 | 33:12.68 | 6:01.32 | 149468 | 176574
8 | 39:14.25 | 11:48.42 | 176575 | 229716


Range status and errors

Selected range

Filename C:\blog\upload\000\Siena Root - Kaleidoscope\Siena Root - Kaleidoscope.wav

Peak level 100.0 %
Range quality 99.9 %
Copy CRC E01A3909
Copy OK

No errors occurred


AccurateRip summary

Track 1 accurately ripped (confidence 1) [85A68626]
Track 2 accurately ripped (confidence 1) [3FD2BFB7]
Track 3 accurately ripped (confidence 1) [D1EEDC6E]
Track 4 accurately ripped (confidence 1) [DFD5134F]
Track 5 accurately ripped (confidence 1) [FAE3492F]
Track 6 accurately ripped (confidence 1) [FC62EC2A]
Track 7 accurately ripped (confidence 1) [4B53D5DC]
Track 8 accurately ripped (confidence 1) [B7BC7810]

All tracks accurately ripped

End of status report

[CUETools log; Date: 11.02.2019 23:12:44; Version: 2.1.6]
[CTDB TOCID: 5ObUOZytvJ_nMLL0b5m_1fXxad8-] found.
Track | CTDB Status
1 | (10/10) Accurately ripped
2 | (10/10) Accurately ripped
3 | (10/10) Accurately ripped
4 | (10/10) Accurately ripped
5 | (10/10) Accurately ripped
6 | (10/10) Accurately ripped
7 | (10/10) Accurately ripped
8 | (10/10) Accurately ripped
[AccurateRip ID: 000eca64-00622efa-870bf608] found.
Track [ CRC | V2 ] Status
01 [85a68626|130514dd] (4+4/8) Accurately ripped
02 [3fd2bfb7|2e129b0b] (4+4/8) Accurately ripped
03 [d1eedc6e|6c85d061] (4+4/8) Accurately ripped
04 [dfd5134f|cd402391] (4+5/9) Accurately ripped
05 [fae3492f|9bf98359] (4+4/8) Accurately ripped
06 [fc62ec2a|150ee5b1] (4+5/9) Accurately ripped
07 [4b53d5dc|167010ca] (4+4/8) Accurately ripped
08 [b7bc7810|e90aba11] (4+5/9) Accurately ripped

Track Peak [ CRC32 ] [W/O NULL] [ LOG ]
– 100,0 [E01A3909] [2A084E21] CRC32
01 98,8 [DB35D7E0] [73E0EF55]
02 98,8 [BA0C55DB] [A01102BF]
03 98,8 [516E85E8] [59E5DD08]
04 98,8 [A01358A8] [130348E9]
05 98,8 [68CC1628] [F10F91CC]
06 100,0 [CF8FACC3] [4E3DF7A1]
07 98,8 [EA0D1680] [A02FF21E]
08 98,8 [E7B60798] [A87286F7]

Siena Root - Kaleidoscope (2006)

All thanks go to Lom404

>>> My Blog <<<

Download from icerbox.com: