Subcategories
Tags
Language
Tags

Shaun Aston - Zen Relaxation (2007)

Posted By: gribovar
Shaun Aston - Zen Relaxation (2007)

Shaun Aston - Zen Relaxation (2007)
EAC Rip | FLAC (tracks+.cue+log) - 305 MB | MP3 CBR 320 kbps (LAME 3.93) - 146 MB | Covers - 63 MB
Genre: New Age | RAR 3% Rec. | Label: DA Music (CD 873089-2), InBalance Series

Unless you are lucky enough to be able to escape to a tropical island at the drop of a hat, learning how to deal with stress in a positive way is more important than ever. Zen can help with the stressful gap between wanting things and how things actually are in our life. Zen is about living in the present with complete awareness. Zen can teach us how to live without too much attachment to the outcome of our actions. This does not mean that we are uncaring or do not plan for our life, or that we don't have some general intention or goal in mind. Contrary to this misconception, it actually means that we become very interested in the quality and state of our mind when we do things.
Tracklist:
01. Breathing Silence
02. Mindfulness
03. Knowing And Being
04. The Tao Flows
05. Silence Between Thoughts
06. In Time Suspended
07. Quiet Heart
08. Zen Peace
09. Sun And Moon
10. Buddha Trance

Total time: 01:01:58

Exact Audio Copy V1.0 beta 1 from 15. November 2010

EAC extraction logfile from 20. September 2015, 15:38

Shaun Aston / Zen Relaxation

Used drive : Optiarc DVD RW AD-5200A Adapter: 0 ID: 1

Read mode : Secure
Utilize accurate stream : Yes
Defeat audio cache : Yes
Make use of C2 pointers : No

Read offset correction : 48
Overread into Lead-In and Lead-Out : No
Fill up missing offset samples with silence : Yes
Delete leading and trailing silent blocks : No
Null samples used in CRC calculations : Yes
Used interface : Installed external ASPI interface
Gap handling : Appended to previous track

Used output format : User Defined Encoder
Selected bitrate : 192 kBit/s
Quality : High
Add ID3 tag : No
Command line compressor : C:\Program Files\Exact Audio Copy\Flac\flac.exe
Additional command line options : -8 -V -T "ARTIST=%a" -T "TITLE=%t" -T "ALBUM=%g" -T "DATE=%y" -T "TRACKNUMBER=%n" -T "GENRE=%m" -T "COMMENT=EAC FLAC -8" %s


TOC of the extracted CD

Track | Start | Length | Start sector | End sector
––––––––––––––––––––––––––––-
1 | 0:00.00 | 6:30.08 | 0 | 29257
2 | 6:30.08 | 6:41.04 | 29258 | 59336
3 | 13:11.12 | 6:43.18 | 59337 | 89579
4 | 19:54.30 | 6:16.67 | 89580 | 117846
5 | 26:11.22 | 5:00.66 | 117847 | 140412
6 | 31:12.13 | 6:40.61 | 140413 | 170473
7 | 37:52.74 | 6:03.30 | 170474 | 197728
8 | 43:56.29 | 5:45.30 | 197729 | 223633
9 | 49:41.59 | 6:12.09 | 223634 | 251542
10 | 55:53.68 | 6:04.04 | 251543 | 278846


Track 1

Filename I:\music\newage\flac\0_inbalance\Zen Relaxation\01-Shaun Aston - Breathing Silence.wav

Pre-gap length 0:00:02.00

Peak level 83.0 %
Extraction speed 2.6 X
Track quality 100.0 %
Test CRC 8F74BED6
Copy CRC 8F74BED6
Track not present in AccurateRip database
Copy OK

Track 2

Filename I:\music\newage\flac\0_inbalance\Zen Relaxation\02-Shaun Aston - Mindfulness.wav

Pre-gap length 0:00:02.00

Peak level 71.2 %
Extraction speed 3.0 X
Track quality 100.0 %
Test CRC E4953923
Copy CRC E4953923
Track not present in AccurateRip database
Copy OK

Track 3

Filename I:\music\newage\flac\0_inbalance\Zen Relaxation\03-Shaun Aston - Knowing And Being.wav

Pre-gap length 0:00:02.00

Peak level 70.6 %
Extraction speed 3.4 X
Track quality 100.0 %
Test CRC 0C22E4FE
Copy CRC 0C22E4FE
Track not present in AccurateRip database
Copy OK

Track 4

Filename I:\music\newage\flac\0_inbalance\Zen Relaxation\04-Shaun Aston - The Tao Flows.wav

Pre-gap length 0:00:01.00

Peak level 81.9 %
Extraction speed 3.4 X
Track quality 99.9 %
Test CRC DA965DB0
Copy CRC DA965DB0
Track not present in AccurateRip database
Copy OK

Track 5

Filename I:\music\newage\flac\0_inbalance\Zen Relaxation\05-Shaun Aston - Silence Between Thoughts.wav

Pre-gap length 0:00:02.00

Peak level 67.9 %
Extraction speed 3.4 X
Track quality 100.0 %
Test CRC 3D7EA901
Copy CRC 3D7EA901
Track not present in AccurateRip database
Copy OK

Track 6

Filename I:\music\newage\flac\0_inbalance\Zen Relaxation\06-Shaun Aston - In Time Suspended.wav

Pre-gap length 0:00:02.00

Peak level 84.6 %
Extraction speed 3.3 X
Track quality 99.9 %
Test CRC 3CAE74C9
Copy CRC 3CAE74C9
Track not present in AccurateRip database
Copy OK

Track 7

Filename I:\music\newage\flac\0_inbalance\Zen Relaxation\07-Shaun Aston - Quiet Heart.wav

Pre-gap length 0:00:01.00

Peak level 86.8 %
Extraction speed 3.7 X
Track quality 100.0 %
Test CRC 1D5F73F2
Copy CRC 1D5F73F2
Track not present in AccurateRip database
Copy OK

Track 8

Filename I:\music\newage\flac\0_inbalance\Zen Relaxation\08-Shaun Aston - Zen Peace.wav

Pre-gap length 0:00:01.49

Peak level 84.0 %
Extraction speed 3.7 X
Track quality 100.0 %
Test CRC 9329DA67
Copy CRC 9329DA67
Track not present in AccurateRip database
Copy OK

Track 9

Filename I:\music\newage\flac\0_inbalance\Zen Relaxation\09-Shaun Aston - Sun And Moon.wav

Pre-gap length 0:00:02.00

Peak level 96.6 %
Extraction speed 3.7 X
Track quality 100.0 %
Test CRC 0EE3AF68
Copy CRC 0EE3AF68
Track not present in AccurateRip database
Copy OK

Track 10

Filename I:\music\newage\flac\0_inbalance\Zen Relaxation\10-Shaun Aston - Buddha Trance.wav

Pre-gap length 0:00:01.00

Peak level 76.7 %
Extraction speed 3.7 X
Track quality 100.0 %
Test CRC 0D4A6370
Copy CRC 0D4A6370
Track not present in AccurateRip database
Copy OK


None of the tracks are present in the AccurateRip database

No errors occurred

End of status report

==== Log checksum 7B82C83B434E0B018B2C4490A31ADD09F591EFC977A44BF379F1E9F7EEDA97F1 ====

[CUETools log; Date: 03.05.2021 12:25:29; Version: 2.1.4]
[CTDB TOCID: 4291mzrXJr43Awyidu4rDeiDfA8-] found.
Track | CTDB Status
1 | (2/2) Accurately ripped
2 | (2/2) Accurately ripped
3 | (2/2) Accurately ripped
4 | (2/2) Accurately ripped
5 | (2/2) Accurately ripped
6 | (2/2) Accurately ripped
7 | (2/2) Accurately ripped
8 | (2/2) Accurately ripped
9 | (2/2) Accurately ripped
10 | (2/2) Accurately ripped
[AccurateRip ID: 0017c886-00bd2a6c-a00e850a] disk not present in database.

Track Peak [ CRC32 ] [W/O NULL] [ LOG ]
– 96,6 [2A46AA03] [73DA07B1]
01 83,0 [8F74BED6] [DE340846] CRC32
02 71,2 [E4953923] [48D8D5DB] CRC32
03 70,6 [0C22E4FE] [F65046A0] CRC32
04 81,9 [DA965DB0] [DE709ABF] CRC32
05 67,9 [3D7EA901] [40E44537] CRC32
06 84,6 [3CAE74C9] [2F082606] CRC32
07 86,8 [1D5F73F2] [518523B8] CRC32
08 84,0 [9329DA67] [524F4E1B] CRC32
09 96,6 [0EE3AF68] [C7C4A480] CRC32
10 76,7 [0D4A6370] [6DB365FB] CRC32

Thanks to loh27