Tags
Language
Tags

Scale The Summit - 4 Studio Albums (2009-2015)

Posted By:
Scale The Summit - 4 Studio Albums (2009-2015)

Scale The Summit - 4 Studio Albums (2009-2015)
EAC Rip | FLAC (image+.cue+log) - 1,34 GB | MP3 CBR 320 kbps (LAME 3.93) - 479 MB | Covers included
Genre: Instrumental Progressive Metal | RAR 3% Rec. | Label: Prosthetic Records

A tech-savvy, all-instrumental progressive metal group from Los Angeles. The origins of Scale the Summit date to 2004, when guitarists Chris Letchford and Travis LeVrier met as students at the Los Angeles Musicians Institute, then came into contact with fellow scholar and drummer Pat Skeffington, before completing their lineup with bassist Jordan Eberhardt several months later. Two years of rehearsal and sonic self-discovery followed until, at the end of 2006, all of the musicians relocated to Letchford's hometown of Houston, Texas and finished sculpting their exceptionally technical brand of "adventure metal," as they like to call it, for release on a self-financed debut album, immodestly named Monument. Turns out their confidence was largely justified by the impressive amalgam of progressive exploration (think Cynic, Dream Theater, Kong) and sheer virtuosity (reminiscent of instrumental guitar heroes like Joe Satriani and Steve Vai), and it wasn't long before Scale the Summit were racking up accolades from some of the world's most respected heavy metal magazines. This also earned them a contract with L.A.'s Prosthetic Records, and a return to the studio for the recording of the group's eagerly anticipated sophomore album, Carving Desert Canyons, which was released at the start of 2009. The band returned in 2011 with its third album of technical guitar wizardry, The Collective, followed by The Migration (2013) and their aptly named fifth studio outing, V (2015). By the time of 2017's In a World of Fear album, most of Scale the Summit's original lineup had turned over. Most notable was the departure of founding guitarist LeVrier, who left to become a member of Entheos, leaving Letchford to lead the band with newcomers Killian Duarte and Charlie Engen on bass and drums, respectively.

Scale The Summit - 4 Studio Albums (2009-2015)

Scale The Summit - Carving Desert Canyons (2009)
EAC Rip | FLAC (image+.cue+log) - 328 MB | MP3 CBR 320 kbps (LAME 3.93) - 108 MB | Covers (14 MB) included
Genre: Instrumental Progressive Metal | RAR 3% Rec. | Label: Prosthetic Records (6561910070-2)

Tracklist:
01. Bloom
02. Sargasso Sea
03. The Great Plains
04. Dunes
05. Age Of The Tide
06. Glacial Planet
07. City In The Sky
08. Giants

Total time: 39:55

Exact Audio Copy V0.99 prebeta 5 from 4. May 2009

EAC extraction logfile from 5. October 2011, 22:25

Scale the Summit / Carving Desert Canyons

Used drive : PIONEER DVD-RW DVR-111D Adapter: 1 ID: 0

Read mode : Secure
Utilize accurate stream : Yes
Defeat audio cache : Yes
Make use of C2 pointers : No

Read offset correction : 48
Overread into Lead-In and Lead-Out : No
Fill up missing offset samples with silence : Yes
Delete leading and trailing silent blocks : No
Null samples used in CRC calculations : No
Used interface : Native Win32 interface for Win NT & 2000

Used output format : User Defined Encoder
Selected bitrate : 32 kBit/s
Quality : High
Add ID3 tag : No
Command line compressor : C:\Program Files\Exact Audio Copy\FLAC\FLAC.EXE
Additional command line options : -6 -V %s


TOC of the extracted CD

Track | Start | Length | Start sector | End sector
––––––––––––––––––––––––––––-
1 | 0:00.00 | 2:09.60 | 0 | 9734
2 | 2:09.60 | 5:14.71 | 9735 | 33355
3 | 7:24.56 | 5:11.31 | 33356 | 56711
4 | 12:36.12 | 4:27.74 | 56712 | 76810
5 | 17:04.11 | 5:35.17 | 76811 | 101952
6 | 22:39.28 | 4:52.12 | 101953 | 123864
7 | 27:31.40 | 5:03.02 | 123865 | 146591
8 | 32:34.42 | 7:20.55 | 146592 | 179646


Range status and errors

Selected range

Filename D:\MusicFiles\FLAC Temp MetalMadness\SCALE THE SUMMIT [2009] [CD] Carving Desert Canyons\Scale the Summit - Carving Desert Canyons.wav

Peak level 99.1 %
Range quality 100.0 %
Copy CRC 93000930
Copy OK

No errors occurred


AccurateRip summary

Track 1 accurately ripped (confidence 8) [B8614758]
Track 2 accurately ripped (confidence 9) [21600C78]
Track 3 accurately ripped (confidence 9) [353570AB]
Track 4 accurately ripped (confidence 9) [220B156C]
Track 5 accurately ripped (confidence 9) [3C6A1122]
Track 6 accurately ripped (confidence 9) [D199C91D]
Track 7 accurately ripped (confidence 9) [77DE569F]
Track 8 accurately ripped (confidence 9) [CFA76BEB]

All tracks accurately ripped

End of status report

[CUETools log; Date: 04.06.2019 1:07:14; Version: 2.1.4]
[CTDB TOCID: HR8WoR3eKQxZCpjK0cOyVkV0NEM-] found.
Track | CTDB Status
1 | (45/45) Accurately ripped
2 | (45/45) Accurately ripped
3 | (45/45) Accurately ripped
4 | (45/45) Accurately ripped
5 | (45/45) Accurately ripped
6 | (45/45) Accurately ripped
7 | (45/45) Accurately ripped
8 | (45/45) Accurately ripped
[AccurateRip ID: 000b1e5f-004c4676-61095b08] found.
Track [ CRC | V2 ] Status
01 [b8614758|a5248218] (10+15/38) Accurately ripped
02 [21600c78|4f82a01b] (11+15/39) Accurately ripped
03 [353570ab|2b09ffc1] (11+15/39) Accurately ripped
04 [220b156c|dcc38ad8] (11+15/39) Accurately ripped
05 [3c6a1122|5110254d] (11+15/39) Accurately ripped
06 [d199c91d|94579ae4] (11+15/39) Accurately ripped
07 [77de569f|6fc95951] (11+15/39) Accurately ripped
08 [cfa76beb|bec92cad] (11+15/39) Accurately ripped
Offsetted by -634:
01 [89320866] (03/38) Accurately ripped
02 [2cb47fb9] (03/39) Accurately ripped
03 [2446a84c] (03/39) Accurately ripped
04 [d9acf215] (03/39) Accurately ripped
05 [9fe61234] (03/39) Accurately ripped
06 [78f309ce] (03/39) Accurately ripped
07 [72d6daeb] (03/39) Accurately ripped
08 [5ad47464] (03/39) Accurately ripped
Offsetted by -54:
01 [4e432119] (00/38) No match (V2 was not tested)
02 [d650616c] (00/39) No match (V2 was not tested)
03 [1727e05f] (00/39) No match (V2 was not tested)
04 [a6ee2152] (00/39) No match (V2 was not tested)
05 [ef08c221] (00/39) No match (V2 was not tested)
06 [8342337f] (00/39) No match (V2 was not tested)
07 [12d09163] (00/39) No match (V2 was not tested)
08 [99f6b164] (00/39) No match (V2 was not tested)
Offsetted by -48:
01 [29791d4f] (00/38) No match (V2 was not tested)
02 [1a390988] (00/39) No match (V2 was not tested)
03 [b0fa532f] (00/39) No match (V2 was not tested)
04 [571c292c] (00/39) No match (V2 was not tested)
05 [b3cefa20] (00/39) No match (V2 was not tested)
06 [a0d24633] (00/39) No match (V2 was not tested)
07 [bc90361f] (00/39) No match (V2 was not tested)
08 [13cf4dca] (00/39) No match (V2 was not tested)
Offsetted by -42:
01 [594da0e8] (00/38) No match (V2 was not tested)
02 [23cc2c0a] (00/39) No match (V2 was not tested)
03 [bfdd3483] (00/39) No match (V2 was not tested)
04 [5ce285eb] (00/39) No match (V2 was not tested)
05 [2d9c91de] (00/39) No match (V2 was not tested)
06 [9f7a129f] (00/39) No match (V2 was not tested)
07 [c3b1c03e] (00/39) No match (V2 was not tested)
08 [f0eca01c] (00/39) No match (V2 was not tested)
Offsetted by -30:
01 [f741ec1e] (00/38) No match (V2 was not tested)
02 [b3d7f2d8] (00/39) No match (V2 was not tested)
03 [12605163] (00/39) No match (V2 was not tested)
04 [123c95a7] (00/39) No match (V2 was not tested)
05 [bc3861a7] (00/39) No match (V2 was not tested)
06 [0dd4e0c8] (00/39) No match (V2 was not tested)
07 [d750116c] (00/39) No match (V2 was not tested)
08 [0f746030] (00/39) No match (V2 was not tested)

Track Peak [ CRC32 ] [W/O NULL] [ LOG ]
– 99,1 [2BE0EEDE] [93000930] W/O NULL
01 99,1 [0A3BBB76] [557DD5B1]
02 99,1 [C0EA5662] [5A0BF81B]
03 99,1 [120CEDC5] [77E700FF]
04 98,8 [251225D4] [3992F9FF]
05 99,1 [BFD2EB39] [36458D7F]
06 99,1 [4EA96251] [84FD55D0]
07 99,1 [39126773] [E5B6D493]
08 99,1 [96CCAB96] [25E7E855]

Scale The Summit - 4 Studio Albums (2009-2015)

Scale The Summit - The Collective (2011)
EAC Rip | FLAC (image+.cue+log) - 342 MB | MP3 CBR 320 kbps (LAME 3.93) - 128 MB | Covers (20 MB) included
Genre: Instrumental Progressive Metal | RAR 3% Rec. | Label: Prosthetic Records (56191 00902-7)

Tracklist:
01. Colossal
02. Whales
03. Emersion
04. The Levitated
05. Secret Earth
06. Gallows
07. Origin Of Species
08. Alpenglow
09. Black Hills
10. Balkan
11. Drifting Figures

Total time: 45:42

Exact Audio Copy V0.99 prebeta 5 from 4. May 2009

EAC extraction logfile from 26. April 2012, 9:34

Scale the Summit / The Collective

Used drive : PIONEER DVD-RW DVR-111D Adapter: 1 ID: 0

Read mode : Secure
Utilize accurate stream : Yes
Defeat audio cache : Yes
Make use of C2 pointers : No

Read offset correction : 48
Overread into Lead-In and Lead-Out : No
Fill up missing offset samples with silence : Yes
Delete leading and trailing silent blocks : No
Null samples used in CRC calculations : Yes
Used interface : Native Win32 interface for Win NT & 2000

Used output format : User Defined Encoder
Selected bitrate : 40 kBit/s
Quality : High
Add ID3 tag : No
Command line compressor : C:\Program Files\Exact Audio Copy\FLAC\FLAC.EXE
Additional command line options : -6 -V %s


TOC of the extracted CD

Track | Start | Length | Start sector | End sector
––––––––––––––––––––––––––––-
1 | 0:00.00 | 3:48.14 | 0 | 17113
2 | 3:48.14 | 6:28.45 | 17114 | 46258
3 | 10:16.59 | 2:33.31 | 46259 | 57764
4 | 12:50.15 | 3:02.19 | 57765 | 71433
5 | 15:52.34 | 3:38.44 | 71434 | 87827
6 | 19:31.03 | 4:33.53 | 87828 | 108355
7 | 24:04.56 | 2:45.31 | 108356 | 120761
8 | 26:50.12 | 3:58.09 | 120762 | 138620
9 | 30:48.21 | 7:59.04 | 138621 | 174549
10 | 38:47.25 | 3:44.30 | 174550 | 191379
11 | 42:31.55 | 3:10.09 | 191380 | 205638


Range status and errors

Selected range

Filename D:\MUSIC FILES\FLAC Temp MetalMadness\Scale the Summit - The Collective\Scale the Summit - The Collective.wav

Peak level 99.1 %
Range quality 99.9 %
Copy CRC CB7D574F
Copy OK

No errors occurred


AccurateRip summary

Track 1 cannot be verified as accurate (confidence 7) [1BDBA2FA], AccurateRip returned [0F68C612]
Track 2 cannot be verified as accurate (confidence 7) [574391A6], AccurateRip returned [18531D26]
Track 3 cannot be verified as accurate (confidence 7) [80FA3DF8], AccurateRip returned [C6917590]
Track 4 cannot be verified as accurate (confidence 7) [ABB448FC], AccurateRip returned [7008A263]
Track 5 cannot be verified as accurate (confidence 7) [3E415C23], AccurateRip returned [47B35732]
Track 6 cannot be verified as accurate (confidence 7) [E18A945D], AccurateRip returned [731411D4]
Track 7 cannot be verified as accurate (confidence 7) [4514B3D2], AccurateRip returned [73E48BE0]
Track 8 cannot be verified as accurate (confidence 7) [49FEBB7B], AccurateRip returned [366392CA]
Track 9 cannot be verified as accurate (confidence 7) [04DFF1DC], AccurateRip returned [ADA10563]
Track 10 cannot be verified as accurate (confidence 7) [EF40A571], AccurateRip returned [C1DD1317]
Track 11 cannot be verified as accurate (confidence 7) [CA3A7881], AccurateRip returned [97BD75DA]

No tracks could be verified as accurate
You may have a different pressing from the one(s) in the database

End of status report

[CUETools log; Date: 04.06.2019 1:10:33; Version: 2.1.4]
[CTDB TOCID: abP22_GyJqOTLQU.z8MwLfJpZto-] found.
Track | CTDB Status
1 | (42/42) Accurately ripped
2 | (42/42) Accurately ripped
3 | (42/42) Accurately ripped
4 | (42/42) Accurately ripped
5 | (42/42) Accurately ripped
6 | (42/42) Accurately ripped
7 | (42/42) Accurately ripped
8 | (42/42) Accurately ripped
9 | (42/42) Accurately ripped
10 | (42/42) Accurately ripped
11 | (42/42) Accurately ripped
[AccurateRip ID: 00129c7c-00a16b29-8a0ab50b] found.
Track [ CRC | V2 ] Status
01 [1bdba2fa|67323195] (00+00/47) No match
02 [574391a6|dd697d9c] (00+00/47) No match
03 [80fa3df8|2b58b246] (00+00/47) No match
04 [abb448fc|5b861174] (00+00/47) No match
05 [3e415c23|8275e1e6] (00+00/47) No match
06 [e18a945d|8ef47152] (00+00/47) No match
07 [4514b3d2|cb710d78] (00+00/47) No match
08 [49febb7b|25440b09] (00+00/47) No match
09 [04dff1dc|868e5eda] (00+00/47) No match
10 [ef40a571|d3c0f8c5] (00+00/47) No match
11 [ca3a7881|5a65d79e] (00+00/47) No match
Offsetted by -12:
01 [0f68c612] (11/47) Accurately ripped
02 [18531d26] (11/47) Accurately ripped
03 [c6917590] (11/47) Accurately ripped
04 [7008a263] (11/47) Accurately ripped
05 [47b35732] (11/47) Accurately ripped
06 [731411d4] (11/47) Accurately ripped
07 [73e48be0] (11/47) Accurately ripped
08 [366392ca] (11/47) Accurately ripped
09 [ada10563] (11/47) Accurately ripped
10 [c1dd1317] (11/47) Accurately ripped
11 [97bd75da] (11/47) Accurately ripped
Offsetted by -646:
01 [8e610a56] (00/47) No match (V2 was not tested)
02 [858d65df] (00/47) No match (V2 was not tested)
03 [3216184a] (00/47) No match (V2 was not tested)
04 [e92e11c5] (00/47) No match (V2 was not tested)
05 [f6aca26d] (00/47) No match (V2 was not tested)
06 [6d6e45aa] (00/47) No match (V2 was not tested)
07 [e6a593fd] (00/47) No match (V2 was not tested)
08 [c439b994] (00/47) No match (V2 was not tested)
09 [2b56091a] (00/47) No match (V2 was not tested)
10 [060f62ca] (00/47) No match (V2 was not tested)
11 [b9a58411] (00/47) No match (V2 was not tested)
Offsetted by -6:
01 [92d3a38d] (00/47) No match (V2 was not tested)
02 [3547ddb5] (00/47) No match (V2 was not tested)
03 [d30a64f3] (00/47) No match (V2 was not tested)
04 [b8fe39c8] (00/47) No match (V2 was not tested)
05 [65b6e52a] (00/47) No match (V2 was not tested)
06 [ef51bbf5] (00/47) No match (V2 was not tested)
07 [aaaa81c9] (00/47) No match (V2 was not tested)
08 [68335ad1] (00/47) No match (V2 was not tested)
09 [ebea0e22] (00/47) No match (V2 was not tested)
10 [b2f2b04c] (00/47) No match (V2 was not tested)
11 [5bc0e901] (00/47) No match (V2 was not tested)

Track Peak [ CRC32 ] [W/O NULL] [ LOG ]
– 99,1 [CB7D574F] [337F263A] CRC32
01 99,1 [9BC49341] [0AD210C1]
02 99,1 [E4098968] [F2D56E9B]
03 99,1 [D947FA5D] [10D355F6]
04 99,1 [9CCE2946] [C4FFDB79]
05 99,1 [9BC8F7CE] [4C0CA7D6]
06 99,1 [F3D98961] [A5108CCC]
07 99,1 [6D972BCE] [2B1174E4]
08 99,1 [C1AA8141] [A357D777]
09 99,1 [B6BF8CE3] [68554FB2]
10 99,1 [58ED5EFB] [384F8777]
11 99,1 [60AD6DA3] [C4FAE3CB]

Scale The Summit - 4 Studio Albums (2009-2015)

Scale The Summit - The Migration (2013)
EAC Rip | FLAC (image+.cue+log) - 301 MB | MP3 CBR 320 kbps (LAME 3.93) - 102 MB | Covers (3 MB) included
Genre: Instrumental Progressive Metal | RAR 3% Rec. | Label: Prosthetic Records (56191-01332-1)

Tracklist:
01. Odyssey
02. Atlas Novus
03. The Olive Tree
04. Narrow Salient
05. Oracle
06. Evergreen
07. The Dark Horse
08. Willow
09. Sabrosa
10. The Traveler

Total time: 42:10

Exact Audio Copy V0.99 prebeta 5 from 4. May 2009

EAC extraction logfile from 25. December 2013, 23:01

Scale the Summit / The Migration

Used drive : PIONEER DVD-RW DVR-111D Adapter: 1 ID: 1

Read mode : Secure
Utilize accurate stream : Yes
Defeat audio cache : Yes
Make use of C2 pointers : No

Read offset correction : 48
Overread into Lead-In and Lead-Out : No
Fill up missing offset samples with silence : Yes
Delete leading and trailing silent blocks : No
Null samples used in CRC calculations : Yes
Used interface : Native Win32 interface for Win NT & 2000

Used output format : User Defined Encoder
Selected bitrate : 40 kBit/s
Quality : High
Add ID3 tag : No
Command line compressor : C:\Program Files\Exact Audio Copy\FLAC\FLAC.EXE
Additional command line options : -6 -V %s


TOC of the extracted CD

Track | Start | Length | Start sector | End sector
––––––––––––––––––––––––––––-
1 | 0:00.00 | 5:12.39 | 0 | 23438
2 | 5:12.39 | 5:07.08 | 23439 | 46471
3 | 10:19.47 | 5:07.61 | 46472 | 69557
4 | 15:27.33 | 3:34.58 | 69558 | 85665
5 | 19:02.16 | 5:30.72 | 85666 | 110487
6 | 24:33.13 | 1:41.18 | 110488 | 118080
7 | 26:14.31 | 4:12.19 | 118081 | 136999
8 | 30:26.50 | 5:06.62 | 137000 | 160011
9 | 35:33.37 | 0:31.33 | 160012 | 162369
10 | 36:04.70 | 6:04.63 | 162370 | 189732


Range status and errors

Selected range

Filename D:\MUSIC FILES\FLAC Temp MetalMadness\Scale the Summit - The Migration\Scale the Summit - The Migration.wav

Peak level 98.8 %
Range quality 100.0 %
Test CRC 7148E5EC
Copy CRC 7148E5EC
Copy OK

No errors occurred


AccurateRip summary

Track 1 cannot be verified as accurate (confidence 10) [2D97814A], AccurateRip returned [424F508C]
Track 2 cannot be verified as accurate (confidence 10) [63A6D115], AccurateRip returned [2B9A27A5]
Track 3 cannot be verified as accurate (confidence 10) [D2EA454E], AccurateRip returned [B1F7A950]
Track 4 cannot be verified as accurate (confidence 10) [5C815A0B], AccurateRip returned [FDA1AFFA]
Track 5 cannot be verified as accurate (confidence 10) [7DCD3F80], AccurateRip returned [5EFCB602]
Track 6 cannot be verified as accurate (confidence 10) [891700FF], AccurateRip returned [E4C4E038]
Track 7 cannot be verified as accurate (confidence 10) [DCE1639A], AccurateRip returned [9C278275]
Track 8 cannot be verified as accurate (confidence 10) [2D81D495], AccurateRip returned [F8009CB9]
Track 9 cannot be verified as accurate (confidence 10) [FEC67D23], AccurateRip returned [F10F26FF]
Track 10 cannot be verified as accurate (confidence 10) [EF0D311D], AccurateRip returned [0824D38C]

No tracks could be verified as accurate
You may have a different pressing from the one(s) in the database

End of status report

[CUETools log; Date: 04.06.2019 1:11:05; Version: 2.1.4]
[CTDB TOCID: 11Ek2wpttmCjK6sE.YAyjjtYuLY-] found.
Track | CTDB Status
1 | (79/79) Accurately ripped
2 | (79/79) Accurately ripped
3 | (79/79) Accurately ripped
4 | (79/79) Accurately ripped
5 | (79/79) Accurately ripped
6 | (79/79) Accurately ripped
7 | (79/79) Accurately ripped
8 | (79/79) Accurately ripped
9 | (79/79) Accurately ripped
10 | (77/79) Accurately ripped, or (2/79) differs in 10 samples @06:04:40-06:04:43
[AccurateRip ID: 0010d3e3-0083abe7-8209e10a] found.
Track [ CRC | V2 ] Status
01 [2d97814a|424f508c] (02+33/40) Accurately ripped
02 [63a6d115|2b9a27a5] (02+33/40) Accurately ripped
03 [d2ea454e|b1f7a950] (02+33/40) Accurately ripped
04 [5c815a0b|fda1affa] (02+33/40) Accurately ripped
05 [7dcd3f80|5efcb602] (02+33/40) Accurately ripped
06 [891700ff|e4c4e038] (02+33/40) Accurately ripped
07 [dce1639a|9c278275] (02+33/40) Accurately ripped
08 [2d81d495|f8009cb9] (02+33/40) Accurately ripped
09 [fec67d23|f10f26ff] (02+33/40) Accurately ripped
10 [ef0d311d|0824d38c] (02+33/40) Accurately ripped
Offsetted by -637:
01 [586a4e2c] (00/40) No match (V2 was not tested)
02 [bfa0e968] (00/40) No match (V2 was not tested)
03 [ea7062e0] (00/40) No match (V2 was not tested)
04 [c7d2f32a] (00/40) No match (V2 was not tested)
05 [3b7f02f9] (00/40) No match (V2 was not tested)
06 [f4316cb4] (00/40) No match (V2 was not tested)
07 [a4ed78e5] (00/40) No match (V2 was not tested)
08 [e2dbd1ab] (00/40) No match (V2 was not tested)
09 [e2a3d47b] (00/40) No match (V2 was not tested)
10 [7475311c] (00/40) No match (V2 was not tested)
Offsetted by -6:
01 [2c703154] (00/40) No match (V2 was not tested)
02 [e9a1272d] (00/40) No match (V2 was not tested)
03 [d96e2e05] (00/40) No match (V2 was not tested)
04 [7b9dd109] (00/40) No match (V2 was not tested)
05 [ff4f8dd2] (00/40) No match (V2 was not tested)
06 [b0eac8e6] (00/40) No match (V2 was not tested)
07 [7e3680d6] (00/40) No match (V2 was not tested)
08 [d67d8083] (00/40) No match (V2 was not tested)
09 [90c65950] (00/40) No match (V2 was not tested)
10 [c7d1729e] (00/40) No match (V2 was not tested)

Track Peak [ CRC32 ] [W/O NULL] [ LOG ]
– 98,8 [7148E5EC] [5CF9B330] CRC32
01 98,8 [9E1FF2DA] [0FB4F86B]
02 98,8 [C9BA5D2F] [5B41552C]
03 98,8 [77955C4C] [3F3DD1FD]
04 98,8 [B0BF641E] [6B258948]
05 98,8 [AAC37838] [0F827998]
06 97,4 [622B89C8] [A52473B3]
07 98,8 [B15367C6] [530C2025]
08 98,8 [0AA07DFE] [0959FD88]
09 50,0 [7CE00565] [1A64C7B3]
10 98,8 [F8BA36ED] [0E5B4723]

Scale The Summit - 4 Studio Albums (2009-2015)

Scale The Summit - V (2015)
EAC Rip | FLAC (image+.cue+log) - 367 MB | MP3 CBR 320 kbps (LAME 3.93) - 141 MB | Covers (20 MB) included
Genre: Instrumental Progressive Metal | RAR 3% Rec. | Label: Prosthetic Records (PROS102182)

Tracklist:
01. The Winged Bull
02. Soria Moria
03. Pontus Euxinus
04. Trapped In Ice
05. Stolas
06. The Isle Of Mull
07. Kestrel
08. Oort Cloud
09. Blue Sun
10. The Golden Bird

Total time: 50:59

Exact Audio Copy V1.3 from 2. September 2016

EAC extraction logfile from 25. April 2019, 18:58

Scale The Summit / V

Used drive : HL-DT-STDVDRAM GH24NSD1 Adapter: 1 ID: 0

Read mode : Secure
Utilize accurate stream : Yes
Defeat audio cache : Yes
Make use of C2 pointers : No

Read offset correction : 6
Overread into Lead-In and Lead-Out : No
Fill up missing offset samples with silence : Yes
Delete leading and trailing silent blocks : No
Null samples used in CRC calculations : Yes
Used interface : Native Win32 interface for Win NT & 2000

Used output format : User Defined Encoder
Selected bitrate : 896 kBit/s
Quality : High
Add ID3 tag : No
Command line compressor : C:\Program Files (x86)\Exact Audio Copy\Flac\flac.exe
Additional command line options : -6 -V %source%


TOC of the extracted CD

Track | Start | Length | Start sector | End sector
––––––––––––––––––––––––––––-
1 | 0:00.00 | 4:25.15 | 0 | 19889
2 | 4:25.15 | 5:50.41 | 19890 | 46180
3 | 10:15.56 | 4:15.14 | 46181 | 65319
4 | 14:30.70 | 4:21.10 | 65320 | 84904
5 | 18:52.05 | 4:59.43 | 84905 | 107372
6 | 23:51.48 | 4:33.70 | 107373 | 127917
7 | 28:25.43 | 4:54.23 | 127918 | 149990
8 | 33:19.66 | 5:28.64 | 149991 | 174654
9 | 38:48.55 | 7:04.71 | 174655 | 206525
10 | 45:53.51 | 5:05.34 | 206526 | 229434


Range status and errors

Selected range

Filename C:\Users\User\Music\EAC\Scale The Summit - V\Scale The Summit - V.wav

Peak level 98.8 %
Extraction speed 1.7 X
Range quality 100.0 %
Test CRC 29545D0F
Copy CRC 29545D0F
Copy OK

No errors occurred


AccurateRip summary

Track 1 accurately ripped (confidence 13) [FDE35A33] (AR v2)
Track 2 accurately ripped (confidence 13) [40C8512A] (AR v2)
Track 3 accurately ripped (confidence 13) [927AC037] (AR v2)
Track 4 accurately ripped (confidence 13) [EEAEAFB3] (AR v2)
Track 5 accurately ripped (confidence 13) [8EF3B586] (AR v2)
Track 6 accurately ripped (confidence 13) [76F5B0B6] (AR v2)
Track 7 accurately ripped (confidence 13) [4D5AB18E] (AR v2)
Track 8 accurately ripped (confidence 13) [6877C810] (AR v2)
Track 9 accurately ripped (confidence 13) [F261FAFB] (AR v2)
Track 10 accurately ripped (confidence 13) [43D4C8A9] (AR v2)

All tracks accurately ripped

End of status report

–– CUETools DB Plugin V2.1.6

[CTDB TOCID: 7XkjqqyyAmmXnLAldkY3kGtcAdU-] found
Submit result: 7XkjqqyyAmmXnLAldkY3kGtcAdU- has been confirmed
Track | CTDB Status
1 | (67/67) Accurately ripped
2 | (67/67) Accurately ripped
3 | (67/67) Accurately ripped
4 | (67/67) Accurately ripped
5 | (67/67) Accurately ripped
6 | (67/67) Accurately ripped
7 | (67/67) Accurately ripped
8 | (67/67) Accurately ripped
9 | (67/67) Accurately ripped
10 | (66/67) Accurately ripped


==== Log checksum 605A68796486EB37CAEE7F4E13B2EF9BAA653B89402558D2D8D159BDE839680B ====

[CUETools log; Date: 04.06.2019 1:11:39; Version: 2.1.4]
[CTDB TOCID: 7XkjqqyyAmmXnLAldkY3kGtcAdU-] found.
Track | CTDB Status
1 | (70/70) Accurately ripped
2 | (70/70) Accurately ripped
3 | (70/70) Accurately ripped
4 | (70/70) Accurately ripped
5 | (70/70) Accurately ripped
6 | (70/70) Accurately ripped
7 | (70/70) Accurately ripped
8 | (70/70) Accurately ripped
9 | (70/70) Accurately ripped
10 | (69/70) Accurately ripped
[AccurateRip ID: 00127f22-0094ff35-710bf30a] found.
Track [ CRC | V2 ] Status
01 [608ba3ec|fde35a33] (00+14/14) Accurately ripped
02 [8eaaa645|40c8512a] (00+14/14) Accurately ripped
03 [827eadeb|927ac037] (00+14/14) Accurately ripped
04 [ac9516c5|eeaeafb3] (00+14/14) Accurately ripped
05 [849b8a7c|8ef3b586] (00+14/14) Accurately ripped
06 [b2525ac2|76f5b0b6] (00+14/14) Accurately ripped
07 [e59d4ea6|4d5ab18e] (00+14/14) Accurately ripped
08 [062fcd54|6877c810] (00+14/14) Accurately ripped
09 [4f83ac10|f261fafb] (00+14/14) Accurately ripped
10 [28e1fe9a|43d4c8a9] (00+14/14) Accurately ripped

Track Peak [ CRC32 ] [W/O NULL] [ LOG ]
– 98,8 [29545D0F] [5D37F7F9] CRC32
01 98,8 [FFBA121D] [0E59F050]
02 98,8 [7C7C2778] [27123C9D]
03 98,8 [1C64B497] [A9E6B9E9]
04 98,8 [5E2B271B] [661F4936]
05 98,8 [1584E5EA] [516D6E0A]
06 98,8 [355829DA] [0C267044]
07 98,8 [06180BEF] [FEFE3DA7]
08 98,8 [D9546FDE] [EDC08913]
09 98,8 [A98C5BDC] [85C254F6]
10 98,8 [98F186DC] [36DE1773]

Thanks to BACKLASH