Subcategories

Rupert Gottfried Frieberger, Barockorchester Munchen - Telemann: Matthaus-Passion 1730 (1994)

Posted By: ArlegZ
Rupert Gottfried Frieberger, Barockorchester Munchen - Telemann: Matthaus-Passion 1730 (1994)

Rupert Gottfried Frieberger, Barockorchester München, Collegium Vocale der Schlägler Musikseminare - Telemann: Matthäus-Passion 1730 (1994)
EAC | FLAC | Image (Cue & Log) ~ 455 Mb | Total time: 117:33 | Scans included
Classical | Label: Christophorus | # CD 74517 | Recorded: 1984

Georg Philipp Telemann schrieb insgesamt 46 Passionen, von denen die hier aufgenommene Matthäus-Passion in der Behandlung der Chöre und Arien eine der schönsten ist. Sie entstand im Jahre 1730 und zeigt eine besonders illustrierende Schreibweise des Komponisten. Die zweistimmige Anlage der Chöre erweist sie sich mit dem Orchestersatz zusammen als eine überaus gekonnte Komposition mit einfachen Mitteln. Die Choräle sind als Gemeindegesang gedacht. Das Passionsgeschehen wird in Telemanns Matthäus-Passion in eine frohe Darstellung des dramatischen Geschehens als Freude über die Erlösung gekehrt.

Performer:
Martin Klietmann, tenor (Evangelist & arias)
Andreas Lebeda, bass (Jesus)
Gertraud Wurzinger, soprano (Arias I, Magd, Pilati Weib)
Christine Füssl, soprano (Arias II, Magd)
Berthold Brandstetter, baritone (Aria, Judas, Pilatus, Caiphas)
Harumichi Fujiwara, tenor (Petrus)
Friedrich Ofner, bass (Aria, Gläubige Seele)
Collegium Vocale der Schlägler Musikseminare
Barockorchester München
Conductor - Rupert Gottfried Frieberger

Track List:
CD1:
01. Choral: Wenn meine Sünd' mich kranken
02. Rezitativ: Und es begab sich
03. Chor: Ja nicht auf das Fest
04. Rezitativ: Da nun Jesus war
05. Chor: Wozu dienet dieser Unrat
06. Rezitativ: Da das Jesus merkete
07. Arie: Höchst unsel'ges Unterfangen
08. Rezitativ: Aber am ersten Tage
09. Chor: Wo willst du
10. Rezitativ: Er sprach
11. Chor: Herr, bin ich's?
12. Rezitativ: Er antwortete und sprach
13. Arie: Ach Heiland, wie nähret
14. Choral: Ach, wie hungert mein Gemüte
15. Rezitativ: Und da sie den Lobgesang
16. Soliloquio: Bis in den Tod
17. Choral: Was ist doch die Ursach'
18. Arie: Meine wehmutvolle Seele
19. Choral: Du Nacht voll Angst
20. Rezitativ: und ging hin ein wenig
21. Arie: Was ist das Schmeicheln
22. Rezitativ: Jesus aber sprach
23. Soliloquio: Dein Mund, ach ew'ges Wort
24. Rezitativ: Und der Hohepriester
25. Chor: Er ist des Todes schuldig!
26. Rezitativ: Da speieten sie aus
27. Chor: Weissage uns, Christus
28. Arie: Schlage doch, Himmel
29. Rezitativ: Petrus aber saß draußen
30. Chor: Wahrlich, du bist einer von denen
31. Rezitativ: Da hub er an
32. Duett: Ich lege mich
CD2:
01. Rezitativ: Des Morgens aber hielten
02. Chor: Was gehet uns das an
03. Furioso: Ach wehe, wehe mir
04. Rezitativ: Und er warf die Silberlinge
05. Choral: Ich kann's mit meinen Sinnen
06. Rezitativ: Auf das Fest aber
07. Chor: Barrabam!
08. Arie mit Chor: So geht es, keiner
09. Rezitativ: Pilatus sprach zu ihnen
10. Chor: Laß ihn kreuzigen!
11. Rezitativ: Der Landpfleger sagte
12. Chor: Laß ihn kreuzigen!
13. Rezitativ: Da aber Pilatus sahe
14. Chor: Sein Blut komme über uns
15. Rezitativ: Da gab er ihnen Barrabam los
16. Arie: Laß dich bitt're Tränen netzen
17. Rezitativ: Da nahmen die Kriegsknechte
18. Chor: Gegrüßet seist du
19. Rezitativ: Und speieten ihn an
20. Chor: Der du den Tempel Gottes
21. Rezitativ: Desgleichen auch die
22. Chor: Andern hat er geholfen
23. Rezitativ: Desgleichen taten auch
24. Arie: Gott ruft selbst
25. Rezitativ: Etliche aber, die da stunden
26. Chor: Er rufet den Elias
27. Rezitativ: Und alsbald lief einer
28. Chor: Halt, laß sehen
29. Rezitativ: Aber Jesus schrie
30. Choral: O große Not
31. Arie mit Chor: Frohlocket, hochbetrübte Seelen
32. Rezitativ: Und siehe da, der Vorhang
33. Chor: Wahrlich, wahrlich
34. Chor: Es stimmen der göttlichen
35. Rezitativ: Nicht das allein
36. Choral: O Traurigkeit, o Herzeleid
37. Arie: So ruhe sanft in deiner Kammer
38. Choral: Nun wir danken dir von Herzen


Exact Audio Copy V1.3 from 2. September 2016

EAC extraction logfile from 21. February 2019, 20:09

Martin Klietmann, Andreas Lebeda, Gertraud Wurzinger, Christine Fussl, Berthold Brandstetter, Harumichi Fujiwara, Friedrich Ofn / Telemann - Matthäus-Passion von 1730 (Disc 1)

Used drive : ATAPI iHAS124 F Adapter: 1 ID: 0

Read mode : Secure
Utilize accurate stream : Yes
Defeat audio cache : Yes
Make use of C2 pointers : No

Read offset correction : 6
Overread into Lead-In and Lead-Out : No
Fill up missing offset samples with silence : Yes
Delete leading and trailing silent blocks : No
Null samples used in CRC calculations : Yes
Used interface : Native Win32 interface for Win NT & 2000

Used output format : User Defined Encoder
Selected bitrate : 1024 kBit/s
Quality : High
Add ID3 tag : No
Command line compressor : C:\Program Files (x86)\Exact Audio Copy\FLAC\FLAC.EXE
Additional command line options : -6 -V -T "ARTIST=%artist%" -T "TITLE=%title%" -T "ALBUM=%albumtitle%" -T "DATE=%year%" -T "TRACKNUMBER=%tracknr%" -T "GENRE=%genre%" -T "COMMENT=%comment%" -T "BAND=%albuminterpret%" -T "ALBUMARTIST=%albuminterpret%" -T "COMPOSER=%composer%" %haslyrics%–tag-from-file=LYRICS="%lyricsfile%"%haslyrics% -T "DISCNUMBER=%cdnumber%" -T "TOTALDISCS=%totalcds%" -T "TOTALTRACKS=%numtracks%" %hascover%–picture="%coverfile%"%hascover% %source% -o %dest%


TOC of the extracted CD

Track | Start | Length | Start sector | End sector
––––––––––––––––––––––––––––-
1 | 0:00.33 | 1:06.45 | 33 | 5027
2 | 1:07.03 | 1:07.17 | 5028 | 10069
3 | 2:14.20 | 0:55.55 | 10070 | 14249
4 | 3:10.00 | 0:33.25 | 14250 | 16749
5 | 3:43.25 | 1:04.50 | 16750 | 21599
6 | 4:48.00 | 2:17.73 | 21600 | 31947
7 | 7:05.73 | 4:39.12 | 31948 | 52884
8 | 11:45.10 | 0:12.55 | 52885 | 53839
9 | 11:57.65 | 0:21.30 | 53840 | 55444
10 | 12:19.20 | 1:39.60 | 55445 | 62929
11 | 13:59.05 | 0:11.13 | 62930 | 63767
12 | 14:10.18 | 3:24.20 | 63768 | 79087
13 | 17:34.38 | 5:22.52 | 79088 | 103289
14 | 22:57.15 | 1:08.55 | 103290 | 108444
15 | 24:05.70 | 3:59.13 | 108445 | 126382
16 | 28:05.08 | 1:52.05 | 126383 | 134787
17 | 29:57.13 | 0:42.35 | 134788 | 137972
18 | 30:39.48 | 3:27.07 | 137973 | 153504
19 | 34:06.55 | 1:02.58 | 153505 | 158212
20 | 35:09.38 | 4:34.22 | 158213 | 178784
21 | 39:43.60 | 5:47.53 | 178785 | 204862
22 | 45:31.38 | 4:29.37 | 204863 | 225074
23 | 50:01.00 | 0:46.18 | 225075 | 228542
24 | 50:47.18 | 1:30.32 | 228543 | 235324
25 | 52:17.50 | 0:24.60 | 235325 | 237184
26 | 52:42.35 | 0:12.70 | 237185 | 238154
27 | 52:55.30 | 0:26.20 | 238155 | 240124
28 | 53:21.50 | 2:37.28 | 240125 | 251927
29 | 55:59.03 | 1:19.52 | 251928 | 257904
30 | 57:18.55 | 0:48.38 | 257905 | 261542
31 | 58:07.18 | 1:17.42 | 261543 | 267359
32 | 59:24.60 | 5:32.23 | 267360 | 292282


Range status and errors

Selected range

Filename C:\EACRip\00 - EASTER\Telemann - Matthaus-Passion von 1730 (Rupert Gottfried Frieberger) (1986)\CD1\Telemann - Matthaus-Passion von 1730 (Disc 1) - Rupert Gottfried Frieberger.wav

Peak level 83.4 %
Extraction speed 8.8 X
Range quality 100.0 %
Test CRC 28C063C5
Copy CRC 28C063C5
Copy OK

No errors occurred


AccurateRip summary

Track 1 accurately ripped (confidence 2) [EC2B9038] (AR v2)
Track 2 accurately ripped (confidence 2) [B49BD668] (AR v2)
Track 3 accurately ripped (confidence 2) [222881FD] (AR v2)
Track 4 accurately ripped (confidence 2) [2B6E249B] (AR v2)
Track 5 accurately ripped (confidence 2) [4D516ACB] (AR v2)
Track 6 accurately ripped (confidence 2) [71CC4E38] (AR v2)
Track 7 accurately ripped (confidence 2) [EA21D552] (AR v2)
Track 8 accurately ripped (confidence 2) [3B597506] (AR v2)
Track 9 accurately ripped (confidence 2) [5828FA8F] (AR v2)
Track 10 accurately ripped (confidence 2) [585448A9] (AR v2)
Track 11 accurately ripped (confidence 2) [C778B993] (AR v2)
Track 12 accurately ripped (confidence 2) [41666C48] (AR v2)
Track 13 accurately ripped (confidence 2) [047C988E] (AR v2)
Track 14 cannot be verified as accurate (confidence 2) [78DD1A8E], AccurateRip returned [A13F89D9] (AR v2)
Track 15 accurately ripped (confidence 2) [A952630F] (AR v2)
Track 16 accurately ripped (confidence 2) [C8383BC4] (AR v2)
Track 17 accurately ripped (confidence 2) [61B679C0] (AR v2)
Track 18 accurately ripped (confidence 2) [61F9AE69] (AR v2)
Track 19 accurately ripped (confidence 2) [CFC426BC] (AR v2)
Track 20 accurately ripped (confidence 2) [9234AA74] (AR v2)
Track 21 accurately ripped (confidence 2) [16317E91] (AR v2)
Track 22 accurately ripped (confidence 2) [2A60FABC] (AR v2)
Track 23 accurately ripped (confidence 2) [84B62627] (AR v2)
Track 24 accurately ripped (confidence 2) [CD6D5DA7] (AR v2)
Track 25 accurately ripped (confidence 2) [0ADFBD2B] (AR v2)
Track 26 accurately ripped (confidence 2) [3F97EEA5] (AR v2)
Track 27 accurately ripped (confidence 2) [06EEE81F] (AR v2)
Track 28 accurately ripped (confidence 2) [13328713] (AR v2)
Track 29 accurately ripped (confidence 2) [CAFF5C00] (AR v2)
Track 30 accurately ripped (confidence 2) [62F2E50B] (AR v2)
Track 31 accurately ripped (confidence 2) [4995F193] (AR v2)
Track 32 accurately ripped (confidence 2) [C4A4457C] (AR v2)

31 track(s) accurately ripped
1 track(s) could not be verified as accurate

Some tracks could not be verified as accurate

End of status report

–– CUETools DB Plugin V2.1.6

[CTDB TOCID: XKkgFhoroV79zCY4JJbbny4W1.E-] found
Submit result: XKkgFhoroV79zCY4JJbbny4W1.E- has been confirmed
Track | CTDB Status
1 | (5/5) Accurately ripped
2 | (5/5) Accurately ripped
3 | (5/5) Accurately ripped
4 | (5/5) Accurately ripped
5 | (5/5) Accurately ripped
6 | (5/5) Accurately ripped
7 | (5/5) Accurately ripped
8 | (5/5) Accurately ripped
9 | (5/5) Accurately ripped
10 | (5/5) Accurately ripped
11 | (5/5) Accurately ripped
12 | (5/5) Accurately ripped
13 | (5/5) Accurately ripped
14 | (5/5) Accurately ripped
15 | (5/5) Accurately ripped
16 | (5/5) Accurately ripped
17 | (5/5) Accurately ripped
18 | (5/5) Accurately ripped
19 | (5/5) Accurately ripped
20 | (5/5) Accurately ripped
21 | (5/5) Accurately ripped
22 | (5/5) Accurately ripped
23 | (5/5) Accurately ripped
24 | (5/5) Accurately ripped
25 | (5/5) Accurately ripped
26 | (5/5) Accurately ripped
27 | (5/5) Accurately ripped
28 | (5/5) Accurately ripped
29 | (5/5) Accurately ripped
30 | (5/5) Accurately ripped
31 | (5/5) Accurately ripped
32 | (5/5) Accurately ripped


==== Log checksum DCF139E56A457DF8A57088DD0D39398EC9FDB5A0A7FA8339EC396E9D469E708C ====


Exact Audio Copy V1.3 from 2. September 2016

EAC extraction logfile from 21. February 2019, 21:34

Martin Klietmann, Andreas Lebeda, Gertraud Wurzinger, Christine Fussl, Berthold Brandstetter, Harumichi Fujiwara, Friedrich Ofn / Telemann - Matthäus-Passion von 1730 (Disc 2)

Used drive : ATAPI iHAS124 F Adapter: 1 ID: 0

Read mode : Secure
Utilize accurate stream : Yes
Defeat audio cache : Yes
Make use of C2 pointers : No

Read offset correction : 6
Overread into Lead-In and Lead-Out : No
Fill up missing offset samples with silence : Yes
Delete leading and trailing silent blocks : No
Null samples used in CRC calculations : Yes
Used interface : Native Win32 interface for Win NT & 2000

Used output format : User Defined Encoder
Selected bitrate : 1024 kBit/s
Quality : High
Add ID3 tag : No
Command line compressor : C:\Program Files (x86)\Exact Audio Copy\FLAC\FLAC.EXE
Additional command line options : -6 -V -T "ARTIST=%artist%" -T "TITLE=%title%" -T "ALBUM=%albumtitle%" -T "DATE=%year%" -T "TRACKNUMBER=%tracknr%" -T "GENRE=%genre%" -T "COMMENT=%comment%" -T "BAND=%albuminterpret%" -T "ALBUMARTIST=%albuminterpret%" -T "COMPOSER=%composer%" %haslyrics%–tag-from-file=LYRICS="%lyricsfile%"%haslyrics% -T "DISCNUMBER=%cdnumber%" -T "TOTALDISCS=%totalcds%" -T "TOTALTRACKS=%numtracks%" %hascover%–picture="%coverfile%"%hascover% %source% -o %dest%


TOC of the extracted CD

Track | Start | Length | Start sector | End sector
––––––––––––––––––––––––––––-
1 | 0:00.33 | 1:10.45 | 33 | 5327
2 | 1:11.03 | 0:34.50 | 5328 | 7927
3 | 1:45.53 | 1:24.12 | 7928 | 14239
4 | 3:09.65 | 1:26.03 | 14240 | 20692
5 | 4:35.68 | 0:38.62 | 20693 | 23604
6 | 5:14.55 | 1:57.38 | 23605 | 32417
7 | 7:12.18 | 0:15.27 | 32418 | 33569
8 | 7:27.45 | 3:57.10 | 33570 | 51354
9 | 11:24.55 | 0:16.48 | 51355 | 52602
10 | 11:41.28 | 0:20.55 | 52603 | 54157
11 | 12:02.08 | 0:15.62 | 54158 | 55344
12 | 12:17.70 | 0:20.53 | 55345 | 56897
13 | 12:38.48 | 0:38.25 | 56898 | 59772
14 | 13:16.73 | 0:27.72 | 59773 | 61869
15 | 13:44.70 | 0:19.48 | 61870 | 63342
16 | 14:04.43 | 5:39.37 | 63343 | 88804
17 | 19:44.05 | 0:40.40 | 88805 | 91844
18 | 20:24.45 | 0:33.55 | 91845 | 94374
19 | 20:58.25 | 2:44.65 | 94375 | 106739
20 | 23:43.15 | 0:49.65 | 106740 | 110479
21 | 24:33.05 | 0:11.40 | 110480 | 111344
22 | 24:44.45 | 1:08.00 | 111345 | 116444
23 | 25:52.45 | 1:41.25 | 116445 | 124044
24 | 27:33.70 | 4:43.58 | 124045 | 145327
25 | 32:17.53 | 0:07.52 | 145328 | 145904
26 | 32:25.30 | 0:18.55 | 145905 | 147309
27 | 32:44.10 | 0:17.30 | 147310 | 148614
28 | 33:01.40 | 0:17.63 | 148615 | 149952
29 | 33:19.28 | 0:30.72 | 149953 | 152274
30 | 33:50.25 | 0:37.23 | 152275 | 155072
31 | 34:27.48 | 5:51.15 | 155073 | 181412
32 | 40:18.63 | 0:56.30 | 181413 | 185642
33 | 41:15.18 | 0:51.57 | 185643 | 189524
34 | 42:07.00 | 2:54.23 | 189525 | 202597
35 | 45:01.23 | 1:47.57 | 202598 | 210679
36 | 46:49.05 | 0:35.40 | 210680 | 213344
37 | 47:24.45 | 4:05.23 | 213345 | 231742
38 | 51:29.68 | 1:07.40 | 231743 | 236807


Range status and errors

Selected range

Filename C:\EACRip\00 - EASTER\Telemann - Matthaus-Passion von 1730 (Rupert Gottfried Frieberger) (1986)\CD2\Telemann - Matthaus-Passion von 1730 (Disc 2) - Rupert Gottfried Frieberger.wav

Peak level 69.5 %
Extraction speed 8.1 X
Range quality 100.0 %
Test CRC B94094E3
Copy CRC B94094E3
Copy OK

No errors occurred


AccurateRip summary

Track 1 accurately ripped (confidence 2) [4A11DABE] (AR v2)
Track 2 accurately ripped (confidence 2) [BEB24574] (AR v2)
Track 3 accurately ripped (confidence 2) [FBC9F05B] (AR v2)
Track 4 accurately ripped (confidence 2) [050C6103] (AR v2)
Track 5 accurately ripped (confidence 2) [5FBE7FB2] (AR v2)
Track 6 accurately ripped (confidence 2) [E8CF7C0C] (AR v2)
Track 7 accurately ripped (confidence 2) [11F2ECDC] (AR v2)
Track 8 accurately ripped (confidence 2) [01EC9F80] (AR v2)
Track 9 accurately ripped (confidence 2) [8662E26D] (AR v2)
Track 10 accurately ripped (confidence 2) [3C239780] (AR v2)
Track 11 accurately ripped (confidence 2) [26B592CB] (AR v2)
Track 12 accurately ripped (confidence 2) [FCF5CF00] (AR v2)
Track 13 accurately ripped (confidence 2) [E60D8EDE] (AR v2)
Track 14 accurately ripped (confidence 2) [1DD15F0E] (AR v2)
Track 15 accurately ripped (confidence 2) [CABAA292] (AR v2)
Track 16 accurately ripped (confidence 2) [7D9FCC45] (AR v2)
Track 17 accurately ripped (confidence 2) [4264A015] (AR v2)
Track 18 accurately ripped (confidence 2) [EC94D891] (AR v2)
Track 19 accurately ripped (confidence 2) [F37DDE2E] (AR v2)
Track 20 accurately ripped (confidence 2) [41E3D99A] (AR v2)
Track 21 accurately ripped (confidence 2) [7BABED5E] (AR v2)
Track 22 accurately ripped (confidence 2) [AD640DF9] (AR v2)
Track 23 accurately ripped (confidence 2) [8D2B9448] (AR v2)
Track 24 accurately ripped (confidence 2) [95D750C1] (AR v2)
Track 25 accurately ripped (confidence 2) [3912247F] (AR v2)
Track 26 accurately ripped (confidence 2) [0B38A9C0] (AR v2)
Track 27 accurately ripped (confidence 2) [18A61E0C] (AR v2)
Track 28 accurately ripped (confidence 2) [AFE46D83] (AR v2)
Track 29 accurately ripped (confidence 2) [4F0D648C] (AR v2)
Track 30 accurately ripped (confidence 2) [8D898B7D] (AR v2)
Track 31 accurately ripped (confidence 2) [B0BFE92F] (AR v2)
Track 32 accurately ripped (confidence 2) [D532B90E] (AR v2)
Track 33 accurately ripped (confidence 2) [E0D36C5C] (AR v2)
Track 34 accurately ripped (confidence 2) [5336173D] (AR v2)
Track 35 accurately ripped (confidence 2) [AC8BEBFA] (AR v2)
Track 36 accurately ripped (confidence 2) [EE19D7A5] (AR v2)
Track 37 accurately ripped (confidence 2) [46CC69C9] (AR v2)
Track 38 accurately ripped (confidence 2) [C7961EAB] (AR v2)

All tracks accurately ripped

End of status report

–– CUETools DB Plugin V2.1.6

[CTDB TOCID: 53hiavkkLTBVCkEyW6YNmqlxVaM-] found
Submit result: 53hiavkkLTBVCkEyW6YNmqlxVaM- has been confirmed
Track | CTDB Status
1 | (6/6) Accurately ripped
2 | (6/6) Accurately ripped
3 | (6/6) Accurately ripped
4 | (6/6) Accurately ripped
5 | (6/6) Accurately ripped
6 | (6/6) Accurately ripped
7 | (6/6) Accurately ripped
8 | (6/6) Accurately ripped
9 | (6/6) Accurately ripped
10 | (6/6) Accurately ripped
11 | (6/6) Accurately ripped
12 | (6/6) Accurately ripped
13 | (6/6) Accurately ripped
14 | (6/6) Accurately ripped
15 | (6/6) Accurately ripped
16 | (6/6) Accurately ripped
17 | (6/6) Accurately ripped
18 | (6/6) Accurately ripped
19 | (6/6) Accurately ripped
20 | (6/6) Accurately ripped
21 | (6/6) Accurately ripped
22 | (6/6) Accurately ripped
23 | (6/6) Accurately ripped
24 | (6/6) Accurately ripped
25 | (6/6) Accurately ripped
26 | (6/6) Accurately ripped
27 | (6/6) Accurately ripped
28 | (6/6) Accurately ripped
29 | (6/6) Accurately ripped
30 | (6/6) Accurately ripped
31 | (6/6) Accurately ripped
32 | (6/6) Accurately ripped
33 | (6/6) Accurately ripped
34 | (6/6) Accurately ripped
35 | (6/6) Accurately ripped
36 | (6/6) Accurately ripped
37 | (6/6) Accurately ripped
38 | (6/6) Accurately ripped


==== Log checksum 75C224B6C9BC112499EFAAC000D6D5ECC67C1DFAE69083274BC46CA4AB674C55 ====

Rupert Gottfried Frieberger, Barockorchester Munchen - Telemann: Matthaus-Passion 1730 (1994)

Thanks to the original releaser