Subcategories

Royal Hunt - The Best Of Royal Works 1992-2012: 20th Anniversary Special Ed. (2012) [3CD, Japanese SHM-CD] Repost

Posted By: v3122
Royal Hunt - The Best Of Royal Works 1992-2012: 20th Anniversary Special Ed. (2012) [3CD, Japanese SHM-CD] Repost

Royal Hunt - The Best Of Royal Works 1992-2012: 20th Anniversary Special Ed. (2012)
EAC | Flac(Image) + Cue + Log & MP3 CBR 320Kbps
3CD | Avalon/Majestic Ent., MIZP-30003 | ~ 1442 or 482 Mb | Artwork(jpg) -> 143 Mb
Progressive Metal, Heavy/Power Metal

A progressive metal band based out of Denmark, Royal Hunt employs a melody-rich blend of neoclassical power metal and progressive and traditional hard rock. The group found success in the mid-'90s via the albums Moving Target and Paradox, with the latter LP delivering the instrumental "Martial Arts," which became synonymous with professional Japanese wrestler Masahiro Chono when he chose it for his entrance music. Despite enduring numerous lineup changes, the band continued to be prolific well into the 2010s, selling millions of albums worldwide, though their most devoted fan base was in Europe and Japan.

Royal Hunt began in Copenhagen in 1991 when bandleader André Andersen, originally from Moscow, joined up with singer Henrik Brockmann in Denmark, along with bassist Steen Mogensen and drummer Kenneth Olsen. With Andersen on keyboards and session musicians playing guitar, Royal Hunt was set to record their first album, Land of Broken Hearts. This was a basic rock set featuring Andersen's classically influenced melodies. For the next album, Clown in the Mirror, Jacob Kjaer, who had played on the first album, joined the band as lead guitar player. Clown in the Mirror is a much more progressive album and features even more classical-sounding melodies than its predecessor.

A new era of Royal Hunt music began on their next album, Moving Target, when Brockmann was replaced by American singer D.C. Cooper. Although Andersen continued to write all the songs, Cooper brought a different, softer sound to the band. Andersen's songwriting also matured, and Moving Target sounded more like an album, as opposed to a collection of songs. Yet another line-up change ensued by fourth album Paradox – drummer Olsen had to leave the band due to hearing problems. Paradox, featuring a session drummer, continued along in the direction started by Moving Target, albeit a little softer. The concert LP Double Live in Japan and the studio album Fear both dropped in 1999, the latter was the first outing for new vocalist John West. The band's sixth long-player, 2001's The Mission, was a concept album built around author Ray Bradbury's sci-fi classic The Martian Chronicles, and was followed in 2003 by Eyewitness. 2005's Paper Blood saw the departures of Jacob Kjaer and Steen Mogensen, and was the last Royal Hunt outing to feature West on vocals. 2008's Collision Course: Paradox, Vol. 2 introduced new vocalist Mark Boals, who also appeared on 2010's aptly named X. 2011's Show Me How to Live marked the return of vocalist D.C. Cooper, who stayed onboard for follow-up albums A Life to Die For (2013), Devil's Dozen (2015), and Cast in Stone (2018).

~ allmusic
Royal Hunt - The Best Of Royal Works 1992-2012: 20th Anniversary Special Ed. (2012):

Royal Hunt - The Best Of Royal Works 1992-2012: 20th Anniversary Special Ed. (2012) [3CD, Japanese SHM-CD] Repost

Tracklist CD1:

01. Flight (4:00)
02. Kingdom Dark (4:28)
03. Stranded (4:41)
04. Clown In The Mirror (4:35)
05. Wasted Time (4:36)
06. Epilogue (6:00)
07. Time (4:55)
08. Far Away (4:58)
09. 1348 (4:33)
10. River Of Pain (7:14)
11. Tearing Down The World (5:32)
12. Message To God (6:41)

Exact Audio Copy V1.0 beta 3 from 29. August 2011

EAC extraction logfile from 29. November 2012, 17:42

Royal Hunt / The Best Of Royal Works CD1

Used drive : SlimtypeDVD A DS8A5SH Adapter: 0 ID: 1

Read mode : Secure
Utilize accurate stream : Yes
Defeat audio cache : Yes
Make use of C2 pointers : No

Read offset correction : 6
Overread into Lead-In and Lead-Out : No
Fill up missing offset samples with silence : Yes
Delete leading and trailing silent blocks : No
Null samples used in CRC calculations : Yes
Used interface : Native Win32 interface for Win NT & 2000

Used output format : User Defined Encoder
Selected bitrate : 320 kBit/s
Quality : High
Add ID3 tag : No
Command line compressor : C:\Program Files (x86)\Exact Audio Copy\Flac\flac.exe
Additional command line options : -V -8 -T "Date=%year%" -T "Genre=%genre%" %source%


TOC of the extracted CD

Track | Start | Length | Start sector | End sector
––––––––––––––––––––––––––––-
1 | 0:00.00 | 4:00.37 | 0 | 18036
2 | 4:00.37 | 4:28.62 | 18037 | 38198
3 | 8:29.24 | 4:41.20 | 38199 | 59293
4 | 13:10.44 | 4:35.73 | 59294 | 79991
5 | 17:46.42 | 4:36.16 | 79992 | 100707
6 | 22:22.58 | 6:00.67 | 100708 | 127774
7 | 28:23.50 | 4:55.39 | 127775 | 149938
8 | 33:19.14 | 4:58.46 | 149939 | 172334
9 | 38:17.60 | 4:33.23 | 172335 | 192832
10 | 42:51.08 | 7:14.61 | 192833 | 225443
11 | 50:05.69 | 5:32.34 | 225444 | 250377
12 | 55:38.28 | 6:41.68 | 250378 | 280520


Range status and errors

Selected range

Filename D:\My Music\Royal Hunt - The Best Of Royal Works 1992-2012 - 20th Anniversary \CD1\Royal Hunt - The Best Of Royal Works CD1.wav

Peak level 100.0 %
Extraction speed 1.9 X
Range quality 99.9 %
Test CRC B0B9C106
Copy CRC B0B9C106
Copy OK

No errors occurred


AccurateRip summary

Track 1 not present in database
Track 2 not present in database
Track 3 not present in database
Track 4 not present in database
Track 5 not present in database
Track 6 not present in database
Track 7 not present in database
Track 8 not present in database
Track 9 not present in database
Track 10 not present in database
Track 11 not present in database
Track 12 not present in database

None of the tracks are present in the AccurateRip database

End of status report

==== Log checksum DA05FAF3E19264FD115BE2A6D71ABC1942769BAAD095D41AA169D520D4E8E0C4 ====


[CUETools log; Date: 20.11.2019 15:26:56; Version: 2.1.4]
[AccurateRip ID: 0019dedf-00f59d13-890e9c0c] found.
Track [ CRC | V2 ] Status
01 [f8f9ce5b|05ae2089] (0+4/4) Accurately ripped
02 [2073261f|cbc001fc] (0+4/4) Accurately ripped
03 [e69e48e3|7dc68ff5] (0+4/4) Accurately ripped
04 [721dd804|580efc58] (0+4/4) Accurately ripped
05 [c93b82bd|18cc526f] (0+4/4) Accurately ripped
06 [952857d3|fae38301] (0+4/4) Accurately ripped
07 [eeae3a8c|11ea0a3a] (0+4/4) Accurately ripped
08 [26f8edc0|8dc51cfd] (0+4/4) Accurately ripped
09 [fea28209|12198386] (0+4/4) Accurately ripped
10 [2b0b33ba|96370a9d] (0+4/4) Accurately ripped
11 [48aa1f1d|15aa42f9] (0+4/4) Accurately ripped
12 [b399c62d|4afc83b4] (0+3/3) Accurately ripped

Track Peak [ CRC32 ] [W/O NULL] [ LOG ]
– 100,0 [B0B9C106] [579DC431] CRC32
01 100,0 [45481BAD] [A1D14D10]
02 100,0 [30E2A86F] [16324347]
03 100,0 [F7B25365] [6A8C4C76]
04 99,8 [BAF1F2BA] [487C52E2]
05 99,8 [D61ED966] [9AFC75FA]
06 99,8 [A9AF7E59] [AA0DBEC9]
07 99,8 [22DA6E96] [B2CD413A]
08 99,8 [DD5F01FC] [9FF74146]
09 99,8 [7CA5FCE8] [5144F18A]
10 100,0 [AD5C9052] [FF64019C]
11 100,0 [5D435416] [37A36F82]
12 100,0 [CE5ED54A] [FB0F94AB]


Royal Hunt - The Best Of Royal Works 1992-2012: 20th Anniversary Special Ed. (2012) [3CD, Japanese SHM-CD] Repost

Tracklist CD2:

01. Cold City Lights (5:23)
02. Follow Me (6:22)
03. Surrender (Live version) (5:15)
04. The Mission (Live version) (5:35)
05. Can't Let Go (Live version) (4:40)
06. Paper Blood (5:08)
07. Season's Change (4:55)
08. The First Rock (4:47)
09. Tears Of The Sun (6:00)
10. The Well (4:52)
11. Shadowman (5:35)
12. Hard Rain's Coming (5:14)
13. Half Past Loneliness (5:38)

Exact Audio Copy V1.0 beta 3 from 29. August 2011

EAC extraction logfile from 29. November 2012, 18:40

Royal Hunt / The Best Of Royal Works CD2

Used drive : SlimtypeDVD A DS8A5SH Adapter: 0 ID: 1

Read mode : Secure
Utilize accurate stream : Yes
Defeat audio cache : Yes
Make use of C2 pointers : No

Read offset correction : 6
Overread into Lead-In and Lead-Out : No
Fill up missing offset samples with silence : Yes
Delete leading and trailing silent blocks : No
Null samples used in CRC calculations : Yes
Used interface : Native Win32 interface for Win NT & 2000

Used output format : User Defined Encoder
Selected bitrate : 320 kBit/s
Quality : High
Add ID3 tag : No
Command line compressor : C:\Program Files (x86)\Exact Audio Copy\Flac\flac.exe
Additional command line options : -V -8 -T "Date=%year%" -T "Genre=%genre%" %source%


TOC of the extracted CD

Track | Start | Length | Start sector | End sector
––––––––––––––––––––––––––––-
1 | 0:00.00 | 5:23.44 | 0 | 24268
2 | 5:23.44 | 6:22.19 | 24269 | 52937
3 | 11:45.63 | 5:15.04 | 52938 | 76566
4 | 17:00.67 | 5:35.59 | 76567 | 101750
5 | 22:36.51 | 4:40.55 | 101751 | 122805
6 | 27:17.31 | 5:08.11 | 122806 | 145916
7 | 32:25.42 | 4:55.17 | 145917 | 168058
8 | 37:20.59 | 4:47.22 | 168059 | 189605
9 | 42:08.06 | 6:00.06 | 189606 | 216611
10 | 48:08.12 | 4:52.18 | 216612 | 238529
11 | 53:00.30 | 5:35.51 | 238530 | 263705
12 | 58:36.06 | 5:14.71 | 263706 | 287326
13 | 63:51.02 | 5:38.42 | 287327 | 312718


Range status and errors

Selected range

Filename D:\My Music\Royal Hunt - The Best Of Royal Works 1992-2012 - 20th Anniversary \CD2\Royal Hunt - The Best Of Royal Works CD2.wav

Peak level 100.0 %
Extraction speed 2.1 X
Range quality 99.9 %
Test CRC 21CD0370
Copy CRC 21CD0370
Copy OK

No errors occurred


AccurateRip summary

Track 1 not present in database
Track 2 not present in database
Track 3 not present in database
Track 4 not present in database
Track 5 not present in database
Track 6 not present in database
Track 7 not present in database
Track 8 not present in database
Track 9 not present in database
Track 10 not present in database
Track 11 not present in database
Track 12 not present in database
Track 13 not present in database

None of the tracks are present in the AccurateRip database

End of status report

==== Log checksum B936D3C35E6BA8D136E85CB6EC81B02438EB408A9EFDFC2981ED4B31C492D935 ====


[CUETools log; Date: 20.11.2019 15:30:25; Version: 2.1.4]
[AccurateRip ID: 002194e7-014e2820-af10490d] found.
Track [ CRC | V2 ] Status
01 [e55060ef|ceeb9486] (0+4/4) Accurately ripped
02 [9b57ce53|e448c0c0] (0+4/4) Accurately ripped
03 [349bd34e|27e7f230] (0+4/4) Accurately ripped
04 [9a6d8bda|8d2c03da] (0+4/4) Accurately ripped
05 [468edc3c|8f33f239] (0+4/4) Accurately ripped
06 [d56f1665|ebe864f3] (0+4/4) Accurately ripped
07 [23c40f13|130fd774] (0+4/4) Accurately ripped
08 [b6a50286|72c5f72d] (0+4/4) Accurately ripped
09 [8b7a1013|eee1c0ed] (0+4/4) Accurately ripped
10 [10a993da|2f44e01b] (0+4/4) Accurately ripped
11 [3ab70653|0bed3a8a] (0+4/4) Accurately ripped
12 [816de2ff|0e846e1d] (0+4/4) Accurately ripped
13 [ce78e80f|36e96077] (0+4/4) Accurately ripped

Track Peak [ CRC32 ] [W/O NULL] [ LOG ]
– 100,0 [21CD0370] [145723BC] CRC32
01 99,8 [244B6BAF] [CC5D4C1A]
02 99,8 [2D9E8E2D] [FBE2EB73]
03 99,9 [A9F9CAAC] [2B6525DC]
04 100,0 [836274A5] [F46452C2]
05 99,9 [152075CD] [9FF1F85A]
06 100,0 [20CF88C8] [48D70CB0]
07 100,0 [8E7FE030] [A965C461]
08 99,9 [A325588A] [5F9A4570]
09 100,0 [1C40486C] [BCECC952]
10 99,9 [2CE8A495] [9CF8C5EE]
11 100,0 [E1D51530] [F57D73A4]
12 98,7 [2B47B26E] [7207F3F1]
13 98,7 [232D79E9] [6C3733CA]


Royal Hunt - The Best Of Royal Works 1992-2012: 20th Anniversary Special Ed. (2012) [3CD, Japanese SHM-CD] Repost

Tracklist CD3:

01. Save Me (New song) (3:48)
02. One By One (New recording, Acoustic version) (4:42)
03. Bodyguard (New recording, Acoustic version) (4:06)
04. Restless (New recording, Acoustic version) (3:18)
05. Bad Luck (3:16)
06. Double Conversion (4:19)
07. U-Turn (7:24)
08. Sixth Sense (4:22)
09. Day Is Dawning (3:46)

Exact Audio Copy V1.0 beta 3 from 29. August 2011

EAC extraction logfile from 29. November 2012, 19:08

Royal Hunt / The Best Of Royal Works CD3

Used drive : SlimtypeDVD A DS8A5SH Adapter: 0 ID: 1

Read mode : Secure
Utilize accurate stream : Yes
Defeat audio cache : Yes
Make use of C2 pointers : No

Read offset correction : 6
Overread into Lead-In and Lead-Out : No
Fill up missing offset samples with silence : Yes
Delete leading and trailing silent blocks : No
Null samples used in CRC calculations : Yes
Used interface : Native Win32 interface for Win NT & 2000

Used output format : User Defined Encoder
Selected bitrate : 320 kBit/s
Quality : High
Add ID3 tag : No
Command line compressor : C:\Program Files (x86)\Exact Audio Copy\Flac\flac.exe
Additional command line options : -V -8 -T "Date=%year%" -T "Genre=%genre%" %source%


TOC of the extracted CD

Track | Start | Length | Start sector | End sector
––––––––––––––––––––––––––––-
1 | 0:00.00 | 3:48.17 | 0 | 17116
2 | 3:48.17 | 4:42.19 | 17117 | 38285
3 | 8:30.36 | 4:06.22 | 38286 | 56757
4 | 12:36.58 | 3:18.44 | 56758 | 71651
5 | 15:55.27 | 3:16.52 | 71652 | 86403
6 | 19:12.04 | 4:19.34 | 86404 | 105862
7 | 23:31.38 | 7:24.49 | 105863 | 139211
8 | 30:56.12 | 4:22.13 | 139212 | 158874
9 | 35:18.25 | 3:46.32 | 158875 | 175856


Range status and errors

Selected range

Filename D:\My Music\Royal Hunt - The Best Of Royal Works 1992-2012 - 20th Anniversary \CD3\Royal Hunt - The Best Of Royal Works CD3.wav

Peak level 100.0 %
Extraction speed 4.0 X
Range quality 100.0 %
Test CRC 94D8FE98
Copy CRC 94D8FE98
Copy OK

No errors occurred


AccurateRip summary

Track 1 not present in database
Track 2 not present in database
Track 3 not present in database
Track 4 not present in database
Track 5 not present in database
Track 6 not present in database
Track 7 not present in database
Track 8 not present in database
Track 9 not present in database

None of the tracks are present in the AccurateRip database

End of status report

==== Log checksum 3B40310B44903BF58C9F08B01BB602A4F234131973710D0251E6AFEB5DB585C3 ====


[CUETools log; Date: 20.11.2019 15:37:58; Version: 2.1.4]
[AccurateRip ID: 000cf868-006011b7-67092809] found.
Track [ CRC | V2 ] Status
01 [a0543ed7|3119d503] (00+05/12) Accurately ripped
02 [1ed1377e|b779912c] (00+05/12) Accurately ripped
03 [81eb6ffd|5ffce8c2] (00+05/12) Accurately ripped
04 [2fe7b32f|5de4df38] (00+05/12) Accurately ripped
05 [430afa60|843d7cb4] (00+05/12) Accurately ripped
06 [ddfb9788|b5563de7] (00+05/12) Accurately ripped
07 [f02669bf|d6980188] (00+05/12) Accurately ripped
08 [1ae7eb7e|17f18612] (00+05/12) Accurately ripped
09 [c1a95a6c|c01ebc99] (00+05/12) Accurately ripped
Offsetted by 30:
01 [835ed2ed] (00/12) No match (V2 was not tested)
02 [6cca04dc] (00/12) No match (V2 was not tested)
03 [c2f6c2d9] (00/12) No match (V2 was not tested)
04 [1a983aa3] (00/12) No match (V2 was not tested)
05 [f406fb54] (00/12) No match (V2 was not tested)
06 [e38bd1f7] (00/12) No match (V2 was not tested)
07 [04f80e4c] (00/12) No match (V2 was not tested)
08 [5c0a3522] (00/12) No match (V2 was not tested)
09 [6aa7a39c] (00/12) No match (V2 was not tested)

Track Peak [ CRC32 ] [W/O NULL] [ LOG ]
– 100,0 [94D8FE98] [4431F14B] CRC32
01 99,9 [B7910DCC] [976324FC]
02 99,9 [EC3AA30E] [8CC20D6E]
03 99,9 [821A3C40] [E3D15D17]
04 99,9 [271293CA] [66F7F622]
05 100,0 [F898073A] [440BB0C2]
06 99,7 [DFED16F4] [4F9FD7A7]
07 99,8 [100BFDB5] [0E046AB3]
08 99,9 [778F723D] [7AC3B5BA]
09 99,8 [4A8081B3] [36A66020]



All thanks go to kolushew

Royal Hunt in my Blog

Download Royal Hunt - The Best Of Royal Works 1992-2012: 20th Anniversary Special Ed. (2012):