Subcategories
Please register here if you want to download anything!

If domain in your address bar is different from the list below
PLEASE LEAVE THAT SITE IMMEDIATELY
❗IT'S A DANGEROUS FAKE❗



Spicy Magazines for Men! ;-)

Rob Tognoni - Casino Placebo (2013)

Posted By: popsakov
Rob Tognoni - Casino Placebo (2013)

Rob Tognoni - Casino Placebo (2013)
EAC Rip | FLAC (Img) + Cue + Log ~ 440 Mb | MP3 CBR320 ~ 144 Mb
Scans Included | RAR 5% Recovery
Blues Rock | Blues Boulevard / Music Avenue #250355

One of true virtuoso blues-rock guitar heroes of the 21st century, Rob Tognoni returns with Casino Placebo. Besides his trademark rock-crunching guitar sound, killer licks and searing solos, Tognoni revisits the Beatles and adds a pinch of psychedelia with a classic James Bond feel.

***************

Rob Tognoni - Casino Placebo (2013)

Track List:

01. Don't Need Lovin Tonight [03:45]
02. Catcher In The Rye [05:24]
03. Casino Placebo [04:12]
04. Something [03:48]
05. If The Weather Get's Ruff [03:51]
06. Tsunami [03:24]
07. Stolen Heart [03:50]
08. The Last Kiss [03:52]
09. Casino Placebo 2 [03:05]
10. Hard Love [04:37]
11. Relax [03:51]
12. Vegemite [03:11]

Exact Audio Copy V1.0 beta 3 from 29. August 2011

Отчёт EAC об извлечении, выполненном 17. ноября 2013, 2:45

Rob Tognoni / Casino Placebo

Дисковод: PLEXTOR DVDR PX-880SA Adapter: 1 ID: 0

Режим чтения : Достоверность
Использование точного потока : Да
Отключение кэша аудио : Да
Использование указателей C2 : Нет

Коррекция смещения при чтении : 6
Способность читать области Lead-in и Lead-out : Нет
Заполнение пропущенных сэмплов тишиной : Да
Удаление блоков с тишиной в начале и конце : Нет
При вычислениях CRC использовались нулевые сэмплы : Да
Интерфейс : Установленный внешний ASPI-интерфейс

Выходной формат : Пользовательский кодировщик
Выбранный битрейт : 1024 kBit/s
Качество : Высокий
Добавление ID3-тега : Нет
Утилита сжатия : C:\Program Files\Exact Audio Copy\FLAC\FLAC.EXE
Дополнительные параметры : -10 -V -T "ARTIST=%artist%" -T "TITLE=%title%" -T "ALBUM=%albumtitle%" -T "DATE=%year%" -T "TRACKNUMBER=%tracknr%" -T "GENRE=%genre%" -T "COMMENT=%comment%" -T "BAND=%albuminterpret%" -T "ALBUMARTIST=%albuminterpret%" -T "COMPOSER=%composer%" %haslyrics%–tag-from-file=LYRICS="%lyricsfile%"%haslyrics% -T "DISCNUMBER=%cdnumber%" -T "TOTALDISCS=%totalcds%" -T "TOTALTRACKS=%numtracks%" %hascover%–picture="%coverfile%"%hascover% %source% -o %dest%


TOC извлечённого CD

Трек | Старт | Длительность | Начальный сектор | Конечный сектор
––––––––––––––––––––––––––––––––––-
1 | 0:00.00 | 3:45.71 | 0 | 16945
2 | 3:45.71 | 5:24.01 | 16946 | 41246
3 | 9:09.72 | 4:12.73 | 41247 | 60219
4 | 13:22.70 | 3:48.00 | 60220 | 77319
5 | 17:10.70 | 3:51.00 | 77320 | 94644
6 | 21:01.70 | 3:24.72 | 94645 | 110016
7 | 24:26.67 | 3:50.73 | 110017 | 127339
8 | 28:17.65 | 3:52.00 | 127340 | 144739
9 | 32:09.65 | 3:05.00 | 144740 | 158614
10 | 35:14.65 | 4:37.35 | 158615 | 179424
11 | 39:52.25 | 3:51.72 | 179425 | 196821
12 | 43:44.22 | 3:11.71 | 196822 | 211217


Характеристики диапазона извлечения и сообщения об ошибках

Выбранный диапазон

Имя файла D:\BitComet\Rob Tognoni(flac)\2013 - Casino Placebo\Rob Tognoni - Casino Placebo.wav

Пиковый уровень 100.0 %
Скорость извлечения 8.8 X
Качество диапазона 100.0 %
CRC теста B866C216
CRC копии B866C216
Копирование… OK

Ошибок не произошло


AccurateRip: сводка

Трек 1 отсутствует в базе данных
Трек 2 отсутствует в базе данных
Трек 3 отсутствует в базе данных
Трек 4 отсутствует в базе данных
Трек 5 отсутствует в базе данных
Трек 6 отсутствует в базе данных
Трек 7 отсутствует в базе данных
Трек 8 отсутствует в базе данных
Трек 9 отсутствует в базе данных
Трек 10 отсутствует в базе данных
Трек 11 отсутствует в базе данных
Трек 12 отсутствует в базе данных

Ни одного трека нет в базе AccurateRip

Конец отчёта

==== Контрольная сумма отчёта F0B2C2D3916396D2B9B192DE1FE5E69C91BC6B57F7ACED12D8AB6572BCD6A7DF ====

Rob Tognoni - Casino Placebo (2013)

All thanks go to izia1956

>>> Rob Tognoni in y Blog <<<

Download from icerbox.com: