Subcategories
Tags
Language
Tags

Riverside - Shrine of New Generation Slaves (2013) [2CD Limited Edition]

Posted By: gribovar
Riverside - Shrine of New Generation Slaves (2013) [2CD Limited Edition]

Riverside - Shrine of New Generation Slaves (2013) [2CD Limited Edition]
EAC Rip | FLAC (image+.cue+log) - 425 MB | MP3 CBR 320 kbps (LAME 3.93) - 172 MB | Covers - 234 MB
Genre: Progressive Rock/Metal | RAR 3% Rec. | Label: InsideOut Music (0506300)

Shrine of New Generation Slaves, the fifth studio outing from Polish progressive rock outfit Riverside, offers up another vast, propulsive, mercurial, and cinematic set of songs that skillfully skip through genres like a well-oiled radio dial, combining elements of heavy metal, jazz, pop, and Eastern European folk into a surprisingly palatable stew that should please fans of Porcupine Tree, Dream Theater, Pink Floyd, Kansas, and even Opeth.

CD 1 Tracklist:
01. New Generation Slave
02. The Depth of Self-Delusion
03. Celebrity Touch
04. We Got Used To Us
05. Feel Like Falling
06. Deprived (Irretrievably Lost Imagination)
07. Escalator Shrine
08. Coda

Total time: 51:00

CD 2 Tracklist:
01. Night Session - Part One
02. Night Session - Part Two

Total time: 22:17

Exact Audio Copy V1.0 beta 3 from 29. August 2011

EAC extraction logfile from 28. April 2013, 23:22

Riverside / Shrine of New Generation Slaves

Used drive : ASUS DRW-24B3LT Adapter: 2 ID: 0

Read mode : Secure
Utilize accurate stream : Yes
Defeat audio cache : Yes
Make use of C2 pointers : No

Read offset correction : 6
Overread into Lead-In and Lead-Out : No
Fill up missing offset samples with silence : Yes
Delete leading and trailing silent blocks : No
Null samples used in CRC calculations : Yes
Used interface : Native Win32 interface for Win NT & 2000

Used output format : Internal WAV Routines
Sample format : 44.100 Hz; 16 Bit; Stereo


TOC of the extracted CD

Track | Start | Length | Start sector | End sector
––––––––––––––––––––––––––––-
1 | 0:00.00 | 4:17.20 | 0 | 19294
2 | 4:17.20 | 7:39.47 | 19295 | 53766
3 | 11:56.67 | 6:47.26 | 53767 | 84317
4 | 18:44.18 | 4:10.66 | 84318 | 103133
5 | 22:55.09 | 5:18.22 | 103134 | 127005
6 | 28:13.31 | 8:26.06 | 127006 | 164961
7 | 36:39.37 | 12:41.02 | 164962 | 222038
8 | 49:20.39 | 1:39.27 | 222039 | 229490


Range status and errors

Selected range

Filename D:\Osieron\Desktop\Test&Copy\Riverside - Shrine of New Generation Slaves.wav

Peak level 98.7 %
Extraction speed 8.7 X
Range quality 100.0 %
Test CRC F89323AB
Copy CRC F89323AB
Copy OK

No errors occurred


AccurateRip summary

Track 1 accurately ripped (confidence 4) [69236BCD] (AR v2)
Track 2 accurately ripped (confidence 4) [FCE839B0] (AR v2)
Track 3 accurately ripped (confidence 4) [C306EA32] (AR v2)
Track 4 accurately ripped (confidence 4) [F8EDE9E7] (AR v2)
Track 5 accurately ripped (confidence 4) [D4CAF389] (AR v2)
Track 6 accurately ripped (confidence 4) [8B076212] (AR v2)
Track 7 accurately ripped (confidence 4) [1D3D69F8] (AR v2)
Track 8 accurately ripped (confidence 4) [91819030] (AR v2)

All tracks accurately ripped

End of status report

==== Log checksum AB1F0153E284DFB5ACFCF3E2F0C0B78AD8CA9BF44F3809E59BA9A8F1BDAD7320 ====

[CUETools log; Date: 29.03.2019 23:54:35; Version: 2.1.4]
[CTDB TOCID: U1xYCKyTIBjEm6WFRHaZqEs3lVg-] found.
Track | CTDB Status
1 | (515/522) Accurately ripped, or (5/522) differs in 199 samples @03:22:26,03:27:29,03:27:40-03:27:41,03:27:51-03:27:52,03:27:62-03:27:63,03:28:08-03:28:09,03:29:09,03:29:63-03:29:64,03:30:21,03:31:22,03:31:33
2 | (520/522) Accurately ripped
3 | (520/522) Accurately ripped
4 | (520/522) Accurately ripped
5 | (519/522) Accurately ripped
6 | (520/522) Accurately ripped
7 | (518/522) Accurately ripped
8 | (519/522) Accurately ripped
[AccurateRip ID: 000f51ec-0067eec7-6b0bf308] found.
Track [ CRC | V2 ] Status
01 [b4b96763|69236bcd] (016+126/223) Accurately ripped
02 [fac2007e|fce839b0] (016+125/223) Accurately ripped
03 [a37708da|c306ea32] (016+125/223) Accurately ripped
04 [e88852fc|f8ede9e7] (016+125/223) Accurately ripped
05 [113ea83f|d4caf389] (016+125/222) Accurately ripped
06 [529003b6|8b076212] (016+125/222) Accurately ripped
07 [1934515b|1d3d69f8] (016+125/222) Accurately ripped
08 [5f756ded|91819030] (016+124/221) Accurately ripped
Offsetted by -658:
01 [c72d07b1] (006/223) Accurately ripped
02 [67cb07c9] (006/223) Accurately ripped
03 [efd7cb84] (006/223) Accurately ripped
04 [07c41f1a] (006/223) Accurately ripped
05 [e74f293f] (006/222) Accurately ripped
06 [551770d2] (006/222) Accurately ripped
07 [bda2f76d] (006/222) Accurately ripped
08 [4cabae83] (006/221) Accurately ripped
Offsetted by 12:
01 [ea879cc9] (004/223) Accurately ripped
02 [53968984] (004/223) Accurately ripped
03 [35e9fcbe] (004/223) Accurately ripped
04 [e6681be8] (004/223) Accurately ripped
05 [d86dd23f] (004/222) Accurately ripped
06 [81fb424e] (004/222) Accurately ripped
07 [33c6244f] (004/222) Accurately ripped
08 [eb158289] (004/221) Accurately ripped
Offsetted by -649:
01 [a427b662] (000/223) No match (V2 was not tested)
02 [7d92c1dd] (000/223) No match (V2 was not tested)
03 [5dae026f] (000/223) No match (V2 was not tested)
04 [062bf5cb] (000/223) No match (V2 was not tested)
05 [bcb288bf] (000/222) No match (V2 was not tested)
06 [38a7dfc4] (000/222) No match (V2 was not tested)
07 [519055a4] (000/222) No match (V2 was not tested)
08 [f563bdf8] (000/221) No match (V2 was not tested)
Offsetted by -54:
01 [2a6bffd5] (000/223) No match (V2 was not tested)
02 [ad96ef59] (000/223) No match (V2 was not tested)
03 [1071bf58] (000/223) No match (V2 was not tested)
04 [f2194ad6] (000/223) No match (V2 was not tested)
05 [10ea6b3f] (000/222) No match (V2 was not tested)
06 [fd2d6a0a] (000/222) No match (V2 was not tested)
07 [a1a41c11] (000/222) No match (V2 was not tested)
08 [6b25112f] (000/221) No match (V2 was not tested)

Track Peak [ CRC32 ] [W/O NULL] [ LOG ]
– 98,7 [F89323AB] [0A222411] CRC32
01 98,7 [58C0B76E] [BC844AFE]
02 98,7 [5C85C81F] [7D7C0B0F]
03 98,7 [494D678A] [4BEBC554]
04 98,7 [C31749A3] [4760F3E6]
05 98,7 [14CD7BC7] [290F9577]
06 98,7 [8B0ECF92] [C639A844]
07 98,7 [24B81B64] [67986EEC]
08 98,7 [4DB8B29F] [5183B86B]

Exact Audio Copy V1.0 beta 3 from 29. August 2011

EAC extraction logfile from 28. April 2013, 23:40

Riverside / Shrine of New Generation Slaves (Bonus Disc)

Used drive : ASUS DRW-24B3LT Adapter: 2 ID: 0

Read mode : Secure
Utilize accurate stream : Yes
Defeat audio cache : Yes
Make use of C2 pointers : No

Read offset correction : 6
Overread into Lead-In and Lead-Out : No
Fill up missing offset samples with silence : Yes
Delete leading and trailing silent blocks : No
Null samples used in CRC calculations : Yes
Used interface : Native Win32 interface for Win NT & 2000

Used output format : Internal WAV Routines
Sample format : 44.100 Hz; 16 Bit; Stereo


TOC of the extracted CD

Track | Start | Length | Start sector | End sector
––––––––––––––––––––––––––––-
1 | 0:00.00 | 10:44.08 | 0 | 48307
2 | 10:44.08 | 11:32.40 | 48308 | 100247


Range status and errors

Selected range

Filename D:\Osieron\Desktop\Test&Copy\Riverside - Shrine of New Generation Slaves (Bonus Disc).wav

Peak level 98.7 %
Extraction speed 6.9 X
Range quality 99.9 %
Test CRC 174867AA
Copy CRC 174867AA
Copy OK

No errors occurred


AccurateRip summary

Track 1 accurately ripped (confidence 5) [12A5CC27] (AR v2)
Track 2 accurately ripped (confidence 5) [9534684E] (AR v2)

All tracks accurately ripped

End of status report

==== Log checksum C880C03BE0F05D09630F49380134CC40265C6EC816D2D099E4B412F55D88AF86 ====

[CUETools log; Date: 29.03.2019 23:54:59; Version: 2.1.4]
[CTDB TOCID: bk2TqD4i2RKn5DD7yaa_v7jy8wA-] found.
Track | CTDB Status
1 | (232/232) Accurately ripped
2 | (232/232) Accurately ripped
[AccurateRip ID: 0002444c-00061031-12053802] found.
Track [ CRC | V2 ] Status
01 [2fa08203|12a5cc27] (012+078/116) Accurately ripped
02 [39ede9b1|9534684e] (012+079/117) Accurately ripped
Offsetted by -30:
01 [73038f43] (004/116) Accurately ripped
02 [1038dfed] (004/117) Accurately ripped

Track Peak [ CRC32 ] [W/O NULL] [ LOG ]
– 98,7 [174867AA] [5D2457F5] CRC32
01 98,7 [9861FFF4] [47596656]
02 98,7 [7346DA43] [A8DBCD47]

Thanks to Vilenia

See also:
Lunatic Soul - 3 Studio Albums (2008-2011)