Tags
Language
Tags

Rebecca Ferguson - Lady Sings the Blues (2015) {Sony}

Posted By: tiburon
Rebecca Ferguson - Lady Sings the Blues (2015) {Sony}

Rebecca Ferguson - Lady Sings the Blues (2015) {Sony}
EAC 1.3 | FLAC tracks level 8 | Cue+Log+M3U | Full Scans 300dpi | 338MB + 5% Recovery
MP3 CBR 320 Kbps | 128MB + 5% Recovery
Genre: Jazz, Vocal Jazz, R&B
Rebecca Ferguson - Lady Sings the Blues (2015) {Sony}

Third studio album by the British singer/songwriter. Debuting at #7 in the UK Albums Chart, the album features songs made famous by the American jazz singer Billie Holiday. Songs on the album include 'Get Happy', 'That Ole Devil Called Love', 'Summertime' and 'Stormy Weather'.
Track List
1 Get Happy
2 Fine And Mellow
3 Embraceable You
4 That Ole Devil Called Love
5 Blue Moon
6 I Thought About You
7 Summertime
8 I'll Never Smile Again
9 Lover Man (Oh Where Can You Be)
10 All Of Me
11 God Bless The Child
12 What Is This Thing Called Love
13 Stormy Weather
14 Lady Sings The Blues
15 Willow Weep For Me
16 Don't Explain
17 My Man

Produced by Troy Miller


Exact Audio Copy V1.3 from 2. September 2016

EAC extraction logfile from 17. February 2017, 10:17

Rebecca Ferguson / Lady Sings The Blues

Used drive : ATAPI DVD A DH16AAL Adapter: 1 ID: 0

Read mode : Secure
Utilize accurate stream : Yes
Defeat audio cache : Yes
Make use of C2 pointers : No

Read offset correction : 6
Overread into Lead-In and Lead-Out : No
Fill up missing offset samples with silence : Yes
Delete leading and trailing silent blocks : No
Null samples used in CRC calculations : Yes
Used interface : Native Win32 interface for Win NT & 2000
Gap handling : Appended to previous track

Used output format : User Defined Encoder
Selected bitrate : 1024 kBit/s
Quality : High
Add ID3 tag : No
Command line compressor : C:\Program Files (x86)\Exact Audio Copy\Flac\flac.exe
Additional command line options : -8 -e -p -V -T "ARTIST=%artist%" -T "TITLE=%title%" -T "ALBUM=%albumtitle%" -T "DATE=%year%" -T "TRACKNUMBER=%tracknr%" -T "GENRE=%genre%" -T "PERFORMER=%albuminterpret%" -T "COMPOSER=%composer%" %haslyrics%–tag-from-file=LYRICS="%lyricsfile%"%haslyrics% -T "ALBUMARTIST=%albumartist%" -T "DISCNUMBER=%cdnumber%" -T "TOTALDISCS=%totalcds%" -T "TOTALTRACKS=%numtracks%" -T "COMMENT=%comment%" %source% -o %dest%


TOC of the extracted CD

Track | Start | Length | Start sector | End sector
––––––––––––––––––––––––––––-
1 | 0:00.00 | 2:48.43 | 0 | 12642
2 | 2:48.43 | 2:36.34 | 12643 | 24376
3 | 5:25.02 | 3:36.24 | 24377 | 40600
4 | 9:01.26 | 3:06.01 | 40601 | 54551
5 | 12:07.27 | 2:50.34 | 54552 | 67335
6 | 14:57.61 | 3:03.12 | 67336 | 81072
7 | 18:00.73 | 2:50.28 | 81073 | 93850
8 | 20:51.26 | 3:21.09 | 93851 | 108934
9 | 24:12.35 | 3:18.21 | 108935 | 123805
10 | 27:30.56 | 2:38.70 | 123806 | 135725
11 | 30:09.51 | 3:33.01 | 135726 | 151701
12 | 33:42.52 | 2:37.58 | 151702 | 163534
13 | 36:20.35 | 3:11.68 | 163535 | 177927
14 | 39:32.28 | 3:36.36 | 177928 | 194163
15 | 43:08.64 | 2:38.36 | 194164 | 206049
16 | 45:47.25 | 3:51.50 | 206050 | 223424
17 | 49:39.00 | 3:34.06 | 223425 | 239480


Track 1

Filename C:\Zelou\EAC Rips\Rebecca Ferguson - Lady Sings The Blues (2015) [FLAC] {88875053342}\01 - Get Happy.wav

Pre-gap length 0:00:02.00

Peak level 100.0 %
Extraction speed 1.7 X
Track quality 100.0 %
Test CRC F15A2F21
Copy CRC F15A2F21
Accurately ripped (confidence 19) [8926BA12] (AR v2)
Copy OK

Track 2

Filename C:\Zelou\EAC Rips\Rebecca Ferguson - Lady Sings The Blues (2015) [FLAC] {88875053342}\02 - Fine And Mellow.wav

Peak level 92.6 %
Extraction speed 1.8 X
Track quality 100.0 %
Test CRC 8352380D
Copy CRC 8352380D
Accurately ripped (confidence 19) [2605F023] (AR v2)
Copy OK

Track 3

Filename C:\Zelou\EAC Rips\Rebecca Ferguson - Lady Sings The Blues (2015) [FLAC] {88875053342}\03 - Embraceable You.wav

Peak level 91.6 %
Extraction speed 2.1 X
Track quality 100.0 %
Test CRC 54DD4CC5
Copy CRC 54DD4CC5
Accurately ripped (confidence 19) [DF9F8E99] (AR v2)
Copy OK

Track 4

Filename C:\Zelou\EAC Rips\Rebecca Ferguson - Lady Sings The Blues (2015) [FLAC] {88875053342}\04 - That Ole Devil Called Love.wav

Peak level 93.9 %
Extraction speed 2.2 X
Track quality 100.0 %
Test CRC 85697084
Copy CRC 85697084
Accurately ripped (confidence 19) [C877473B] (AR v2)
Copy OK

Track 5

Filename C:\Zelou\EAC Rips\Rebecca Ferguson - Lady Sings The Blues (2015) [FLAC] {88875053342}\05 - Blue Moon.wav

Peak level 92.5 %
Extraction speed 2.2 X
Track quality 100.0 %
Test CRC 0EDD062C
Copy CRC 0EDD062C
Accurately ripped (confidence 19) [5CB5648E] (AR v2)
Copy OK

Track 6

Filename C:\Zelou\EAC Rips\Rebecca Ferguson - Lady Sings The Blues (2015) [FLAC] {88875053342}\06 - I Thought About You.wav

Peak level 92.6 %
Extraction speed 2.4 X
Track quality 100.0 %
Test CRC 0F4B0247
Copy CRC 0F4B0247
Accurately ripped (confidence 19) [BBF6EC5E] (AR v2)
Copy OK

Track 7

Filename C:\Zelou\EAC Rips\Rebecca Ferguson - Lady Sings The Blues (2015) [FLAC] {88875053342}\07 - Summertime.wav

Peak level 92.4 %
Extraction speed 2.4 X
Track quality 100.0 %
Test CRC 2F68867C
Copy CRC 2F68867C
Accurately ripped (confidence 19) [E279C21C] (AR v2)
Copy OK

Track 8

Filename C:\Zelou\EAC Rips\Rebecca Ferguson - Lady Sings The Blues (2015) [FLAC] {88875053342}\08 - I'll Never Smile Again.wav

Peak level 91.3 %
Extraction speed 2.6 X
Track quality 100.0 %
Test CRC DD85816D
Copy CRC DD85816D
Accurately ripped (confidence 19) [EE01E705] (AR v2)
Copy OK

Track 9

Filename C:\Zelou\EAC Rips\Rebecca Ferguson - Lady Sings The Blues (2015) [FLAC] {88875053342}\09 - Lover Man (Oh Where Can You Be).wav

Peak level 92.2 %
Extraction speed 2.7 X
Track quality 100.0 %
Test CRC 174523E2
Copy CRC 174523E2
Accurately ripped (confidence 19) [BA1D17EA] (AR v2)
Copy OK

Track 10

Filename C:\Zelou\EAC Rips\Rebecca Ferguson - Lady Sings The Blues (2015) [FLAC] {88875053342}\10 - All Of Me.wav

Peak level 91.6 %
Extraction speed 2.7 X
Track quality 100.0 %
Test CRC B8FA6A39
Copy CRC B8FA6A39
Accurately ripped (confidence 19) [0F9EDF73] (AR v2)
Copy OK

Track 11

Filename C:\Zelou\EAC Rips\Rebecca Ferguson - Lady Sings The Blues (2015) [FLAC] {88875053342}\11 - God Bless The Child.wav

Peak level 92.3 %
Extraction speed 2.9 X
Track quality 100.0 %
Test CRC A260A54C
Copy CRC A260A54C
Accurately ripped (confidence 19) [8A0399EA] (AR v2)
Copy OK

Track 12

Filename C:\Zelou\EAC Rips\Rebecca Ferguson - Lady Sings The Blues (2015) [FLAC] {88875053342}\12 - What Is This Thing Called Love.wav

Peak level 97.7 %
Extraction speed 2.9 X
Track quality 100.0 %
Test CRC 825E43CB
Copy CRC 825E43CB
Accurately ripped (confidence 19) [8B33B30C] (AR v2)
Copy OK

Track 13

Filename C:\Zelou\EAC Rips\Rebecca Ferguson - Lady Sings The Blues (2015) [FLAC] {88875053342}\13 - Stormy Weather.wav

Peak level 91.6 %
Extraction speed 2.1 X
Track quality 99.9 %
Test CRC F0926BED
Copy CRC F0926BED
Accurately ripped (confidence 19) [4DB6869E] (AR v2)
Copy OK

Track 14

Filename C:\Zelou\EAC Rips\Rebecca Ferguson - Lady Sings The Blues (2015) [FLAC] {88875053342}\14 - Lady Sings The Blues.wav

Peak level 92.2 %
Extraction speed 2.3 X
Track quality 99.9 %
Test CRC D8725D4E
Copy CRC D8725D4E
Accurately ripped (confidence 19) [06536C58] (AR v2)
Copy OK

Track 15

Filename C:\Zelou\EAC Rips\Rebecca Ferguson - Lady Sings The Blues (2015) [FLAC] {88875053342}\15 - Willow Weep For Me.wav

Peak level 91.3 %
Extraction speed 3.1 X
Track quality 100.0 %
Test CRC E88A30E8
Copy CRC E88A30E8
Accurately ripped (confidence 19) [82096DAB] (AR v2)
Copy OK

Track 16

Filename C:\Zelou\EAC Rips\Rebecca Ferguson - Lady Sings The Blues (2015) [FLAC] {88875053342}\16 - Don't Explain.wav

Peak level 91.4 %
Extraction speed 3.4 X
Track quality 100.0 %
Test CRC F7D12B07
Copy CRC F7D12B07
Accurately ripped (confidence 19) [23531C8F] (AR v2)
Copy OK

Track 17

Filename C:\Zelou\EAC Rips\Rebecca Ferguson - Lady Sings The Blues (2015) [FLAC] {88875053342}\17 - My Man.wav

Peak level 95.0 %
Extraction speed 3.5 X
Track quality 100.0 %
Test CRC 572C9BC4
Copy CRC 572C9BC4
Accurately ripped (confidence 19) [B994857E] (AR v2)
Copy OK


All tracks accurately ripped

No errors occurred

End of status report

–– CUETools DB Plugin V2.1.6

[CTDB TOCID: lZUg172vbiHGIKYQhh4GQex6CC8-] found
Submit result: lZUg172vbiHGIKYQhh4GQex6CC8- has been confirmed
Track | CTDB Status
1 | (78/78) Accurately ripped
2 | (78/78) Accurately ripped
3 | (78/78) Accurately ripped
4 | (78/78) Accurately ripped
5 | (78/78) Accurately ripped
6 | (78/78) Accurately ripped
7 | (78/78) Accurately ripped
8 | (78/78) Accurately ripped
9 | (78/78) Accurately ripped
10 | (78/78) Accurately ripped
11 | (78/78) Accurately ripped
12 | (78/78) Accurately ripped
13 | (78/78) Accurately ripped
14 | (78/78) Accurately ripped
15 | (78/78) Accurately ripped
16 | (78/78) Accurately ripped
17 | (76/78) Accurately ripped


==== Log checksum 0B1521A4CDCABE8EED5E98F75B3A60615F156E7A9D6097512ECBE3C91F9BB477 ====

Rebecca Ferguson - Lady Sings the Blues (2015) {Sony}
Rebecca Ferguson - Lady Sings the Blues (2015) {Sony}


Thanks to the original ripper