Subcategories
Please register here if you want to download anything!

If domain in your address bar is different from the list below
PLEASE LEAVE THAT SITE IMMEDIATELY
❗IT'S A DANGEROUS FAKE❗



Spicy Magazines for Men! ;-)

Rage Against The Machine - Rage Against The Machine (1992) [Audio Fidelity 2016]

Posted By: Designol
Rage Against The Machine - Rage Against The Machine (1992) [Audio Fidelity 2016]

Rage Against The Machine - Rage Against The Machine (1992)
Remastered by Steve Hoffman & Steven Marsh, 2016
EAC | FLAC | Image (Cue&Log) ~ 342 Mb | Mp3 (CBR320) ~ 121 Mb | Scans ~ 85 Mb | 00:52:58
Alternative Metal, Funk Metal, Rapcore, Alternative Rock | Label: Audio Fidelity | # AFZ-244

'Rage Against the Machine' is the debut studio album by Rage Against the Machine. The album was released on November 3, 1992. It went to #1 on the Billboard Heatseekers chart, and #45 on the Billboard 200 chart. In 2001, Q named Rage Against the Machine as one of the 50 Heaviest Albums Of All Time. The album is included in the book 1001 Albums You Must Hear Before You Die. In 2012, the album was ranked number 365 on Rolling Stone magazine's list of the 500 greatest albums of all time.

Probably the first album to successfully merge the seemingly disparate sounds of rap and heavy metal, Rage Against the Machine's self-titled debut was groundbreaking enough when released in 1992, but many would argue that it has yet to be surpassed in terms of influence and sheer brilliance – though countless bands have certainly tried. This is probably because the uniquely combustible creative relationship between guitar wizard Tom Morello and literate rebel vocalist Zack de la Rocha could only burn this bright, this once. While the former's roots in '80s heavy metal shredding gave rise to an inimitable array of six-string acrobatics and rhythmic special effects (few of which anyone else has managed to replicate), the latter delivered meaningful rhymes with an emotionally charged conviction that suburban white boys of the ensuing nu-metal generation could never hope to touch. As a result, syncopated slabs of hard rock insurrection like "Bombtrack," "Take the Power Back," and "Know Your Enemy" were as instantly unforgettable as they were astonishing. Yet even they paled in comparison to veritable clinics in the art of slowly mounting tension such as "Settle for Nothing," "Bullet in the Head," and the particularly venomous "Wake Up" (where Morello revises Led Zeppelin's "Kashmir" riff for his own needs) – all of which finally exploded with awesome power and fury. And even listeners who were unable (or unwilling) to fully process the band's unique clash of muscle and intellect were catered to, as RATM were able to convey their messages through stubborn repetition via the fundamental challenge of "Freedom" and their signature track, "Killing in the Name," which would become a rallying cry of disenfranchisement, thanks to its relentlessly rebellious mantra of "Fuck you, I won't do what you tell me!" Ultimately, if there's any disappointment to be had with this near-perfect album, it's that it still towers above subsequent efforts as the unequivocal climax of Rage Against the Machine's vision. As such, it remains absolutely essential.

Review by Eduardo Rivadavia, Allmusic.com

Rage Against The Machine - Rage Against The Machine (1992) [Audio Fidelity 2016]



Tracklist:

01. Bombtrack (4:05)
02. Killing In The Name (5:15)
03. Take The Power Back (5:36)
04. Settle For Nothing (4:48)
05. Bullet In The Head (5:10)
06. Know Your Enemy (4:56)
07. Wake Up (6:04)
08. Fistful Of Steel (5:31)
09. Towership Rebellion (5:24)
10. Freedom (6:09)


Exact Audio Copy V1.1 from 23. June 2015

EAC extraction logfile from 29. March 2017, 21:32

Rage Against The Machine / Rage Against The Machine [2016, AFZ 244]

Used drive : HL-DT-STDVDRAM GH24NSD0 Adapter: 1 ID: 0

Read mode : Secure
Utilize accurate stream : Yes
Defeat audio cache : Yes
Make use of C2 pointers : No

Read offset correction : 6
Overread into Lead-In and Lead-Out : No
Fill up missing offset samples with silence : Yes
Delete leading and trailing silent blocks : No
Null samples used in CRC calculations : Yes
Used interface : Native Win32 interface for Win NT & 2000

Used output format : User Defined Encoder
Selected bitrate : 768 kBit/s
Quality : High
Add ID3 tag : No
Command line compressor : C:\Program Files (x86)\Exact Audio Copy\FLAC\FLAC.EXE
Additional command line options : -V -8 -T "Genre=%genre%" -T "Artist=%artist%" -T "Title=%title%" -T "Album=%albumtitle%" -T "Date=%year%" -T "Tracknumber=%tracknr%" -T "Comment=%comment%" %source%


TOC of the extracted CD

Track | Start | Length | Start sector | End sector
––––––––––––––––––––––––––––-
1 | 0:00.00 | 4:05.08 | 0 | 18382
2 | 4:05.08 | 5:14.50 | 18383 | 41982
3 | 9:19.58 | 5:35.74 | 41983 | 67181
4 | 14:55.57 | 4:48.22 | 67182 | 88803
5 | 19:44.04 | 5:09.45 | 88804 | 112023
6 | 24:53.49 | 4:55.41 | 112024 | 134189
7 | 29:49.15 | 6:04.11 | 134190 | 161500
8 | 35:53.26 | 5:31.17 | 161501 | 186342
9 | 41:24.43 | 5:24.37 | 186343 | 210679
10 | 46:49.05 | 6:08.65 | 210680 | 238344


Range status and errors

Selected range

Filename D:\g.y.m\Rage Against The Machine\1992. Rage Against The Machine [2016, AFZ 244]\Rage Against The Machine - Rage Against The Machine [2016, AFZ 244].wav

Peak level 96.0 %
Extraction speed 7.8 X
Range quality 99.9 %
Test CRC 6D9BF2B0
Copy CRC 6D9BF2B0
Copy OK

No errors occurred


AccurateRip summary

Track 1 accurately ripped (confidence 22) [9F009ED1] (AR v2)
Track 2 accurately ripped (confidence 22) [29847C69] (AR v2)
Track 3 accurately ripped (confidence 22) [58EE68A8] (AR v2)
Track 4 accurately ripped (confidence 22) [500D4FB1] (AR v2)
Track 5 accurately ripped (confidence 22) [7AEA0FDB] (AR v2)
Track 6 accurately ripped (confidence 22) [A2C0751A] (AR v2)
Track 7 accurately ripped (confidence 22) [190F75D0] (AR v2)
Track 8 accurately ripped (confidence 22) [18A064F8] (AR v2)
Track 9 accurately ripped (confidence 22) [8928A937] (AR v2)
Track 10 accurately ripped (confidence 22) [273802FC] (AR v2)

All tracks accurately ripped

End of status report

==== Log checksum B69D529693B992E6B93EC5BC4CDACA9C153B3BC5F5E29EAB4933533271EE4972 ====

foobar2000 1.2 / Dynamic Range Meter 1.1.1
log date: 2017-03-30 16:10:53

––––––––––––––––––––––––––––––––––––––––
Analyzed: Rage Against The Machine / Rage Against The Machine [2016, AFZ 244]
––––––––––––––––––––––––––––––––––––––––

DR Peak RMS Duration Track
––––––––––––––––––––––––––––––––––––––––
DR10 -0.35 dB -13.03 dB 4:05 01-Bombtrack
DR11 -1.17 dB -14.02 dB 5:15 02-Killing In The Name
DR12 -1.23 dB -15.28 dB 5:36 03-Take The Power Back
DR11 -1.58 dB -16.31 dB 4:48 04-Settle For Nothing
DR10 -0.57 dB -12.84 dB 5:10 05-Bullet In The Head
DR11 -0.81 dB -14.09 dB 4:56 06-Know Your Enemy
DR11 -0.78 dB -13.18 dB 6:04 07-Wake Up
DR12 -1.16 dB -16.59 dB 5:31 08-Fistful Of Steel
DR11 -1.88 dB -14.68 dB 5:24 09-Towership Rebellion
DR11 -1.09 dB -14.42 dB 6:09 10-Freedom
––––––––––––––––––––––––––––––––––––––––

Number of tracks: 10
Official DR value: DR11

Samplerate: 44100 Hz
Channels: 2
Bits per sample: 16
Bitrate: 903 kbps
Codec: FLAC
================================================================================

Rage Against The Machine - Rage Against The Machine (1992) [Audio Fidelity 2016]

Rage Against The Machine - Rage Against The Machine (1992) [Audio Fidelity 2016]

All thanks to original releaser - g.y.m

More interesting music in My Blog