Subcategories
Tags
Language
Tags

Rachel's - Systems/Layers (2003) {¼ Stick} **[RE-UP]**

Posted By: TestTickles
Rachel's - Systems/Layers (2003) {¼ Stick} **[RE-UP]**

Rachel's - Systems/Layers (2003) {¼ Stick}
EAC Rip | FLAC with CUE and log | scans | 309 mb
MP3 CBR 320kbps | RAR | 153 mb
Genre: indie rock, post-rock, electronic

Systems/Layers is the 2003 album by Rachel's. This was released on the ¼ Stick (Quarterstick) label.

Rachel's - Systems/Layers (2003) {¼ Stick} **[RE-UP]**

1. Moscow Is In The Telephone (3:59)
2. Water From The Same Source (6:18)
3. systems/layers (3:11)
4. Expect Delays (3:57)
5. Arterial (1:45)
6. even/odd (3:14)
7. Wouldn't Live Anywhere Else (2:47)
8. Esperanza (5:32)
9. Packet Switching (1:09)
10. where_have_all_my_files_gone? (2:49)
11. Reflective Surfaces (2:00)
12. Unclear Channel (2:47)
13. Last Things Last (3:33)
14. Anytime Soon (2:18)
15. Air Conditioning/a closed feeling (3:39)
16. Singing Bridge (2:13)
17. And Keep Smiling (2:38)
18. 4 Or 5 Trees (6:04)
19. NY Snow Globe (2:28)

Kyle Crabtree – drums
Christian Frederickson – viola, keyboards
Edward Grimes – drums, keyboards
Rachel Grimes – piano, keyboards
Greg King – films
Eve Miller – cello
Jason Noble – bass, guitar, drums, toolbelt, keyboards

ADDITIONAL VOCALS/CHAMPIONS
Matthew Annin – French horn
Wendy Doyle – cello
Doug Elmore – stand-up bass
Jane Halliday – violin
Sarah Hill – violin
Jamie Hofman-viola
Scott Stable-violin
Shannon Wright – vocals (track 13)
Tim Zavadil-clarinet
Frederick Speck-conductor (track (8)

VOICES:
Jim Cohen
Barney O'Hanlon
Tara Schoch
Akiko Aizawa
Stephen Webber
Libby King
Susan Hightower
Doug (at the Empire State Building)
Ariana Pere-Rivas
Dino Bektasevic
Hibba Abdul-Jabbar



Recorded July 2001 to June 2003
Mixed at SOMA Studios, Chicago, Illinois
Engineered and mixed by Bob Weston and Rachel's
Mastered by JJ Golden

Exact Audio Copy V1.1 from 23. June 2015

EAC extraction logfile from 19. November 2016, 17:06

Rachel's / Systems/Layers

Used drive : TEAC DVD-ROM DV-28SW Adapter: 1 ID: 0

Read mode : Secure
Utilize accurate stream : Yes
Defeat audio cache : Yes
Make use of C2 pointers : No

Read offset correction : 6
Overread into Lead-In and Lead-Out : No
Fill up missing offset samples with silence : Yes
Delete leading and trailing silent blocks : No
Null samples used in CRC calculations : Yes
Used interface : Native Win32 interface for Win NT & 2000
Gap handling : Appended to previous track

Used output format : Internal WAV Routines
Sample format : 44.100 Hz; 16 Bit; Stereo


TOC of the extracted CD

Track | Start | Length | Start sector | End sector
––––––––––––––––––––––––––––-
1 | 0:00.00 | 3:58.66 | 0 | 17915
2 | 3:58.66 | 6:18.05 | 17916 | 46270
3 | 10:16.71 | 3:10.65 | 46271 | 60585
4 | 13:27.61 | 3:56.62 | 60586 | 78347
5 | 17:24.48 | 1:45.04 | 78348 | 86226
6 | 19:09.52 | 3:13.57 | 86227 | 100758
7 | 22:23.34 | 2:47.08 | 100759 | 113291
8 | 25:10.42 | 5:31.39 | 113292 | 138155
9 | 30:42.06 | 1:09.39 | 138156 | 143369
10 | 31:51.45 | 2:48.67 | 143370 | 156036
11 | 34:40.37 | 2:00.07 | 156037 | 165043
12 | 36:40.44 | 2:47.10 | 165044 | 177578
13 | 39:27.54 | 3:32.66 | 177579 | 193544
14 | 43:00.45 | 2:18.18 | 193545 | 203912
15 | 45:18.63 | 3:38.49 | 203913 | 220311
16 | 48:57.37 | 2:13.14 | 220312 | 230300
17 | 51:10.51 | 2:38.14 | 230301 | 242164
18 | 53:48.65 | 6:04.37 | 242165 | 269501
19 | 59:53.27 | 2:28.01 | 269502 | 280602


Track 1

Filename C:\My Documents\My FLAC\Rachel's - Systems, Layers (2003) [FLAC] {¼ Stick}\01 - Moscow Is In The Telephone.wav

Pre-gap length 0:00:02.00

Peak level 73.9 %
Extraction speed 2.8 X
Track quality 100.0 %
Test CRC C0301E8F
Copy CRC C0301E8F
Accurately ripped (confidence 7) [0F8CC87B] (AR v2)
Copy OK

Track 2

Filename C:\My Documents\My FLAC\Rachel's - Systems, Layers (2003) [FLAC] {¼ Stick}\02 - Water From The Same Source.wav

Pre-gap length 0:00:00.02

Peak level 99.8 %
Extraction speed 3.3 X
Track quality 100.0 %
Test CRC B4961B0E
Copy CRC B4961B0E
Accurately ripped (confidence 8) [62B291C9] (AR v2)
Copy OK

Track 3

Filename C:\My Documents\My FLAC\Rachel's - Systems, Layers (2003) [FLAC] {¼ Stick}\03 - systems,layers.wav

Peak level 99.8 %
Extraction speed 2.7 X
Track quality 99.9 %
Test CRC 307D17C8
Copy CRC 307D17C8
Accurately ripped (confidence 8) [31E983B0] (AR v2)
Copy OK

Track 4

Filename C:\My Documents\My FLAC\Rachel's - Systems, Layers (2003) [FLAC] {¼ Stick}\04 - Expect Delays.wav

Peak level 99.8 %
Extraction speed 3.7 X
Track quality 100.0 %
Test CRC EB786D89
Copy CRC EB786D89
Accurately ripped (confidence 8) [D5A0453C] (AR v2)
Copy OK

Track 5

Filename C:\My Documents\My FLAC\Rachel's - Systems, Layers (2003) [FLAC] {¼ Stick}\05 - Arterial.wav

Peak level 97.8 %
Extraction speed 3.2 X
Track quality 100.0 %
Test CRC 7306708A
Copy CRC 7306708A
Accurately ripped (confidence 8) [0F1E79F3] (AR v2)
Copy OK

Track 6

Filename C:\My Documents\My FLAC\Rachel's - Systems, Layers (2003) [FLAC] {¼ Stick}\06 - even,odd.wav

Peak level 99.8 %
Extraction speed 3.6 X
Track quality 100.0 %
Test CRC E481065D
Copy CRC E481065D
Accurately ripped (confidence 8) [B350D1C3] (AR v2)
Copy OK

Track 7

Filename C:\My Documents\My FLAC\Rachel's - Systems, Layers (2003) [FLAC] {¼ Stick}\07 - Wouldn't Live Anywhere Else.wav

Peak level 93.2 %
Extraction speed 3.7 X
Track quality 100.0 %
Test CRC 4D779896
Copy CRC 4D779896
Accurately ripped (confidence 8) [2ADCBB64] (AR v2)
Copy OK

Track 8

Filename C:\My Documents\My FLAC\Rachel's - Systems, Layers (2003) [FLAC] {¼ Stick}\08 - Esperanza.wav

Peak level 99.8 %
Extraction speed 4.5 X
Track quality 100.0 %
Test CRC A474E689
Copy CRC A474E689
Accurately ripped (confidence 8) [88285F6C] (AR v2)
Copy OK

Track 9

Filename C:\My Documents\My FLAC\Rachel's - Systems, Layers (2003) [FLAC] {¼ Stick}\09 - Packet Switching.wav

Peak level 55.9 %
Extraction speed 3.3 X
Track quality 100.0 %
Test CRC C0A4611B
Copy CRC C0A4611B
Accurately ripped (confidence 8) [428A6EDC] (AR v2)
Copy OK

Track 10

Filename C:\My Documents\My FLAC\Rachel's - Systems, Layers (2003) [FLAC] {¼ Stick}\10 - where_have_all_my_files_gone.wav

Peak level 53.3 %
Extraction speed 4.2 X
Track quality 100.0 %
Test CRC 450B50A1
Copy CRC 450B50A1
Accurately ripped (confidence 8) [C4C41D72] (AR v2)
Copy OK

Track 11

Filename C:\My Documents\My FLAC\Rachel's - Systems, Layers (2003) [FLAC] {¼ Stick}\11 - Reflective Surfaces.wav

Peak level 99.8 %
Extraction speed 4.0 X
Track quality 100.0 %
Test CRC 4485EDBB
Copy CRC 4485EDBB
Accurately ripped (confidence 8) [2023BD1B] (AR v2)
Copy OK

Track 12

Filename C:\My Documents\My FLAC\Rachel's - Systems, Layers (2003) [FLAC] {¼ Stick}\12 - Unclear Channel.wav

Peak level 99.8 %
Extraction speed 4.5 X
Track quality 100.0 %
Test CRC 361D8D7D
Copy CRC 361D8D7D
Accurately ripped (confidence 8) [8D81187A] (AR v2)
Copy OK

Track 13

Filename C:\My Documents\My FLAC\Rachel's - Systems, Layers (2003) [FLAC] {¼ Stick}\13 - Last Things Last.wav

Peak level 99.8 %
Extraction speed 4.6 X
Track quality 100.0 %
Test CRC AB3B21CF
Copy CRC AB3B21CF
Accurately ripped (confidence 8) [8CE7B509] (AR v2)
Copy OK

Track 14

Filename C:\My Documents\My FLAC\Rachel's - Systems, Layers (2003) [FLAC] {¼ Stick}\14 - Anytime Soon.wav

Peak level 83.1 %
Extraction speed 4.6 X
Track quality 100.0 %
Test CRC 90A1D13E
Copy CRC 90A1D13E
Accurately ripped (confidence 8) [AAF86CCA] (AR v2)
Copy OK

Track 15

Filename C:\My Documents\My FLAC\Rachel's - Systems, Layers (2003) [FLAC] {¼ Stick}\15 - Air Conditioning,a closed feeling.wav

Peak level 99.8 %
Extraction speed 5.1 X
Track quality 100.0 %
Test CRC 0967033D
Copy CRC 0967033D
Accurately ripped (confidence 8) [E4CDA584] (AR v2)
Copy OK

Track 16

Filename C:\My Documents\My FLAC\Rachel's - Systems, Layers (2003) [FLAC] {¼ Stick}\16 - Singing Bridge.wav

Peak level 99.8 %
Extraction speed 3.7 X
Track quality 100.0 %
Test CRC 58CFEC27
Copy CRC 58CFEC27
Accurately ripped (confidence 8) [13681F5C] (AR v2)
Copy OK

Track 17

Filename C:\My Documents\My FLAC\Rachel's - Systems, Layers (2003) [FLAC] {¼ Stick}\17 - And Keep Smiling.wav

Peak level 99.8 %
Extraction speed 4.1 X
Track quality 100.0 %
Test CRC 9001C7A1
Copy CRC 9001C7A1
Accurately ripped (confidence 8) [B268D160] (AR v2)
Copy OK

Track 18

Filename C:\My Documents\My FLAC\Rachel's - Systems, Layers (2003) [FLAC] {¼ Stick}\18 - 4 Or 5 Trees.wav

Peak level 94.6 %
Extraction speed 5.5 X
Track quality 100.0 %
Test CRC D05C7A57
Copy CRC D05C7A57
Accurately ripped (confidence 8) [513042C9] (AR v2)
Copy OK

Track 19

Filename C:\My Documents\My FLAC\Rachel's - Systems, Layers (2003) [FLAC] {¼ Stick}\19 - NY Snow Globe.wav

Peak level 99.8 %
Extraction speed 3.4 X
Track quality 100.0 %
Test CRC 62A173C3
Copy CRC 62A173C3
Accurately ripped (confidence 8) [E425013A] (AR v2)
Copy OK


All tracks accurately ripped

No errors occurred

End of status report

–– CUETools DB Plugin V2.1.6

[CTDB TOCID: v5UpPRCNagYqSfJBLTNTp9nzEuM-] found
Submit result: v5UpPRCNagYqSfJBLTNTp9nzEuM- has been confirmed
Track | CTDB Status
1 | (25/32) Accurately ripped, or (1/32) differs in 60 samples @00:00:24,00:00:32-00:00:33,00:01:16,00:33:20
2 | (27/32) Accurately ripped
3 | (27/32) Accurately ripped
4 | (27/32) Accurately ripped
5 | (27/32) Accurately ripped
6 | (27/32) Accurately ripped
7 | (27/32) Accurately ripped
8 | (27/32) Accurately ripped
9 | (27/32) Accurately ripped
10 | (27/32) Accurately ripped
11 | (27/32) Accurately ripped
12 | (27/32) Accurately ripped
13 | (27/32) Accurately ripped
14 | (27/32) Accurately ripped
15 | (27/32) Accurately ripped
16 | (27/32) Accurately ripped
17 | (27/32) Accurately ripped
18 | (27/32) Accurately ripped
19 | (26/32) Accurately ripped


==== Log checksum 7264916B4A019AA9FC36D6BA3FF9189FA8FB7CDDFD05E12CA73EA9EE5201D263 ====


Rachel's - Systems/Layers (2003) {¼ Stick} **[RE-UP]**